<?xml version="1.0" standalone="no"?>
<!DOCTYPE svg PUBLIC "-//W3C//DTD SVG 1.1//EN" "http://www.w3.org/Graphics/SVG/1.1/DTD/svg11.dtd" >
<svg>
<metadata>
Created by FontForge 20110222 at Wed Aug 13 21:23:26 2014
 By Orthosie Webhosting
(c) 2011 Klim Type Foundry. All rights reserved.
</metadata>
<defs>
<font id="CalibreBoldItalic" horiz-adv-x="500" >
  <font-face 
    font-family="CalibreBoldItalic"
    font-weight="700"
    font-style="italic"
    font-stretch="normal"
    units-per-em="1000"
    panose-1="2 11 8 3 3 2 2 13 2 3"
    ascent="650"
    descent="-350"
    x-height="450"
    cap-height="614"
    bbox="-182 -236 969 923"
    underline-thickness="30"
    underline-position="-40"
    slope="-10"
    unicode-range="U+0020-FB02"
  />
<missing-glyph horiz-adv-x="608" 
 />
    <glyph glyph-name="f_f" unicode="ff" horiz-adv-x="639" 
d="M705 647l-23 -128q-14 9 -35 9q-57 0 -66 -54l-4 -24h87l-22 -122h-87l-57 -328h-155l57 328h-146l-57 -328h-155l57 328h-67l22 122h67l5 27q14 85 67 130.5t139 45.5q40 0 71 -12l-23 -125q-14 8 -35 8q-56 0 -65 -52l-4 -22h146l6 33q14 85 67 130.5t139 45.5
q40 0 71 -12z" />
    <glyph glyph-name=".notdef" horiz-adv-x="608" 
 />
    <glyph glyph-name=".null" horiz-adv-x="0" 
 />
    <glyph glyph-name="nonmarkingreturn" horiz-adv-x="333" 
 />
    <glyph glyph-name="space" unicode=" " horiz-adv-x="200" 
 />
    <glyph glyph-name="exclam" unicode="!" horiz-adv-x="239" 
d="M59 206l40 408h190l-109 -408h-121zM9 82q0 37 27 62.5t66 25.5t66 -25.5t27 -62.5q0 -38 -27 -63.5t-66 -25.5t-66 25.5t-27 63.5z" />
    <glyph glyph-name="quotedbl" unicode="&#x22;" horiz-adv-x="356" 
d="M55 355l47 259h121l-47 -259h-121zM219 355l47 259h121l-47 -259h-121z" />
    <glyph glyph-name="numbersign" unicode="#" horiz-adv-x="642" 
d="M584 255l-21 -99h-110l-47 -156h-113l47 156h-107l-47 -156h-112l47 156h-87l23 99h94l32 104h-101l22 99h109l47 156h113l-48 -156h107l48 156h112l-47 -156h87l-23 -99h-94l-32 -104h101zM295 359l-32 -104h107l32 104h-107z" />
    <glyph glyph-name="dollar" unicode="$" horiz-adv-x="517" 
d="M10 192h157q4 -31 27.5 -48t57.5 -17q37 0 58.5 15.5t22.5 43.5q0 33 -53 47l-96 28q-59 17 -91.5 50t-32.5 93q0 84 58.5 140t149.5 64l16 89h128l-18 -101q62 -20 94.5 -64t36.5 -105h-149q-4 26 -25 43t-56 17q-34 0 -55 -15t-21 -41q0 -30 42 -43l106 -32
q126 -37 126 -145q0 -86 -57 -140t-146 -66l-16 -91h-128l18 98q-70 17 -110.5 63.5t-43.5 116.5z" />
    <glyph glyph-name="percent" unicode="%" horiz-adv-x="698" 
d="M211 624q60 0 100.5 -40.5t40.5 -99.5q0 -61 -44 -107t-107 -46q-59 0 -100 40.5t-41 99.5q0 61 44 107t107 46zM204 424q22 0 38.5 16.5t16.5 39.5q0 21 -15 36t-36 15t-38 -16.5t-17 -39.5q0 -21 15 -36t36 -15zM71 0l478 614h94l-479 -614h-93zM502 -10
q-59 0 -100 40.5t-41 99.5q0 61 44 107t108 46q59 0 99.5 -40.5t40.5 -99.5q0 -61 -44 -107t-107 -46zM509 190q-21 0 -37.5 -16t-16.5 -40q0 -21 14.5 -36t35.5 -15t38 16.5t17 39.5q0 21 -15 36t-36 15z" />
    <glyph glyph-name="ampersand" unicode="&#x26;" horiz-adv-x="590" 
d="M325 500q-26 0 -41 -17t-15 -43q0 -30 27 -69l99 -140q21 39 30 89h138q-18 -108 -93 -195l89 -125h-170l-26 35q-78 -45 -157 -45q-92 0 -144.5 45.5t-52.5 125.5q0 59 34 107t93 77q-20 40 -20 80q0 90 62 144.5t155 54.5q90 0 139.5 -48t50.5 -127h-151q-2 51 -47 51z
M221 111q35 0 72 17l-91 122q-21 -10 -34 -30.5t-13 -45.5q0 -28 17.5 -45.5t48.5 -17.5z" />
    <glyph glyph-name="quotesingle" unicode="'" horiz-adv-x="200" 
d="M55 355l47 259h128l-46 -259h-129z" />
    <glyph glyph-name="parenleft" unicode="(" horiz-adv-x="334" 
d="M37 228q0 158 96 275.5t258 146.5l-26 -147q-80 -26 -132 -97.5t-52 -177.5q0 -127 107 -165l-26 -147q-108 29 -166.5 109t-58.5 203z" />
    <glyph glyph-name="parenright" unicode=")" horiz-adv-x="334" 
d="M320 338q0 -158 -96 -275.5t-258 -146.5l26 147q80 26 132 97.5t52 177.5q0 127 -107 165l26 147q108 -29 166.5 -109t58.5 -203z" />
    <glyph glyph-name="asterisk" unicode="*" horiz-adv-x="344" 
d="M227 342l-73 13l14 84l-80 -29l-25 70l80 29l-66 55l48 57l65 -55l15 85l74 -13l-15 -85l79 30l26 -70l-80 -29l66 -56l-48 -56l-65 54z" />
    <glyph glyph-name="plus" unicode="+" horiz-adv-x="556" 
d="M273 526h116l-30 -169h169l-20 -116h-170l-29 -168h-116l29 168h-168l21 116h168z" />
    <glyph glyph-name="comma" unicode="," horiz-adv-x="223" 
d="M-34 -105l88 116q-57 18 -57 79q0 39 26.5 64t66.5 25q39 0 65.5 -25.5t26.5 -70.5q0 -44 -43 -98l-71 -90h-102z" />
    <glyph glyph-name="hyphen" unicode="-" horiz-adv-x="312" 
d="M31 196l23 132h241l-23 -132h-241z" />
    <glyph glyph-name="period" unicode="." horiz-adv-x="223" 
d="M-3 87q0 39 26.5 66t65.5 27t66 -26.5t27 -66.5t-27 -67t-66 -27q-38 0 -65 27t-27 67z" />
    <glyph glyph-name="slash" unicode="/" horiz-adv-x="394" 
d="M-54 -84l376 734h142l-377 -734h-141z" />
    <glyph glyph-name="zero" unicode="0" horiz-adv-x="557" 
d="M266 131q61 0 96.5 71t35.5 161q0 53 -20 86.5t-59 33.5q-61 0 -96.5 -71t-35.5 -161q0 -53 20 -86.5t59 -33.5zM260 -10q-105 0 -164.5 72.5t-59.5 188.5q0 154 83.5 263.5t205.5 109.5q105 0 164.5 -72.5t59.5 -188.5q0 -154 -83.5 -263.5t-205.5 -109.5z" />
    <glyph glyph-name="one" unicode="1" horiz-adv-x="367" 
d="M379 614l-108 -614h-158l76 435l-153 -69l28 157l207 91h108z" />
    <glyph glyph-name="two" unicode="2" horiz-adv-x="489" 
d="M-4 107l255 212q3 2 15 12.5t15.5 14t14 13t14 14.5t10.5 14t9.5 15.5t5 15t2.5 16.5q0 21 -13 33.5t-37 12.5q-28 0 -46 -17.5t-25 -43.5h-167q24 90 91.5 147.5t164.5 57.5q91 0 142.5 -44t51.5 -119q0 -36 -10 -66t-34 -58.5t-43.5 -47.5t-58.5 -51l-118 -100h212
l-24 -138h-445z" />
    <glyph glyph-name="three" unicode="3" horiz-adv-x="487" 
d="M200 253l20 115h35q39 0 64.5 18t25.5 54q0 22 -14 36t-39 14q-29 0 -49.5 -19t-29.5 -49h-161q22 91 89 146.5t164 55.5q90 0 140 -46t50 -120q0 -51 -27.5 -92t-66.5 -59q58 -38 58 -114q0 -87 -66.5 -145t-165.5 -58q-100 0 -160 52.5t-60 137.5l1 17h160v-5
q0 -31 16.5 -49t48.5 -18q33 0 55 19.5t22 51.5q0 27 -18.5 42t-51.5 15h-40z" />
    <glyph glyph-name="four" unicode="4" horiz-adv-x="524" 
d="M434 614l-239 -370h95l19 104h138l-18 -104h84l-24 -130h-84l-19 -114h-138l19 114h-268l22 121l248 379h165z" />
    <glyph glyph-name="five" unicode="5" horiz-adv-x="497" 
d="M233 -10q-101 0 -159.5 53t-58.5 137l1 17h157v-5q0 -30 18.5 -48.5t50.5 -18.5q37 0 60 24.5t23 62.5q0 31 -17.5 49t-49.5 18q-39 0 -71 -32h-133l64 367h381l-24 -137h-250l-16 -91q44 21 86 21q82 0 130 -49t48 -129q0 -104 -67 -171.5t-173 -67.5z" />
    <glyph glyph-name="six" unicode="6" horiz-adv-x="516" 
d="M530 443h-150q-4 20 -19.5 34t-40.5 14q-46 0 -80 -39t-45 -94h2q18 19 49 32t63 13q85 0 136.5 -51t51.5 -125q0 -99 -69 -168t-171 -69q-111 0 -166 71.5t-55 182.5q0 52 11.5 105t36 102.5t59 88t83 61.5t104.5 23q90 0 142 -49.5t58 -131.5zM183 193
q0 -33 19.5 -53.5t55.5 -20.5q38 0 65 26.5t27 66.5q0 32 -19 53t-55 21q-38 0 -65.5 -26.5t-27.5 -66.5z" />
    <glyph glyph-name="seven" unicode="7" horiz-adv-x="466" 
d="M494 506l-276 -506h-169l262 476h-253l24 138h431z" />
    <glyph glyph-name="eight" unicode="8" horiz-adv-x="508" 
d="M172 175q0 -28 20 -44.5t53 -17.5q35 0 60 20t25 55q0 28 -20.5 45t-52.5 17q-36 0 -60.5 -20t-24.5 -55zM241 -10q-56 0 -105 17t-83.5 57t-34.5 96q0 60 35 103t88 58q-60 34 -60 111q0 89 65.5 140.5t157.5 51.5q86 0 144.5 -44.5t58.5 -119.5q0 -53 -28.5 -95.5
t-75.5 -61.5q34 -17 56 -49t22 -73q0 -90 -70.5 -140.5t-169.5 -50.5zM364 448q0 25 -18.5 41t-46.5 16q-33 0 -55 -19t-22 -52q0 -25 18 -41t46 -16q33 0 55.5 19t22.5 52z" />
    <glyph glyph-name="nine" unicode="9" horiz-adv-x="516" 
d="M13 171h150q4 -20 19.5 -34t40.5 -14q46 0 80 39t45 94h-2q-18 -19 -49 -32t-63 -13q-85 0 -136.5 51t-51.5 125q0 99 69 168t171 69q111 0 166 -71.5t55 -182.5q0 -52 -11.5 -105t-36 -102.5t-59 -88t-83 -61.5t-104.5 -23q-90 0 -142 49.5t-58 131.5zM360 421
q0 33 -19.5 53.5t-55.5 20.5q-38 0 -65 -26.5t-27 -66.5q0 -32 19 -53t55 -21q38 0 65.5 26.5t27.5 66.5z" />
    <glyph glyph-name="colon" unicode=":" horiz-adv-x="223" 
d="M-3 87q0 39 26.5 66t65.5 27t66 -26.5t27 -66.5t-27 -67t-66 -27q-38 0 -65 27t-27 67zM45 352q0 40 26.5 66.5t65.5 26.5t66 -26.5t27 -66.5t-27 -67t-66 -27q-38 0 -65 27t-27 67z" />
    <glyph glyph-name="semicolon" unicode=";" horiz-adv-x="223" 
d="M-34 -105l88 116q-57 18 -57 79q0 39 26.5 64t66.5 25q39 0 65.5 -25.5t26.5 -70.5q0 -44 -43 -98l-71 -90h-102zM45 352q0 40 26.5 66.5t65.5 26.5t66 -26.5t27 -66.5t-27 -67t-66 -27q-38 0 -65 27t-27 67z" />
    <glyph glyph-name="less" unicode="&#x3c;" horiz-adv-x="433" 
d="M42 225l26 144l371 153l-23 -133l-253 -96l219 -95l-22 -126z" />
    <glyph glyph-name="equal" unicode="=" horiz-adv-x="574" 
d="M49 158l19 103h453l-19 -103h-453zM81 340l18 105h453l-18 -105h-453z" />
    <glyph glyph-name="greater" unicode="&#x3e;" horiz-adv-x="433" 
d="M418 369l-25 -144l-372 -153l23 133l253 96l-219 95l22 126z" />
    <glyph glyph-name="question" unicode="?" horiz-adv-x="475" 
d="M280 480q-28 0 -47.5 -17.5t-25.5 -43.5h-166q27 91 95.5 148t168.5 57q86 0 137 -42.5t51 -114.5q0 -23 -6 -45t-11.5 -35.5t-23.5 -35t-23.5 -27.5t-31 -30t-28.5 -27q-38 -34 -43 -61h-155q13 59 62 107q8 8 26 24.5t26.5 25t19.5 22t15.5 25.5t5.5 25
q0 20 -12.5 32.5t-33.5 12.5zM138 82q0 38 27 63t66 25q41 0 68 -25t27 -63t-27 -63.5t-68 -25.5q-39 0 -66 25.5t-27 63.5z" />
    <glyph glyph-name="at" unicode="@" horiz-adv-x="759" 
d="M592 391l-56 -243q-11 -41 24 -41q46 0 76 48t30 132q0 98 -68.5 153.5t-177.5 55.5q-139 0 -228 -92t-89 -237q0 -68 26 -118.5t69 -77t89.5 -39t97.5 -12.5q123 0 240 53l-14 -81q-96 -46 -226 -46q-73 0 -137 19t-116 56.5t-82 100.5t-30 144q0 169 114 287t289 118
q143 0 232.5 -79.5t89.5 -202.5q0 -124 -65 -192t-158 -68q-78 0 -113 50q-36 -48 -103 -48q-60 0 -93.5 39t-33.5 100q0 92 56 160.5t141 68.5q28 0 51 -10.5t32 -25.5l8 28h125zM414 173l21 86q-9 31 -46 31q-33 0 -56.5 -29.5t-23.5 -70.5q0 -50 48 -50q35 0 57 33z" />
    <glyph glyph-name="A" unicode="A" horiz-adv-x="646" 
d="M318 614h164l119 -614h-159l-22 119h-224l-66 -119h-160zM366 424l-97 -173h128z" />
    <glyph glyph-name="B" unicode="B" horiz-adv-x="554" 
d="M449 315q36 -14 56.5 -46t20.5 -74q0 -90 -66 -142.5t-170 -52.5h-282l108 614h264q85 0 130.5 -37t45.5 -107q0 -56 -31 -98t-76 -57zM226 371h92q83 0 83 66q0 45 -63 45h-92zM205 251l-21 -119h108q37 0 59 19t22 50q0 50 -60 50h-108z" />
    <glyph glyph-name="C" unicode="C" horiz-adv-x="607" 
d="M36 269q0 148 92 251.5t233 103.5q111 0 177 -60t72 -156h-160q-6 35 -30.5 55t-64.5 20q-71 0 -114 -59t-43 -151q0 -64 32.5 -103t86.5 -39q78 0 113 76h161q-32 -100 -101.5 -158.5t-177.5 -58.5q-125 0 -200.5 77.5t-75.5 201.5z" />
    <glyph glyph-name="D" unicode="D" horiz-adv-x="612" 
d="M191 139h67q86 0 137 56.5t51 147.5q0 63 -33.5 98t-98.5 35h-64zM8 0l108 614h227q128 0 196 -67.5t68 -187.5q0 -158 -101.5 -258.5t-263.5 -100.5h-234z" />
    <glyph glyph-name="E" unicode="E" horiz-adv-x="519" 
d="M116 614h440l-24 -138h-282l-17 -96h256l-23 -135h-257l-18 -106h281l-24 -139h-440z" />
    <glyph glyph-name="F" unicode="F" horiz-adv-x="508" 
d="M167 0h-159l108 614h432l-25 -139h-273l-21 -122h251l-24 -136h-251z" />
    <glyph glyph-name="G" unicode="G" horiz-adv-x="625" 
d="M315 -10q-127 0 -203 77.5t-76 201.5q0 148 92.5 251.5t233.5 103.5q113 0 180 -59.5t74 -155.5h-160q-7 34 -32.5 54t-66.5 20q-71 0 -115 -59t-44 -151q0 -64 33 -103t89 -39q42 0 74 21.5t45 55.5h-93l21 120h254l-15 -87q-19 -112 -98.5 -181.5t-192.5 -69.5z" />
    <glyph glyph-name="H" unicode="H" horiz-adv-x="650" 
d="M514 614h161l-108 -614h-161l43 243h-237l-43 -243h-161l108 614h161l-41 -233h237z" />
    <glyph glyph-name="I" unicode="I" horiz-adv-x="253" 
d="M277 614l-108 -614h-161l108 614h161z" />
    <glyph glyph-name="J" unicode="J" horiz-adv-x="539" 
d="M17 223h161q-1 -8 -1 -13q0 -76 72 -76q42 0 64 27t31 80l66 373h161l-67 -380q-21 -120 -88.5 -182t-173.5 -62q-104 0 -165 55.5t-61 149.5q0 5 0.5 15.5t0.5 12.5z" />
    <glyph glyph-name="K" unicode="K" horiz-adv-x="611" 
d="M277 614l-44 -251l241 251h194l-266 -272l164 -342h-182l-116 238l-69 -69l-30 -169h-161l108 614h161z" />
    <glyph glyph-name="L" unicode="L" horiz-adv-x="510" 
d="M8 0l108 614h161l-84 -475h276l-24 -139h-437z" />
    <glyph glyph-name="M" unicode="M" horiz-adv-x="752" 
d="M391 0h-104l-64 365l-65 -365h-150l108 614h192l68 -385l202 385h199l-108 -614h-151l65 365z" />
    <glyph glyph-name="N" unicode="N" horiz-adv-x="631" 
d="M656 614l-108 -614h-124l-196 370l-65 -370h-155l108 614h144l179 -349l62 349h155z" />
    <glyph glyph-name="O" unicode="O" horiz-adv-x="643" 
d="M317 131q68 0 113.5 57.5t45.5 152.5q0 63 -32.5 102.5t-86.5 39.5q-69 0 -114 -57t-45 -153q0 -63 32.5 -102.5t86.5 -39.5zM312 -10q-126 0 -201 77.5t-75 201.5q0 153 94 254t232 101q126 0 201 -77.5t75 -201.5q0 -153 -94 -254t-232 -101z" />
    <glyph glyph-name="P" unicode="P" horiz-adv-x="559" 
d="M311 191h-111l-33 -191h-159l108 614h256q95 0 148 -47t53 -134q0 -113 -74.5 -177.5t-187.5 -64.5zM251 479l-26 -154h93q46 0 72 24.5t26 66.5q0 63 -74 63h-91z" />
    <glyph glyph-name="Q" unicode="Q" horiz-adv-x="643" 
d="M312 -10q-126 0 -201 77.5t-75 201.5q0 153 94 254t232 101q126 0 201 -77.5t75 -201.5q0 -170 -117 -274l34 -54l-100 -66l-36 57q-51 -18 -107 -18zM317 126q9 0 27 2l-38 61l102 65l34 -55q34 56 34 142q0 63 -32.5 102.5t-86.5 39.5q-69 0 -114 -57t-45 -153
q0 -64 32.5 -105.5t86.5 -41.5z" />
    <glyph glyph-name="R" unicode="R" horiz-adv-x="574" 
d="M264 203h-61l-36 -203h-159l108 614h265q91 0 143.5 -47.5t52.5 -132.5q0 -80 -42.5 -135t-113.5 -79l111 -220h-170zM251 479l-26 -148h99q46 0 71.5 23t25.5 65q0 60 -73 60h-97z" />
    <glyph glyph-name="S" unicode="S" horiz-adv-x="547" 
d="M554 433h-158q-5 27 -27.5 45t-58.5 18t-57 -16t-21 -43q0 -33 41 -45l111 -34q130 -39 130 -151q0 -101 -73.5 -159t-182.5 -58q-110 0 -176 51t-74 144h163q6 -32 30.5 -49t60.5 -17q39 0 61.5 16t23.5 45q0 19 -12.5 31t-41.5 20l-100 29q-61 17 -94 52t-33 97
q0 96 70.5 155.5t176.5 59.5q113 0 174.5 -52.5t66.5 -138.5z" />
    <glyph glyph-name="T" unicode="T" horiz-adv-x="580" 
d="M65 476l24 138h540l-25 -138h-189l-84 -476h-161l84 476h-189z" />
    <glyph glyph-name="U" unicode="U" horiz-adv-x="613" 
d="M282 -10q-111 0 -176 54.5t-65 153.5q0 32 6 62l63 354h160l-62 -349q-4 -26 -4 -38q0 -45 23 -69.5t67 -24.5q105 0 129 132l61 349h160l-64 -364q-23 -127 -99 -193.5t-199 -66.5z" />
    <glyph glyph-name="V" unicode="V" horiz-adv-x="629" 
d="M344 0h-157l-109 614h161l65 -397l219 397h170z" />
    <glyph glyph-name="W" unicode="W" horiz-adv-x="822" 
d="M420 614h122l22 -361l157 361h164l-284 -614h-146l-24 360l-168 -360h-146l-39 614h159l16 -361z" />
    <glyph glyph-name="X" unicode="X" horiz-adv-x="598" 
d="M662 614l-261 -305l148 -309h-167l-88 190l-160 -190h-178l274 320l-140 294h166l80 -175l148 175h178z" />
    <glyph glyph-name="Y" unicode="Y" horiz-adv-x="612" 
d="M330 374l172 240h175l-291 -396l-38 -218h-161l38 218l-149 396h167z" />
    <glyph glyph-name="Z" unicode="Z" horiz-adv-x="561" 
d="M516 139l-25 -139h-493l20 119l348 357h-280l25 138h486l-21 -118l-343 -357h283z" />
    <glyph glyph-name="bracketleft" unicode="[" horiz-adv-x="331" 
d="M248 520l-83 -474h119l-23 -130h-266l129 734h266l-23 -130h-119z" />
    <glyph glyph-name="backslash" unicode="\" horiz-adv-x="394" 
d="M219 650l119 -734h-126l-119 734h126z" />
    <glyph glyph-name="bracketright" unicode="]" horiz-adv-x="331" 
d="M108 46l83 474h-119l23 130h266l-129 -734h-266l23 130h119z" />
    <glyph glyph-name="asciicircum" unicode="^" horiz-adv-x="432" 
d="M219 614h128l100 -238h-129l-50 125l-93 -125h-140z" />
    <glyph glyph-name="underscore" unicode="_" horiz-adv-x="381" 
d="M-42 -161l19 119h341l-20 -119h-340z" />
    <glyph glyph-name="grave" unicode="`" 
d="M351 500h-133l-61 150h138z" />
    <glyph glyph-name="a" unicode="a" horiz-adv-x="485" 
d="M456 276l-48 -276h-152l4 23q-37 -31 -103 -31q-65 0 -108.5 35.5t-43.5 95.5q0 73 55.5 115t135.5 42q69 0 105 -26l5 29q0 1 0.5 6t0.5 8q0 42 -46 42q-41 0 -59 -34h-148q18 68 79 111.5t146 43.5q83 0 132 -39.5t49 -107.5q0 -13 -4 -37zM277 124l5 28q-12 31 -60 31
q-27 0 -48 -12.5t-21 -36.5q0 -18 16.5 -28t39.5 -10q46 0 68 28z" />
    <glyph glyph-name="b" unicode="b" horiz-adv-x="533" 
d="M167 36l-6 -36h-157l114 650h157l-42 -238q48 48 115 48q80 0 123.5 -54.5t43.5 -138.5q0 -116 -66.5 -196.5t-171.5 -80.5q-36 0 -66.5 13t-43.5 33zM210 282l-20 -116q5 -19 22.5 -30.5t42.5 -11.5q44 0 72.5 35.5t28.5 91.5q0 34 -17.5 55t-50.5 21q-47 0 -78 -45z
" />
    <glyph glyph-name="c" unicode="c" horiz-adv-x="471" 
d="M295 167h151q-19 -84 -76 -130.5t-147 -46.5q-95 0 -150 56.5t-55 145.5q0 111 69.5 189.5t179.5 78.5q94 0 144 -48t52 -129h-152q-2 47 -48 47q-43 0 -66.5 -41.5t-23.5 -92.5q0 -35 15.5 -55t43.5 -20q46 0 63 46z" />
    <glyph glyph-name="d" unicode="d" horiz-adv-x="532" 
d="M366 414l41 236h156l-114 -650h-156l6 38q-48 -48 -115 -48q-79 0 -122.5 54.5t-43.5 138.5q0 115 66.5 196t171.5 81q36 0 66.5 -13t43.5 -33zM322 169l21 116q-5 18 -23 30t-42 12q-44 0 -72.5 -37.5t-28.5 -90.5q0 -33 17.5 -54t50.5 -21q48 0 77 45z" />
    <glyph glyph-name="e" unicode="e" horiz-adv-x="482" 
d="M303 157h148q-22 -79 -80.5 -123t-145.5 -44q-95 0 -151 55.5t-56 148.5q0 109 69.5 187.5t183.5 78.5q91 0 142.5 -49.5t51.5 -138.5q0 -36 -9 -77h-289v-4q0 -79 68 -79q49 0 68 45zM265 338q-56 0 -83 -65h136q0 1 0.5 5t0.5 6q0 24 -14.5 39t-39.5 15z" />
    <glyph glyph-name="f" unicode="f" horiz-adv-x="338" 
d="M404 647l-23 -128q-13 9 -35 9q-57 0 -66 -54l-4 -24h87l-22 -122h-87l-57 -328h-155l57 328h-67l22 122h67l6 33q14 85 67 130.5t139 45.5q40 0 71 -12z" />
    <glyph glyph-name="g" unicode="g" horiz-adv-x="531" 
d="M299 35l6 30q-46 -46 -109 -46q-82 0 -127.5 53t-45.5 133q0 108 65 181.5t167 73.5q39 0 68.5 -13t42.5 -32l7 35h156l-69 -390q-41 -229 -260 -229q-92 0 -148.5 44.5t-59.5 118.5h152q4 -48 64 -48q75 0 91 89zM326 186l19 110q-5 17 -23 28.5t-42 11.5q-45 0 -72 -35
t-27 -86q0 -32 17.5 -51.5t49.5 -19.5q47 0 78 42z" />
    <glyph glyph-name="h" unicode="h" horiz-adv-x="519" 
d="M358 460q64 0 100.5 -36t36.5 -97q0 -17 -3 -36l-51 -291h-157l45 257q2 16 2 17q0 47 -50 47q-23 0 -42.5 -13.5t-29.5 -35.5l-48 -272h-157l114 650h157l-42 -239q49 49 125 49z" />
    <glyph glyph-name="i" unicode="i" horiz-adv-x="242" 
d="M240 450l-79 -450h-157l79 450h157zM272 576q0 -40 -26.5 -64t-64.5 -24q-37 0 -62 22.5t-25 58.5q0 39 27 63.5t64 24.5t62 -22.5t25 -58.5z" />
    <glyph glyph-name="j" unicode="j" horiz-adv-x="242" 
d="M-99 -158l21 119q16 -7 33 -7q41 0 49 50l79 446h157l-78 -440q-31 -179 -190 -179q-42 0 -71 11zM272 576q0 -40 -26.5 -64t-64.5 -24q-37 0 -62 22.5t-25 58.5q0 39 27 63.5t64 24.5t62 -22.5t25 -58.5z" />
    <glyph glyph-name="k" unicode="k" horiz-adv-x="522" 
d="M312 0l-90 169l-38 -38l-23 -131h-157l114 650h157l-61 -349l149 149h193l-209 -195l134 -255h-169z" />
    <glyph glyph-name="l" unicode="l" horiz-adv-x="242" 
d="M275 650l-114 -650h-157l114 650h157z" />
    <glyph glyph-name="m" unicode="m" horiz-adv-x="769" 
d="M472 406q57 54 135 54q65 0 102 -36.5t37 -95.5q0 -15 -3 -33l-52 -295h-156l44 255q2 10 2 21q0 45 -41 45q-44 0 -67 -50l-47 -271h-157l45 255q2 20 2 21q0 45 -41 45q-45 0 -67 -50l-47 -271h-157l79 450h157l-7 -39q49 49 126 49t113 -54z" />
    <glyph glyph-name="n" unicode="n" horiz-adv-x="519" 
d="M4 0l79 450h157l-7 -39q49 49 125 49q64 0 100.5 -36t36.5 -97q0 -17 -3 -36l-51 -291h-157l45 257q2 16 2 17q0 47 -50 47q-23 0 -42.5 -13.5t-29.5 -35.5l-48 -272h-157z" />
    <glyph glyph-name="o" unicode="o" horiz-adv-x="496" 
d="M232 120q41 0 66.5 39.5t25.5 98.5q0 33 -16 53t-44 20q-40 0 -65.5 -40t-25.5 -99q0 -32 15.5 -52t43.5 -20zM228 -10q-94 0 -152 55.5t-58 148.5q0 116 72.5 191t177.5 75q94 0 152 -55.5t58 -148.5q0 -116 -72 -191t-178 -75z" />
    <glyph glyph-name="p" unicode="p" horiz-adv-x="533" 
d="M167 36l-34 -195h-157l107 609h157l-7 -38q48 48 115 48q80 0 123.5 -54.5t43.5 -138.5q0 -116 -66.5 -196.5t-171.5 -80.5q-36 0 -66.5 13t-43.5 33zM210 282l-20 -116q5 -19 22.5 -30.5t42.5 -11.5q44 0 72.5 35.5t28.5 91.5q0 34 -17.5 55t-50.5 21q-47 0 -78 -45z
" />
    <glyph glyph-name="q" unicode="q" horiz-adv-x="530" 
d="M366 414l6 36h157l-108 -609h-156l34 197q-48 -48 -115 -48q-79 0 -122.5 54.5t-43.5 138.5q0 115 66.5 196t171.5 81q36 0 66.5 -13t43.5 -33zM322 169l21 116q-5 18 -23 30t-42 12q-44 0 -72.5 -37.5t-28.5 -90.5q0 -33 17.5 -54t50.5 -21q48 0 77 45z" />
    <glyph glyph-name="r" unicode="r" horiz-adv-x="365" 
d="M385 452l-27 -151q-24 14 -62 14q-68 0 -89 -51l-46 -264h-157l79 450h157l-7 -40q39 50 108 50q32 0 44 -8z" />
    <glyph glyph-name="s" unicode="s" horiz-adv-x="447" 
d="M1 140h147q2 -19 17.5 -29.5t37.5 -10.5q49 0 49 31q0 11 -7.5 17t-27.5 11l-72 20q-105 27 -105 119q0 75 59 118.5t143 43.5q95 0 143 -40t51 -108h-143q-2 17 -15.5 27.5t-35.5 10.5q-20 0 -33 -8t-13 -23q0 -16 24 -24l84 -24q105 -31 105 -122q0 -78 -59.5 -118.5
t-147.5 -40.5q-93 0 -145.5 40.5t-55.5 109.5z" />
    <glyph glyph-name="t" unicode="t" horiz-adv-x="357" 
d="M62 155l33 173h-66l22 122h66l23 124h154l-23 -124h94l-21 -122h-95l-28 -146q-2 -14 -2 -18q0 -36 42 -36q27 0 52 10l-23 -133q-35 -14 -89 -14q-143 0 -143 120q0 23 4 44z" />
    <glyph glyph-name="u" unicode="u" horiz-adv-x="514" 
d="M512 450l-79 -450h-157l7 39q-51 -49 -125 -49q-63 0 -99 35.5t-36 96.5q0 18 3 37l51 291h157l-44 -257q-3 -11 -3 -22q0 -46 47 -46q23 0 43 14t30 37l48 274h157z" />
    <glyph glyph-name="v" unicode="v" horiz-adv-x="497" 
d="M265 0h-143l-75 450h147l38 -258l142 258h157z" />
    <glyph glyph-name="w" unicode="w" horiz-adv-x="692" 
d="M438 450l17 -244l122 244h149l-238 -450h-130l-18 228l-111 -228h-130l-52 450h147l21 -244l119 244h104z" />
    <glyph glyph-name="x" unicode="x" 
d="M534 450l-200 -224l118 -226h-159l-61 120l-105 -120h-168l209 233l-114 217h160l56 -111l96 111h168z" />
    <glyph glyph-name="y" unicode="y" horiz-adv-x="497" 
d="M171 -159h-157l105 176l-73 433h148l39 -258l141 258h157z" />
    <glyph glyph-name="z" unicode="z" horiz-adv-x="455" 
d="M407 123l-21 -123h-395l18 103l238 225h-193l22 122h387l-19 -102l-230 -225h193z" />
    <glyph glyph-name="braceleft" unicode="{" horiz-adv-x="366" 
d="M235 200l-22 -125q-6 -29 24 -29h81l-23 -130h-124q-59 0 -87.5 35.5t-18.5 94.5l25 143q5 29 -24 29h-44l24 130h43q29 0 34 29l25 143q10 58 52.5 94t99.5 36h124l-22 -130h-82q-29 0 -34 -29l-22 -125q-10 -55 -62 -84q43 -29 33 -82z" />
    <glyph glyph-name="bar" unicode="|" horiz-adv-x="223" 
d="M-7 -84l129 734h131l-129 -734h-131z" />
    <glyph glyph-name="braceright" unicode="}" horiz-adv-x="366" 
d="M155 366l22 125q6 29 -24 29h-81l23 130h124q59 0 87.5 -35.5t18.5 -94.5l-25 -143q-5 -29 24 -29h44l-24 -130h-43q-29 0 -34 -29l-25 -143q-10 -58 -52.5 -94t-99.5 -36h-124l22 130h82q29 0 34 29l22 125q10 55 62 84q-43 29 -33 82z" />
    <glyph glyph-name="asciitilde" unicode="~" horiz-adv-x="426" 
d="M319 355h98q-14 -77 -50.5 -120t-88.5 -43q-34 0 -65.5 28t-46.5 28q-34 0 -44 -51h-98q14 77 50.5 120t88.5 43q34 0 65.5 -28t46.5 -28q35 0 44 51z" />
    <glyph glyph-name="exclamdown" unicode="&#xa1;" horiz-adv-x="243" 
d="M204 312l-40 -408h-190l109 408h121zM254 436q0 -37 -27 -62.5t-66 -25.5t-66 25.5t-27 62.5q0 38 27 63.5t66 25.5t66 -25.5t27 -63.5z" />
    <glyph glyph-name="cent" unicode="&#xa2;" horiz-adv-x="471" 
d="M21 202q0 100 58 175.5t153 89.5l16 93h128l-19 -104q106 -39 108 -166h-151q-2 50 -49 50q-42 0 -66 -41.5t-24 -92.5q0 -35 15.5 -55t43.5 -20q49 0 64 49h151q-32 -149 -170 -175l-15 -90h-128l16 95q-62 19 -96.5 70.5t-34.5 121.5z" />
    <glyph glyph-name="sterling" unicode="&#xa3;" horiz-adv-x="503" 
d="M284 422l-11 -59h112l-20 -119h-113l-4 -23q-11 -64 -37 -91h263l-22 -130h-456l22 130h45q26 35 36 91l4 23h-64l20 119h64l10 54q17 94 73 150.5t149 56.5q87 0 132.5 -50t42.5 -130h-139q0 50 -43 50q-51 0 -64 -72z" />
    <glyph glyph-name="yen" unicode="&#xa5;" horiz-adv-x="573" 
d="M42 104l17 92h144l9 48h-146l17 92h97l-96 278h167l65 -214l140 214h173l-197 -278h97l-17 -92h-145l-8 -48h146l-17 -92h-145l-18 -104h-156l18 104h-145z" />
    <glyph glyph-name="section" unicode="&#xa7;" horiz-adv-x="483" 
d="M292 271l-85 63q-17 -3 -27.5 -14.5t-10.5 -26.5q0 -17 30 -40l85 -63q17 3 27.5 14.5t10.5 26.5q0 17 -30 40zM364 118q15 -20 15 -54q0 -75 -57 -119.5t-138 -44.5q-90 0 -135.5 41t-45.5 110h136q0 -44 46 -44q22 0 36.5 11.5t14.5 32.5q0 19 -24 34l-101 69
q-81 55 -81 119q0 90 97 133q-15 20 -15 54q0 75 57 119.5t138 44.5q90 0 135.5 -41t45.5 -110h-136q0 44 -46 44q-22 0 -36.5 -11.5t-14.5 -32.5q0 -19 24 -34l101 -69q81 -55 81 -119q0 -90 -97 -133z" />
    <glyph glyph-name="dieresis" unicode="&#xa8;" 
d="M84 567q0 32 22.5 54.5t54.5 22.5t54.5 -22.5t22.5 -54.5q0 -31 -22.5 -53.5t-54.5 -22.5t-54.5 22.5t-22.5 53.5zM261 567q0 32 22 54.5t54 22.5t55 -22.5t23 -54.5q0 -31 -23 -53.5t-55 -22.5q-31 0 -53.5 22.5t-22.5 53.5z" />
    <glyph glyph-name="copyright" unicode="&#xa9;" horiz-adv-x="704" 
d="M684 307q0 -136 -92.5 -226.5t-224.5 -90.5t-224.5 90.5t-92.5 226.5t92.5 226.5t224.5 90.5t224.5 -90.5t92.5 -226.5zM637 307q0 116 -79 193.5t-191 77.5t-191 -77.5t-79 -193.5t79 -193.5t191 -77.5t191 77.5t79 193.5zM180 308q0 88 53 144t137 56q73 0 117 -38.5
t54 -100.5h-114q-12 39 -57 39q-37 0 -57 -27.5t-20 -72.5q0 -44 20.5 -71.5t56.5 -27.5q45 0 57 40h114q-10 -62 -54 -101t-117 -39q-84 0 -137 55.5t-53 143.5z" />
    <glyph glyph-name="ordfeminine" unicode="&#xaa;" horiz-adv-x="343" 
d="M356 504l-32 -184h-110l2 15q-23 -21 -67 -21q-43 0 -72 24.5t-29 64.5q0 50 36.5 78.5t88.5 28.5q47 0 72 -17l3 19v3q1 3 1 4q0 26 -28 26t-38 -22h-103q14 49 54.5 79.5t100.5 30.5q58 0 91 -27.5t33 -75.5q0 -12 -3 -26zM229 406l2 17q-7 18 -35 18q-15 0 -27 -7.5
t-12 -21.5q0 -22 33 -22q25 0 39 16z" />
    <glyph glyph-name="guillemotleft" unicode="&#xab;" horiz-adv-x="451" 
d="M216 58h-127l-63 164l120 164h130l-121 -170zM397 58h-128l-62 158l121 170h130l-123 -172z" />
    <glyph glyph-name="registered" unicode="&#xae;" horiz-adv-x="407" 
d="M419 441q0 -78 -53 -130.5t-128 -52.5t-128 52.5t-53 130.5t53 130.5t128 52.5t128 -52.5t53 -130.5zM386 441q0 66 -43 109t-105 43t-105 -43t-43 -109t43 -109t105 -43t105 43t43 109zM231 404h-11v-58h-59v192h92q33 0 52.5 -18t19.5 -51q0 -42 -35 -58l42 -65h-66z
M268 469q0 20 -24 20h-24v-38h24q24 0 24 18z" />
    <glyph glyph-name="macron" unicode="&#xaf;" 
d="M114 504l19 108h252l-19 -108h-252z" />
    <glyph glyph-name="degree" unicode="&#xb0;" horiz-adv-x="362" 
d="M222 624q55 0 92.5 -38t37.5 -94q0 -61 -43.5 -105.5t-105.5 -44.5q-55 0 -92 38t-37 94q0 60 43.5 105t104.5 45zM216 541q-23 0 -41.5 -18.5t-18.5 -44.5q0 -22 15.5 -38t37.5 -16q23 0 41.5 19t18.5 45q0 22 -15.5 37.5t-37.5 15.5z" />
    <glyph glyph-name="plusminus" unicode="&#xb1;" horiz-adv-x="567" 
d="M291 561h105l-23 -128h166l-18 -104h-166l-23 -128h-105l23 128h-165l19 104h164zM35 48l19 105h436l-20 -105h-435z" />
    <glyph glyph-name="twosuperior" unicode="&#xb2;" horiz-adv-x="310" 
d="M39 332l152 122q38 29 38 52q0 20 -20 20q-12 0 -20.5 -8.5t-11.5 -18.5h-111q13 52 53.5 86t98.5 34q55 0 86 -26t31 -71q0 -37 -20.5 -64.5t-60.5 -57.5l-58 -46h110l-15 -90h-264z" />
    <glyph glyph-name="threesuperior" unicode="&#xb3;" horiz-adv-x="309" 
d="M154 404l14 72h21q47 0 47 35q0 23 -27 23q-14 0 -25 -10t-15 -24h-104q13 54 52 86.5t98 32.5q54 0 84 -27t30 -71q0 -28 -14.5 -50.5t-33.5 -32.5q30 -22 30 -63q0 -51 -39 -84t-98 -33t-95.5 32t-36.5 82l1 8h107v-3q0 -13 8 -22t24 -9q14 0 23.5 8t9.5 22
q0 28 -35 28h-26z" />
    <glyph glyph-name="acute" unicode="&#xb4;" 
d="M267 500h-146l108 150h151z" />
    <glyph glyph-name="paragraph" unicode="&#xb6;" horiz-adv-x="551" 
d="M346 -90l124 704h105l-124 -704h-105zM188 -90l59 337q-82 0 -140 42t-58 120q0 70 43 118t101.5 67.5t123.5 19.5h100l-124 -704h-105z" />
    <glyph glyph-name="periodcentered" unicode="&#xb7;" horiz-adv-x="233" 
d="M29 262q0 40 26.5 66.5t65.5 26.5t66 -26.5t27 -66.5t-27 -67t-66 -27q-38 0 -65 27t-27 67z" />
    <glyph glyph-name="cedilla" unicode="&#xb8;" 
d="M269 -181h-135l94 141h136z" />
    <glyph glyph-name="onesuperior" unicode="&#xb9;" horiz-adv-x="245" 
d="M271 614l-62 -350h-106l40 231l-85 -38l18 105l120 52h75z" />
    <glyph glyph-name="ordmasculine" unicode="&#xba;" horiz-adv-x="358" 
d="M209 410q24 0 38.5 24t14.5 61q0 18 -8.5 30t-24.5 12q-24 0 -39 -24.5t-15 -61.5q0 -17 9 -29t25 -12zM206 313q-65 0 -106 38t-41 102q0 80 50 130t124 50q65 0 105.5 -38t40.5 -102q0 -79 -50 -129.5t-123 -50.5z" />
    <glyph glyph-name="guillemotright" unicode="&#xbb;" horiz-adv-x="451" 
d="M238 386h127l63 -164l-120 -164h-130l121 170zM57 386h128l62 -158l-121 -170h-130l123 172z" />
    <glyph glyph-name="onequarter" unicode="&#xbc;" horiz-adv-x="719" 
d="M670 614l-524 -614h-96l524 614h96zM282 614l-63 -350h-102l42 233l-94 -42l18 105l125 54h74zM623 350l-132 -206h47l9 51h90l-9 -51h47l-14 -83h-47l-11 -61h-90l10 61h-158l13 77l144 212h101z" />
    <glyph glyph-name="onehalf" unicode="&#xbd;" horiz-adv-x="725" 
d="M670 614l-524 -614h-96l524 614h96zM282 614l-63 -350h-102l42 233l-94 -42l18 105l125 54h74zM393 68l152 122q40 33 40 54q0 19 -21 19q-12 0 -21 -9t-12 -19h-111q14 52 54 86t98 34q55 0 86.5 -26t31.5 -71q0 -37 -21.5 -64.5t-61.5 -57.5l-59 -47h113l-15 -89h-264z
" />
    <glyph glyph-name="threequarters" unicode="&#xbe;" horiz-adv-x="749" 
d="M159 404l13 72h22q46 0 46 35q0 23 -26 23q-14 0 -25 -10t-15 -24h-104q13 54 52 86.5t98 32.5q54 0 84 -27t30 -71q0 -28 -14.5 -50.5t-33.5 -32.5q30 -22 30 -63q0 -51 -39 -84t-98 -33t-95.5 32t-36.5 82l1 8h107v-3q0 -13 8 -22t24 -9q14 0 23.5 8t9.5 22
q0 28 -35 28h-26zM700 614l-524 -614h-97l524 614h97zM653 350l-132 -206h46l9 51h91l-9 -51h47l-15 -83h-47l-10 -61h-91l11 61h-159l14 77l143 212h102z" />
    <glyph glyph-name="questiondown" unicode="&#xbf;" horiz-adv-x="475" 
d="M209 38q28 0 47.5 17.5t25.5 43.5h166q-27 -91 -95.5 -148t-168.5 -57q-86 0 -137 42.5t-51 114.5q0 23 6 45t11.5 35.5t23.5 35t23.5 27.5t31 30t28.5 27q38 34 43 61h155q-13 -59 -62 -107q-8 -8 -26 -24.5t-26.5 -25t-19.5 -22t-15.5 -25.5t-5.5 -25q0 -20 12.5 -32.5
t33.5 -12.5zM351 436q0 -38 -27 -63t-66 -25q-41 0 -68 25t-27 63t27 63.5t68 25.5q39 0 66 -25.5t27 -63.5z" />
    <glyph glyph-name="Agrave" unicode="&#xc0;" horiz-adv-x="646" 
d="M318 614h164l119 -614h-159l-22 119h-224l-66 -119h-160zM479 666h-144l-66 130h151zM366 424l-97 -173h128z" />
    <glyph glyph-name="Aacute" unicode="&#xc1;" horiz-adv-x="646" 
d="M318 614h164l119 -614h-159l-22 119h-224l-66 -119h-160zM485 666h-158l105 130h164zM366 424l-97 -173h128z" />
    <glyph glyph-name="Acircumflex" unicode="&#xc2;" horiz-adv-x="646" 
d="M318 614h164l119 -614h-159l-22 119h-224l-66 -119h-160zM488 798l84 -132h-122l-34 45l-50 -45h-130l132 132h120zM366 424l-97 -173h128z" />
    <glyph glyph-name="Atilde" unicode="&#xc3;" horiz-adv-x="646" 
d="M318 614h164l119 -614h-159l-22 119h-224l-66 -119h-160zM503 810h86q-11 -66 -39 -108t-75 -42q-24 0 -56.5 18t-46.5 18q-26 0 -31 -33h-87q26 150 114 150q25 0 57 -18t46 -18q25 0 32 33zM366 424l-97 -173h128z" />
    <glyph glyph-name="Adieresis" unicode="&#xc4;" horiz-adv-x="646" 
d="M318 614h164l119 -614h-159l-22 119h-224l-66 -119h-160zM249 734q0 33 22.5 56t55.5 23q32 0 55.5 -23t23.5 -56t-23.5 -56t-55.5 -23q-33 0 -55.5 23t-22.5 56zM430 734q0 33 23 56t55 23t55.5 -23t23.5 -56t-23.5 -56t-55.5 -23t-55 23t-23 56zM366 424l-97 -173h128z
" />
    <glyph glyph-name="Aring" unicode="&#xc5;" horiz-adv-x="646" 
d="M318 614h164l119 -614h-159l-22 119h-224l-66 -119h-160zM414 642q-44 0 -74 29.5t-30 71.5q0 45 33 77t80 32q44 0 74 -29t30 -71q0 -45 -33 -77.5t-80 -32.5zM366 424l-97 -173h128zM416 711q15 0 26.5 11t11.5 28q0 14 -9.5 23.5t-24.5 9.5t-26 -10.5t-11 -27.5
q0 -14 9.5 -24t23.5 -10z" />
    <glyph glyph-name="AE" unicode="&#xc6;" horiz-adv-x="889" 
d="M408 614h518l-24 -138h-259l-18 -96h234l-23 -135h-234l-19 -106h259l-24 -139h-417l21 119h-198l-84 -119h-170zM488 492l-171 -241h128z" />
    <glyph glyph-name="Ccedilla" unicode="&#xc7;" horiz-adv-x="607" 
d="M36 269q0 148 92 251.5t233 103.5q111 0 177 -60t72 -156h-160q-6 35 -30.5 55t-64.5 20q-71 0 -114 -59t-43 -151q0 -64 32.5 -103t86.5 -39q78 0 113 76h161q-32 -100 -101.5 -158.5t-177.5 -58.5q-125 0 -200.5 77.5t-75.5 201.5zM258 -181h-135l94 141h136z" />
    <glyph glyph-name="Egrave" unicode="&#xc8;" horiz-adv-x="519" 
d="M414 666h-144l-66 130h151zM116 614h440l-24 -138h-282l-17 -96h256l-23 -135h-257l-18 -106h281l-24 -139h-440z" />
    <glyph glyph-name="Eacute" unicode="&#xc9;" horiz-adv-x="519" 
d="M421 666h-158l105 130h164zM116 614h440l-24 -138h-282l-17 -96h256l-23 -135h-257l-18 -106h281l-24 -139h-440z" />
    <glyph glyph-name="Ecircumflex" unicode="&#xca;" horiz-adv-x="519" 
d="M116 614h440l-24 -138h-282l-17 -96h256l-23 -135h-257l-18 -106h281l-24 -139h-440zM424 798l84 -132h-122l-34 45l-50 -45h-130l132 132h120z" />
    <glyph glyph-name="Edieresis" unicode="&#xcb;" horiz-adv-x="519" 
d="M189 734q0 33 22.5 56t55.5 23q32 0 55.5 -23t23.5 -56t-23.5 -56t-55.5 -23q-33 0 -55.5 23t-22.5 56zM370 734q0 33 23 56t55 23t55.5 -23t23.5 -56t-23.5 -56t-55.5 -23t-55 23t-23 56zM116 614h440l-24 -138h-282l-17 -96h256l-23 -135h-257l-18 -106h281l-24 -139
h-440z" />
    <glyph glyph-name="Igrave" unicode="&#xcc;" horiz-adv-x="253" 
d="M277 614l-108 -614h-161l108 614h161zM275 666h-144l-66 130h151z" />
    <glyph glyph-name="Iacute" unicode="&#xcd;" horiz-adv-x="253" 
d="M277 614l-108 -614h-161l108 614h161zM281 666h-158l105 130h164z" />
    <glyph glyph-name="Icircumflex" unicode="&#xce;" horiz-adv-x="253" 
d="M277 614l-108 -614h-161l108 614h161zM285 798l84 -132h-122l-34 45l-50 -45h-130l132 132h120z" />
    <glyph glyph-name="Idieresis" unicode="&#xcf;" horiz-adv-x="253" 
d="M277 614l-108 -614h-161l108 614h161zM49 734q0 33 22.5 56t55.5 23q32 0 55.5 -23t23.5 -56t-23.5 -56t-55.5 -23q-33 0 -55.5 23t-22.5 56zM230 734q0 33 23 56t55 23t55.5 -23t23.5 -56t-23.5 -56t-55.5 -23t-55 23t-23 56z" />
    <glyph glyph-name="Eth" unicode="&#xd0;" horiz-adv-x="628" 
d="M23 251l22 124h45l42 239h227q128 0 196 -67.5t68 -187.5q0 -158 -101.5 -258.5t-263.5 -100.5h-234l44 251h-45zM207 139h67q86 0 137 56.5t51 147.5q0 63 -33.5 98t-98.5 35h-64l-18 -101h88l-22 -124h-88z" />
    <glyph glyph-name="Ntilde" unicode="&#xd1;" horiz-adv-x="631" 
d="M490 810h86q-11 -66 -39 -108t-75 -42q-24 0 -56.5 18t-46.5 18q-26 0 -31 -33h-87q26 150 114 150q25 0 57 -18t46 -18q25 0 32 33zM656 614l-108 -614h-124l-196 370l-65 -370h-155l108 614h144l179 -349l62 349h155z" />
    <glyph glyph-name="Ograve" unicode="&#xd2;" horiz-adv-x="643" 
d="M467 666h-144l-66 130h151zM317 131q68 0 113.5 57.5t45.5 152.5q0 63 -32.5 102.5t-86.5 39.5q-69 0 -114 -57t-45 -153q0 -63 32.5 -102.5t86.5 -39.5zM312 -10q-126 0 -201 77.5t-75 201.5q0 153 94 254t232 101q126 0 201 -77.5t75 -201.5q0 -153 -94 -254t-232 -101
z" />
    <glyph glyph-name="Oacute" unicode="&#xd3;" horiz-adv-x="643" 
d="M474 666h-158l105 130h164zM317 131q68 0 113.5 57.5t45.5 152.5q0 63 -32.5 102.5t-86.5 39.5q-69 0 -114 -57t-45 -153q0 -63 32.5 -102.5t86.5 -39.5zM312 -10q-126 0 -201 77.5t-75 201.5q0 153 94 254t232 101q126 0 201 -77.5t75 -201.5q0 -153 -94 -254t-232 -101
z" />
    <glyph glyph-name="Ocircumflex" unicode="&#xd4;" horiz-adv-x="643" 
d="M317 131q68 0 113.5 57.5t45.5 152.5q0 63 -32.5 102.5t-86.5 39.5q-69 0 -114 -57t-45 -153q0 -63 32.5 -102.5t86.5 -39.5zM312 -10q-126 0 -201 77.5t-75 201.5q0 153 94 254t232 101q126 0 201 -77.5t75 -201.5q0 -153 -94 -254t-232 -101zM478 798l84 -132h-122
l-34 45l-50 -45h-130l132 132h120z" />
    <glyph glyph-name="Otilde" unicode="&#xd5;" horiz-adv-x="643" 
d="M486 810h86q-11 -66 -39 -108t-75 -42q-24 0 -56.5 18t-46.5 18q-26 0 -31 -33h-87q26 150 114 150q25 0 57 -18t46 -18q25 0 32 33zM317 131q68 0 113.5 57.5t45.5 152.5q0 63 -32.5 102.5t-86.5 39.5q-69 0 -114 -57t-45 -153q0 -63 32.5 -102.5t86.5 -39.5zM312 -10
q-126 0 -201 77.5t-75 201.5q0 153 94 254t232 101q126 0 201 -77.5t75 -201.5q0 -153 -94 -254t-232 -101z" />
    <glyph glyph-name="Odieresis" unicode="&#xd6;" horiz-adv-x="643" 
d="M238 734q0 33 22.5 56t55.5 23q32 0 55.5 -23t23.5 -56t-23.5 -56t-55.5 -23q-33 0 -55.5 23t-22.5 56zM419 734q0 33 23 56t55 23t55.5 -23t23.5 -56t-23.5 -56t-55.5 -23t-55 23t-23 56zM317 131q68 0 113.5 57.5t45.5 152.5q0 63 -32.5 102.5t-86.5 39.5
q-69 0 -114 -57t-45 -153q0 -63 32.5 -102.5t86.5 -39.5zM312 -10q-126 0 -201 77.5t-75 201.5q0 153 94 254t232 101q126 0 201 -77.5t75 -201.5q0 -153 -94 -254t-232 -101z" />
    <glyph glyph-name="multiply" unicode="&#xd7;" horiz-adv-x="494" 
d="M182 301l-100 120l91 78l99 -120l143 120l67 -81l-142 -120l99 -121l-91 -77l-100 120l-142 -121l-67 81z" />
    <glyph glyph-name="Oslash" unicode="&#xd8;" horiz-adv-x="652" 
d="M34 36l57 60q-51 71 -51 173q0 153 94 254t232 101q101 0 174 -54l52 55l56 -47l-57 -60q51 -73 51 -173q0 -153 -94 -254t-232 -101q-105 0 -174 54l-52 -55zM321 128q69 0 116 59t47 154q0 28 -8 55l-230 -242q31 -26 75 -26zM199 273q0 -31 7 -55l229 242
q-33 26 -74 26q-69 0 -115.5 -59t-46.5 -154z" />
    <glyph glyph-name="Ugrave" unicode="&#xd9;" horiz-adv-x="613" 
d="M453 666h-144l-66 130h151zM282 -10q-111 0 -176 54.5t-65 153.5q0 32 6 62l63 354h160l-62 -349q-4 -26 -4 -38q0 -45 23 -69.5t67 -24.5q105 0 129 132l61 349h160l-64 -364q-23 -127 -99 -193.5t-199 -66.5z" />
    <glyph glyph-name="Uacute" unicode="&#xda;" horiz-adv-x="613" 
d="M459 666h-158l105 130h164zM282 -10q-111 0 -176 54.5t-65 153.5q0 32 6 62l63 354h160l-62 -349q-4 -26 -4 -38q0 -45 23 -69.5t67 -24.5q105 0 129 132l61 349h160l-64 -364q-23 -127 -99 -193.5t-199 -66.5z" />
    <glyph glyph-name="Ucircumflex" unicode="&#xdb;" horiz-adv-x="613" 
d="M282 -10q-111 0 -176 54.5t-65 153.5q0 32 6 62l63 354h160l-62 -349q-4 -26 -4 -38q0 -45 23 -69.5t67 -24.5q105 0 129 132l61 349h160l-64 -364q-23 -127 -99 -193.5t-199 -66.5zM463 798l84 -132h-122l-34 45l-50 -45h-130l132 132h120z" />
    <glyph glyph-name="Udieresis" unicode="&#xdc;" horiz-adv-x="613" 
d="M227 734q0 33 22.5 56t55.5 23q32 0 55.5 -23t23.5 -56t-23.5 -56t-55.5 -23q-33 0 -55.5 23t-22.5 56zM408 734q0 33 23 56t55 23t55.5 -23t23.5 -56t-23.5 -56t-55.5 -23t-55 23t-23 56zM282 -10q-111 0 -176 54.5t-65 153.5q0 32 6 62l63 354h160l-62 -349
q-4 -26 -4 -38q0 -45 23 -69.5t67 -24.5q105 0 129 132l61 349h160l-64 -364q-23 -127 -99 -193.5t-199 -66.5z" />
    <glyph glyph-name="Yacute" unicode="&#xdd;" horiz-adv-x="612" 
d="M330 374l172 240h175l-291 -396l-38 -218h-161l38 218l-149 396h167zM458 666h-158l105 130h164z" />
    <glyph glyph-name="Thorn" unicode="&#xde;" horiz-adv-x="559" 
d="M295 102h-111l-17 -102h-159l108 614h159l-16 -89h97q95 0 148 -47t53 -134q0 -113 -74 -177.5t-188 -64.5zM235 390l-26 -154h93q46 0 72 24.5t26 66.5q0 63 -74 63h-91z" />
    <glyph glyph-name="germandbls" unicode="&#xdf;" horiz-adv-x="543" 
d="M438 353q37 -14 59.5 -51t22.5 -89q0 -100 -67.5 -159t-163.5 -59q-50 0 -79 11l21 124q19 -7 48 -7q40 0 66.5 24t26.5 66q0 67 -82 67h-29l22 122h17q32 0 54 19t22 54q0 23 -14.5 37t-41.5 14q-34 0 -55 -23t-28 -61l-77 -442h-156l76 432q18 107 85 167t170 60
q93 0 142.5 -43t49.5 -113q0 -52 -27 -92t-62 -58z" />
    <glyph glyph-name="agrave" unicode="&#xe0;" horiz-adv-x="485" 
d="M456 276l-48 -276h-152l4 23q-37 -31 -103 -31q-65 0 -108.5 35.5t-43.5 95.5q0 73 55.5 115t135.5 42q69 0 105 -26l5 29q0 1 0.5 6t0.5 8q0 42 -46 42q-41 0 -59 -34h-148q18 68 79 111.5t146 43.5q83 0 132 -39.5t49 -107.5q0 -13 -4 -37zM277 124l5 28q-12 31 -60 31
q-27 0 -48 -12.5t-21 -36.5q0 -18 16.5 -28t39.5 -10q46 0 68 28zM365 500h-133l-61 150h138z" />
    <glyph glyph-name="aacute" unicode="&#xe1;" horiz-adv-x="485" 
d="M456 276l-48 -276h-152l4 23q-37 -31 -103 -31q-65 0 -108.5 35.5t-43.5 95.5q0 73 55.5 115t135.5 42q69 0 105 -26l5 29q0 1 0.5 6t0.5 8q0 42 -46 42q-41 0 -59 -34h-148q18 68 79 111.5t146 43.5q83 0 132 -39.5t49 -107.5q0 -13 -4 -37zM277 124l5 28q-12 31 -60 31
q-27 0 -48 -12.5t-21 -36.5q0 -18 16.5 -28t39.5 -10q46 0 68 28zM368 500h-146l108 150h151z" />
    <glyph glyph-name="acircumflex" unicode="&#xe2;" horiz-adv-x="485" 
d="M381 649l70 -151h-113l-30 55l-50 -55h-119l123 151h119zM456 276l-48 -276h-152l4 23q-37 -31 -103 -31q-65 0 -108.5 35.5t-43.5 95.5q0 73 55.5 115t135.5 42q69 0 105 -26l5 29q0 1 0.5 6t0.5 8q0 42 -46 42q-41 0 -59 -34h-148q18 68 79 111.5t146 43.5
q83 0 132 -39.5t49 -107.5q0 -13 -4 -37zM277 124l5 28q-12 31 -60 31q-27 0 -48 -12.5t-21 -36.5q0 -18 16.5 -28t39.5 -10q46 0 68 28z" />
    <glyph glyph-name="atilde" unicode="&#xe3;" horiz-adv-x="485" 
d="M456 276l-48 -276h-152l4 23q-37 -31 -103 -31q-65 0 -108.5 35.5t-43.5 95.5q0 73 55.5 115t135.5 42q69 0 105 -26l5 29q0 1 0.5 6t0.5 8q0 42 -46 42q-41 0 -59 -34h-148q18 68 79 111.5t146 43.5q83 0 132 -39.5t49 -107.5q0 -13 -4 -37zM277 124l5 28q-12 31 -60 31
q-27 0 -48 -12.5t-21 -36.5q0 -18 16.5 -28t39.5 -10q46 0 68 28zM388 647h87q-26 -150 -115 -150q-24 0 -50.5 18t-40.5 18q-24 0 -31 -33h-87q28 150 115 150q25 0 51 -18t40 -18q24 0 31 33z" />
    <glyph glyph-name="adieresis" unicode="&#xe4;" horiz-adv-x="485" 
d="M144 567q0 32 22.5 54.5t54.5 22.5t54.5 -22.5t22.5 -54.5q0 -31 -22.5 -53.5t-54.5 -22.5t-54.5 22.5t-22.5 53.5zM321 567q0 32 22 54.5t54 22.5t55 -22.5t23 -54.5q0 -31 -23 -53.5t-55 -22.5q-31 0 -53.5 22.5t-22.5 53.5zM456 276l-48 -276h-152l4 23
q-37 -31 -103 -31q-65 0 -108.5 35.5t-43.5 95.5q0 73 55.5 115t135.5 42q69 0 105 -26l5 29q0 1 0.5 6t0.5 8q0 42 -46 42q-41 0 -59 -34h-148q18 68 79 111.5t146 43.5q83 0 132 -39.5t49 -107.5q0 -13 -4 -37zM277 124l5 28q-12 31 -60 31q-27 0 -48 -12.5t-21 -36.5
q0 -18 16.5 -28t39.5 -10q46 0 68 28z" />
    <glyph glyph-name="aring" unicode="&#xe5;" horiz-adv-x="485" 
d="M456 276l-48 -276h-152l4 23q-37 -31 -103 -31q-65 0 -108.5 35.5t-43.5 95.5q0 73 55.5 115t135.5 42q69 0 105 -26l5 29q0 1 0.5 6t0.5 8q0 42 -46 42q-41 0 -59 -34h-148q18 68 79 111.5t146 43.5q83 0 132 -39.5t49 -107.5q0 -13 -4 -37zM277 124l5 28q-12 31 -60 31
q-27 0 -48 -12.5t-21 -36.5q0 -18 16.5 -28t39.5 -10q46 0 68 28zM313 554q15 0 26.5 11t11.5 27q0 14 -10 24t-24 10q-15 0 -26.5 -11t-11.5 -28q0 -14 10 -23.5t24 -9.5zM310 485q-44 0 -73.5 29t-29.5 71q0 45 32.5 77.5t80.5 32.5q44 0 73.5 -29.5t29.5 -71.5
q0 -45 -32.5 -77t-80.5 -32z" />
    <glyph glyph-name="ae" unicode="&#xe6;" horiz-adv-x="738" 
d="M558 153h148q-23 -78 -80.5 -120.5t-144.5 -42.5q-100 0 -152 60q-69 -59 -167 -59q-71 0 -114 34.5t-43 93.5q0 75 58.5 114.5t145.5 39.5h92q3 15 3 24q0 44 -48 44q-43 0 -62 -36h-146q21 68 81 111.5t140 43.5q82 0 127 -48q21 20 60 34t79 14q85 0 135.5 -49.5
t50.5 -138.5q0 -36 -10 -83h-288v-5q1 -35 18.5 -53.5t48.5 -18.5q48 0 68 41zM277 138l9 51h-64q-69 0 -69 -49q0 -18 14 -28.5t37 -10.5q47 0 73 37zM525 338q-59 0 -84 -65h137q0 1 0.5 5t0.5 6q0 24 -14.5 39t-39.5 15z" />
    <glyph glyph-name="ccedilla" unicode="&#xe7;" horiz-adv-x="471" 
d="M295 167h151q-19 -84 -76 -130.5t-147 -46.5q-95 0 -150 56.5t-55 145.5q0 111 69.5 189.5t179.5 78.5q94 0 144 -48t52 -129h-152q-2 47 -48 47q-43 0 -66.5 -41.5t-23.5 -92.5q0 -35 15.5 -55t43.5 -20q46 0 63 46zM179 -181h-135l94 141h136z" />
    <glyph glyph-name="egrave" unicode="&#xe8;" horiz-adv-x="482" 
d="M303 157h148q-22 -79 -80.5 -123t-145.5 -44q-95 0 -151 55.5t-56 148.5q0 109 69.5 187.5t183.5 78.5q91 0 142.5 -49.5t51.5 -138.5q0 -36 -9 -77h-289v-4q0 -79 68 -79q49 0 68 45zM357 500h-133l-61 150h138zM265 338q-56 0 -83 -65h136q0 1 0.5 5t0.5 6
q0 24 -14.5 39t-39.5 15z" />
    <glyph glyph-name="eacute" unicode="&#xe9;" horiz-adv-x="482" 
d="M303 157h148q-22 -79 -80.5 -123t-145.5 -44q-95 0 -151 55.5t-56 148.5q0 109 69.5 187.5t183.5 78.5q91 0 142.5 -49.5t51.5 -138.5q0 -36 -9 -77h-289v-4q0 -79 68 -79q49 0 68 45zM361 500h-146l108 150h151zM265 338q-56 0 -83 -65h136q0 1 0.5 5t0.5 6
q0 24 -14.5 39t-39.5 15z" />
    <glyph glyph-name="ecircumflex" unicode="&#xea;" horiz-adv-x="482" 
d="M303 157h148q-22 -79 -80.5 -123t-145.5 -44q-95 0 -151 55.5t-56 148.5q0 109 69.5 187.5t183.5 78.5q91 0 142.5 -49.5t51.5 -138.5q0 -36 -9 -77h-289v-4q0 -79 68 -79q49 0 68 45zM373 649l70 -151h-113l-30 55l-50 -55h-119l123 151h119zM265 338q-56 0 -83 -65h136
q0 1 0.5 5t0.5 6q0 24 -14.5 39t-39.5 15z" />
    <glyph glyph-name="edieresis" unicode="&#xeb;" horiz-adv-x="482" 
d="M303 157h148q-22 -79 -80.5 -123t-145.5 -44q-95 0 -151 55.5t-56 148.5q0 109 69.5 187.5t183.5 78.5q91 0 142.5 -49.5t51.5 -138.5q0 -36 -9 -77h-289v-4q0 -79 68 -79q49 0 68 45zM136 567q0 32 22.5 54.5t54.5 22.5t54.5 -22.5t22.5 -54.5q0 -31 -22.5 -53.5
t-54.5 -22.5t-54.5 22.5t-22.5 53.5zM313 567q0 32 22 54.5t54 22.5t55 -22.5t23 -54.5q0 -31 -23 -53.5t-55 -22.5q-31 0 -53.5 22.5t-22.5 53.5zM265 338q-56 0 -83 -65h136q0 1 0.5 5t0.5 6q0 24 -14.5 39t-39.5 15z" />
    <glyph glyph-name="igrave" unicode="&#xec;" horiz-adv-x="242" 
d="M240 450l-79 -450h-157l79 450h157zM236 500h-133l-61 150h138z" />
    <glyph glyph-name="iacute" unicode="&#xed;" horiz-adv-x="242" 
d="M240 500h-146l108 150h151zM240 450l-79 -450h-157l79 450h157z" />
    <glyph glyph-name="icircumflex" unicode="&#xee;" horiz-adv-x="242" 
d="M253 649l63 -151h-113l-24 54l-43 -54h-118l115 151h120zM240 450l-79 -450h-157l79 450h157z" />
    <glyph glyph-name="idieresis" unicode="&#xef;" horiz-adv-x="242" 
d="M21 567q0 32 22 54.5t54 22.5t54.5 -22.5t22.5 -54.5q0 -31 -22.5 -53.5t-54.5 -22.5q-31 0 -53.5 22.5t-22.5 53.5zM192 567q0 32 22 54.5t54 22.5t55 -22.5t23 -54.5q0 -31 -23 -53.5t-55 -22.5t-54 22.5t-22 53.5zM240 450l-79 -450h-157l79 450h157z" />
    <glyph glyph-name="eth" unicode="&#xf0;" horiz-adv-x="496" 
d="M189 477l-24 65l69 21q-35 43 -78 83v4h167q21 -20 43 -45l77 24l24 -65l-58 -18q69 -114 69 -252q0 -142 -71 -223t-179 -81q-94 0 -152 55.5t-58 148.5q0 116 70 189t173 73q30 0 48 -15h2q-9 23 -34 63zM232 120q41 0 66.5 39t25.5 98q0 32 -16 52t-44 20
q-40 0 -65.5 -39t-25.5 -98q0 -32 15.5 -52t43.5 -20z" />
    <glyph glyph-name="ntilde" unicode="&#xf1;" horiz-adv-x="519" 
d="M4 0l79 450h157l-7 -39q49 49 125 49q64 0 100.5 -36t36.5 -97q0 -17 -3 -36l-51 -291h-157l45 257q2 16 2 17q0 47 -50 47q-23 0 -42.5 -13.5t-29.5 -35.5l-48 -272h-157zM400 647h87q-26 -150 -115 -150q-24 0 -50.5 18t-40.5 18q-24 0 -31 -33h-87q28 150 115 150
q25 0 51 -18t40 -18q24 0 31 33z" />
    <glyph glyph-name="ograve" unicode="&#xf2;" horiz-adv-x="496" 
d="M232 120q41 0 66.5 39.5t25.5 98.5q0 33 -16 53t-44 20q-40 0 -65.5 -40t-25.5 -99q0 -32 15.5 -52t43.5 -20zM228 -10q-94 0 -152 55.5t-58 148.5q0 116 72.5 191t177.5 75q94 0 152 -55.5t58 -148.5q0 -116 -72 -191t-178 -75zM360 500h-133l-61 150h138z" />
    <glyph glyph-name="oacute" unicode="&#xf3;" horiz-adv-x="496" 
d="M364 500h-146l108 150h151zM232 120q41 0 66.5 39.5t25.5 98.5q0 33 -16 53t-44 20q-40 0 -65.5 -40t-25.5 -99q0 -32 15.5 -52t43.5 -20zM228 -10q-94 0 -152 55.5t-58 148.5q0 116 72.5 191t177.5 75q94 0 152 -55.5t58 -148.5q0 -116 -72 -191t-178 -75z" />
    <glyph glyph-name="ocircumflex" unicode="&#xf4;" horiz-adv-x="496" 
d="M376 649l70 -151h-113l-30 55l-50 -55h-119l123 151h119zM232 120q41 0 66.5 39.5t25.5 98.5q0 33 -16 53t-44 20q-40 0 -65.5 -40t-25.5 -99q0 -32 15.5 -52t43.5 -20zM228 -10q-94 0 -152 55.5t-58 148.5q0 116 72.5 191t177.5 75q94 0 152 -55.5t58 -148.5
q0 -116 -72 -191t-178 -75z" />
    <glyph glyph-name="otilde" unicode="&#xf5;" horiz-adv-x="496" 
d="M232 120q41 0 66.5 39.5t25.5 98.5q0 33 -16 53t-44 20q-40 0 -65.5 -40t-25.5 -99q0 -32 15.5 -52t43.5 -20zM228 -10q-94 0 -152 55.5t-58 148.5q0 116 72.5 191t177.5 75q94 0 152 -55.5t58 -148.5q0 -116 -72 -191t-178 -75zM383 647h87q-26 -150 -115 -150
q-24 0 -50.5 18t-40.5 18q-24 0 -31 -33h-87q28 150 115 150q25 0 51 -18t40 -18q24 0 31 33z" />
    <glyph glyph-name="odieresis" unicode="&#xf6;" horiz-adv-x="496" 
d="M140 567q0 32 22.5 54.5t54.5 22.5t54.5 -22.5t22.5 -54.5q0 -31 -22.5 -53.5t-54.5 -22.5t-54.5 22.5t-22.5 53.5zM317 567q0 32 22 54.5t54 22.5t55 -22.5t23 -54.5q0 -31 -23 -53.5t-55 -22.5q-31 0 -53.5 22.5t-22.5 53.5zM232 120q41 0 66.5 39.5t25.5 98.5
q0 33 -16 53t-44 20q-40 0 -65.5 -40t-25.5 -99q0 -32 15.5 -52t43.5 -20zM228 -10q-94 0 -152 55.5t-58 148.5q0 116 72.5 191t177.5 75q94 0 152 -55.5t58 -148.5q0 -116 -72 -191t-178 -75z" />
    <glyph glyph-name="divide" unicode="&#xf7;" horiz-adv-x="556" 
d="M54 241l21 116h453l-20 -116h-454zM243 479q0 33 23.5 56t57.5 23q33 0 57 -23t24 -56t-24 -56t-57 -23q-34 0 -57.5 23t-23.5 56zM180 119q0 33 23.5 56t57.5 23q33 0 57 -23t24 -56t-24 -56t-57 -23q-34 0 -57.5 23t-23.5 56z" />
    <glyph glyph-name="oslash" unicode="&#xf8;" horiz-adv-x="506" 
d="M20 16l44 47q-41 54 -41 131q0 116 72.5 191t177.5 75q74 0 127 -36l43 46l44 -37l-45 -48q41 -52 41 -129q0 -116 -72 -191t-178 -75q-75 0 -127 35l-42 -45zM171 189v-11l138 148q-17 12 -39 12q-42 0 -70.5 -44t-28.5 -105zM237 113q42 0 70.5 44t28.5 105v9
l-137 -147q16 -11 38 -11z" />
    <glyph glyph-name="ugrave" unicode="&#xf9;" horiz-adv-x="514" 
d="M512 450l-79 -450h-157l7 39q-51 -49 -125 -49q-63 0 -99 35.5t-36 96.5q0 18 3 37l51 291h157l-44 -257q-3 -11 -3 -22q0 -46 47 -46q23 0 43 14t30 37l48 274h157zM370 500h-133l-61 150h138z" />
    <glyph glyph-name="uacute" unicode="&#xfa;" horiz-adv-x="514" 
d="M374 500h-146l108 150h151zM512 450l-79 -450h-157l7 39q-51 -49 -125 -49q-63 0 -99 35.5t-36 96.5q0 18 3 37l51 291h157l-44 -257q-3 -11 -3 -22q0 -46 47 -46q23 0 43 14t30 37l48 274h157z" />
    <glyph glyph-name="ucircumflex" unicode="&#xfb;" horiz-adv-x="514" 
d="M387 649l70 -151h-113l-30 55l-50 -55h-119l123 151h119zM512 450l-79 -450h-157l7 39q-51 -49 -125 -49q-63 0 -99 35.5t-36 96.5q0 18 3 37l51 291h157l-44 -257q-3 -11 -3 -22q0 -46 47 -46q23 0 43 14t30 37l48 274h157z" />
    <glyph glyph-name="udieresis" unicode="&#xfc;" horiz-adv-x="514" 
d="M152 567q0 32 22.5 54.5t54.5 22.5t54.5 -22.5t22.5 -54.5q0 -31 -22.5 -53.5t-54.5 -22.5t-54.5 22.5t-22.5 53.5zM329 567q0 32 22 54.5t54 22.5t55 -22.5t23 -54.5q0 -31 -23 -53.5t-55 -22.5q-31 0 -53.5 22.5t-22.5 53.5zM512 450l-79 -450h-157l7 39
q-51 -49 -125 -49q-63 0 -99 35.5t-36 96.5q0 18 3 37l51 291h157l-44 -257q-3 -11 -3 -22q0 -46 47 -46q23 0 43 14t30 37l48 274h157z" />
    <glyph glyph-name="yacute" unicode="&#xfd;" horiz-adv-x="497" 
d="M171 -159h-157l105 176l-73 433h148l39 -258l141 258h157zM358 500h-146l108 150h151z" />
    <glyph glyph-name="thorn" unicode="&#xfe;" horiz-adv-x="533" 
d="M167 36l-34 -195h-157l142 809h157l-42 -238q48 48 115 48q80 0 123.5 -54.5t43.5 -138.5q0 -116 -66.5 -196.5t-171.5 -80.5q-36 0 -66.5 13t-43.5 33zM210 282l-20 -116q5 -19 22.5 -30.5t42.5 -11.5q44 0 72.5 35.5t28.5 91.5q0 34 -17.5 55t-50.5 21q-47 0 -78 -45z
" />
    <glyph glyph-name="ydieresis" unicode="&#xff;" horiz-adv-x="497" 
d="M171 -159h-157l105 176l-73 433h148l39 -258l141 258h157zM137 567q0 32 22.5 54.5t54.5 22.5t54.5 -22.5t22.5 -54.5q0 -31 -22.5 -53.5t-54.5 -22.5t-54.5 22.5t-22.5 53.5zM314 567q0 32 22 54.5t54 22.5t55 -22.5t23 -54.5q0 -31 -23 -53.5t-55 -22.5t-54 22.5
t-22 53.5z" />
    <glyph glyph-name="Amacron" unicode="&#x100;" horiz-adv-x="646" 
d="M318 614h164l119 -614h-159l-22 119h-224l-66 -119h-160zM274 666l19 108h266l-19 -108h-266zM366 424l-97 -173h128z" />
    <glyph glyph-name="amacron" unicode="&#x101;" horiz-adv-x="485" 
d="M456 276l-48 -276h-152l4 23q-37 -31 -103 -31q-65 0 -108.5 35.5t-43.5 95.5q0 73 55.5 115t135.5 42q69 0 105 -26l5 29q0 1 0.5 6t0.5 8q0 42 -46 42q-41 0 -59 -34h-148q18 68 79 111.5t146 43.5q83 0 132 -39.5t49 -107.5q0 -13 -4 -37zM277 124l5 28q-12 31 -60 31
q-27 0 -48 -12.5t-21 -36.5q0 -18 16.5 -28t39.5 -10q46 0 68 28zM175 504l19 108h252l-19 -108h-252z" />
    <glyph glyph-name="Abreve" unicode="&#x102;" horiz-adv-x="646" 
d="M318 614h164l119 -614h-159l-22 119h-224l-66 -119h-160zM411 658q-65 0 -101.5 39t-23.5 107h108q-8 -42 28 -42t44 42h108q-13 -71 -55.5 -108.5t-107.5 -37.5zM366 424l-97 -173h128z" />
    <glyph glyph-name="abreve" unicode="&#x103;" horiz-adv-x="485" 
d="M456 276l-48 -276h-152l4 23q-37 -31 -103 -31q-65 0 -108.5 35.5t-43.5 95.5q0 73 55.5 115t135.5 42q69 0 105 -26l5 29q0 1 0.5 6t0.5 8q0 42 -46 42q-41 0 -59 -34h-148q18 68 79 111.5t146 43.5q83 0 132 -39.5t49 -107.5q0 -13 -4 -37zM277 124l5 28q-12 31 -60 31
q-27 0 -48 -12.5t-21 -36.5q0 -18 16.5 -28t39.5 -10q46 0 68 28zM304 488q-64 0 -100.5 40.5t-23.5 109.5h108q-9 -47 26 -47q36 0 45 47h107q-13 -73 -56 -111.5t-106 -38.5z" />
    <glyph glyph-name="Aogonek" unicode="&#x104;" horiz-adv-x="646" 
d="M318 614h164l119 -614q-4 -4 -11 -10.5t-10.5 -10l-9 -9t-8.5 -9t-7.5 -8.5t-6.5 -8.5t-4 -8t-3 -8t-1 -7.5q0 -15 15 -15q13 0 38 15l-15 -87q-33 -19 -69 -19q-35 0 -56 17t-21 48q0 23 12 46t25 37.5t36 36.5h-63l-22 119h-224l-66 -119h-160zM366 424l-96 -173h127z
" />
    <glyph glyph-name="aogonek" unicode="&#x105;" horiz-adv-x="485" 
d="M277 124l5 28q-12 31 -60 31q-27 0 -48 -12.5t-21 -36.5q0 -18 16.5 -28t39.5 -10q46 0 68 28zM256 0l4 23q-37 -31 -103 -31q-65 0 -108.5 35.5t-43.5 95.5q0 73 55.5 115t135.5 42q69 0 105 -26l5 29q0 1 0.5 6t0.5 8q0 42 -46 42q-41 0 -59 -34h-148q18 68 79 111.5
t146 43.5q83 0 132 -39.5t49 -107.5q0 -13 -4 -37l-48 -276q-6 -6 -18.5 -18t-17.5 -17.5t-12.5 -14.5t-10.5 -15.5t-3 -13.5q0 -15 16 -15q13 0 38 15l-15 -87q-35 -19 -69 -19q-36 0 -56.5 17t-20.5 48q0 23 12 46t25 37.5t36 36.5h-56z" />
    <glyph glyph-name="Cacute" unicode="&#x106;" horiz-adv-x="607" 
d="M36 269q0 148 92 251.5t233 103.5q111 0 177 -60t72 -156h-160q-6 35 -30.5 55t-64.5 20q-71 0 -114 -59t-43 -151q0 -64 32.5 -103t86.5 -39q78 0 113 76h161q-32 -100 -101.5 -158.5t-177.5 -58.5q-125 0 -200.5 77.5t-75.5 201.5zM460 666h-158l105 130h164z" />
    <glyph glyph-name="cacute" unicode="&#x107;" horiz-adv-x="471" 
d="M359 500h-146l108 150h151zM295 167h151q-19 -84 -76 -130.5t-147 -46.5q-95 0 -150 56.5t-55 145.5q0 111 69.5 189.5t179.5 78.5q94 0 144 -48t52 -129h-152q-2 47 -48 47q-43 0 -66.5 -41.5t-23.5 -92.5q0 -35 15.5 -55t43.5 -20q46 0 63 46z" />
    <glyph glyph-name="Ccircumflex" unicode="&#x108;" horiz-adv-x="607" 
d="M36 269q0 148 92 251.5t233 103.5q111 0 177 -60t72 -156h-160q-6 35 -30.5 55t-64.5 20q-71 0 -114 -59t-43 -151q0 -64 32.5 -103t86.5 -39q78 0 113 76h161q-32 -100 -101.5 -158.5t-177.5 -58.5q-125 0 -200.5 77.5t-75.5 201.5zM464 798l84 -132h-122l-34 45
l-50 -45h-130l132 132h120z" />
    <glyph glyph-name="ccircumflex" unicode="&#x109;" horiz-adv-x="471" 
d="M372 649l70 -151h-113l-30 55l-50 -55h-119l123 151h119zM295 167h151q-19 -84 -76 -130.5t-147 -46.5q-95 0 -150 56.5t-55 145.5q0 111 69.5 189.5t179.5 78.5q94 0 144 -48t52 -129h-152q-2 47 -48 47q-43 0 -66.5 -41.5t-23.5 -92.5q0 -35 15.5 -55t43.5 -20
q46 0 63 46z" />
    <glyph glyph-name="Cdotaccent" unicode="&#x10a;" horiz-adv-x="607" 
d="M487 743q0 -38 -26 -61.5t-63 -23.5t-63 23.5t-26 61.5q0 37 26 60.5t63 23.5t63 -23.5t26 -60.5zM36 269q0 148 92 251.5t233 103.5q111 0 177 -60t72 -156h-160q-6 35 -30.5 55t-64.5 20q-71 0 -114 -59t-43 -151q0 -64 32.5 -103t86.5 -39q78 0 113 76h161
q-32 -100 -101.5 -158.5t-177.5 -58.5q-125 0 -200.5 77.5t-75.5 201.5z" />
    <glyph glyph-name="cdotaccent" unicode="&#x10b;" horiz-adv-x="471" 
d="M295 167h151q-19 -84 -76 -130.5t-147 -46.5q-95 0 -150 56.5t-55 145.5q0 111 69.5 189.5t179.5 78.5q94 0 144 -48t52 -129h-152q-2 47 -48 47q-43 0 -66.5 -41.5t-23.5 -92.5q0 -35 15.5 -55t43.5 -20q46 0 63 46zM393 579q0 -37 -26 -60.5t-63 -23.5t-63 23.5
t-26 60.5q0 38 26 61.5t63 23.5t63 -23.5t26 -61.5z" />
    <glyph glyph-name="Ccaron" unicode="&#x10c;" horiz-adv-x="607" 
d="M327 663l-84 133h122l34 -46l50 46h130l-132 -133h-120zM36 269q0 148 92 251.5t233 103.5q111 0 177 -60t72 -156h-160q-6 35 -30.5 55t-64.5 20q-71 0 -114 -59t-43 -151q0 -64 32.5 -103t86.5 -39q78 0 113 76h161q-32 -100 -101.5 -158.5t-177.5 -58.5
q-125 0 -200.5 77.5t-75.5 201.5z" />
    <glyph glyph-name="ccaron" unicode="&#x10d;" horiz-adv-x="471" 
d="M233 498l-70 151h113l30 -56l50 56h119l-123 -151h-119zM295 167h151q-19 -84 -76 -130.5t-147 -46.5q-95 0 -150 56.5t-55 145.5q0 111 69.5 189.5t179.5 78.5q94 0 144 -48t52 -129h-152q-2 47 -48 47q-43 0 -66.5 -41.5t-23.5 -92.5q0 -35 15.5 -55t43.5 -20
q46 0 63 46z" />
    <glyph glyph-name="Dcaron" unicode="&#x10e;" horiz-adv-x="612" 
d="M297 663l-84 133h122l34 -46l50 46h130l-132 -133h-120zM191 139h67q86 0 137 56.5t51 147.5q0 63 -33.5 98t-98.5 35h-64zM8 0l108 614h227q128 0 196 -67.5t68 -187.5q0 -158 -101.5 -258.5t-263.5 -100.5h-234z" />
    <glyph glyph-name="dcaron" unicode="&#x10f;" horiz-adv-x="532" 
d="M686 483h-122l77 167h123zM366 414l41 236h156l-114 -650h-156l6 38q-48 -48 -115 -48q-79 0 -122.5 54.5t-43.5 138.5q0 115 66.5 196t171.5 81q36 0 66.5 -13t43.5 -33zM322 169l21 116q-5 18 -23 30t-42 12q-44 0 -72.5 -37.5t-28.5 -90.5q0 -33 17.5 -54t50.5 -21
q48 0 77 45z" />
    <glyph glyph-name="Dcroat" unicode="&#x110;" horiz-adv-x="628" 
d="M23 251l22 124h45l42 239h227q128 0 196 -67.5t68 -187.5q0 -158 -101.5 -258.5t-263.5 -100.5h-234l44 251h-45zM207 139h67q86 0 137 56.5t51 147.5q0 63 -33.5 98t-98.5 35h-64l-18 -101h88l-22 -124h-88z" />
    <glyph glyph-name="dcroat" unicode="&#x111;" horiz-adv-x="532" 
d="M297 490l17 102h83l10 58h156l-10 -58h48l-18 -102h-48l-86 -490h-156l6 38q-48 -48 -115 -48q-79 0 -122.5 54.5t-43.5 138.5q0 115 66.5 196t171.5 81q36 0 66.5 -13t43.5 -33l13 76h-82zM322 169l21 116q-5 18 -23 30t-42 12q-44 0 -72.5 -37.5t-28.5 -90.5
q0 -33 17.5 -54t50.5 -21q48 0 77 45z" />
    <glyph glyph-name="Emacron" unicode="&#x112;" horiz-adv-x="519" 
d="M213 666l19 108h266l-19 -108h-266zM116 614h440l-24 -138h-282l-17 -96h256l-23 -135h-257l-18 -106h281l-24 -139h-440z" />
    <glyph glyph-name="emacron" unicode="&#x113;" horiz-adv-x="482" 
d="M303 157h148q-22 -79 -80.5 -123t-145.5 -44q-95 0 -151 55.5t-56 148.5q0 109 69.5 187.5t183.5 78.5q91 0 142.5 -49.5t51.5 -138.5q0 -36 -9 -77h-289v-4q0 -79 68 -79q49 0 68 45zM167 504l19 108h252l-19 -108h-252zM265 338q-56 0 -83 -65h136q0 1 0.5 5t0.5 6
q0 24 -14.5 39t-39.5 15z" />
    <glyph glyph-name="Ebreve" unicode="&#x114;" horiz-adv-x="519" 
d="M351 658q-65 0 -101.5 39t-23.5 107h108q-8 -42 28 -42t44 42h108q-13 -71 -55.5 -108.5t-107.5 -37.5zM116 614h440l-24 -138h-282l-17 -96h256l-23 -135h-257l-18 -106h281l-24 -139h-440z" />
    <glyph glyph-name="ebreve" unicode="&#x115;" horiz-adv-x="482" 
d="M303 157h148q-22 -79 -80.5 -123t-145.5 -44q-95 0 -151 55.5t-56 148.5q0 109 69.5 187.5t183.5 78.5q91 0 142.5 -49.5t51.5 -138.5q0 -36 -9 -77h-289v-4q0 -79 68 -79q49 0 68 45zM297 488q-64 0 -100.5 40.5t-23.5 109.5h108q-9 -47 26 -47q36 0 45 47h107
q-13 -73 -56 -111.5t-106 -38.5zM265 338q-56 0 -83 -65h136q0 1 0.5 5t0.5 6q0 24 -14.5 39t-39.5 15z" />
    <glyph glyph-name="Edotaccent" unicode="&#x116;" horiz-adv-x="519" 
d="M447 743q0 -38 -26 -61.5t-63 -23.5t-63 23.5t-26 61.5q0 37 26 60.5t63 23.5t63 -23.5t26 -60.5zM116 614h440l-24 -138h-282l-17 -96h256l-23 -135h-257l-18 -106h281l-24 -139h-440z" />
    <glyph glyph-name="edotaccent" unicode="&#x117;" horiz-adv-x="482" 
d="M303 157h148q-22 -79 -80.5 -123t-145.5 -44q-95 0 -151 55.5t-56 148.5q0 109 69.5 187.5t183.5 78.5q91 0 142.5 -49.5t51.5 -138.5q0 -36 -9 -77h-289v-4q0 -79 68 -79q49 0 68 45zM395 579q0 -37 -26 -60.5t-63 -23.5t-63 23.5t-26 60.5q0 38 26 61.5t63 23.5
t63 -23.5t26 -61.5zM265 338q-56 0 -83 -65h136q0 1 0.5 5t0.5 6q0 24 -14.5 39t-39.5 15z" />
    <glyph glyph-name="Eogonek" unicode="&#x118;" horiz-adv-x="519" 
d="M116 614h440l-24 -138h-282l-17 -96h256l-23 -135h-257l-18 -106h281l-24 -139h-38q-6 -6 -18.5 -17.5t-18 -18t-13 -15t-10.5 -15t-3 -13.5q0 -15 16 -15q13 0 38 15l-16 -87q-33 -19 -68 -19q-36 0 -56.5 17t-20.5 48q0 23 12 46t25 37.5t36 36.5h-305z" />
    <glyph glyph-name="eogonek" unicode="&#x119;" horiz-adv-x="482" 
d="M303 157h148q-21 -71 -86 -129q-76 -78 -76 -107q0 -15 16 -15q13 0 38 15l-16 -87q-33 -19 -68 -19q-36 0 -56.5 17t-20.5 48q0 50 63 111q-4 -1 -20 -1q-95 0 -151 55.5t-56 148.5q0 109 69.5 187.5t183.5 78.5q91 0 142.5 -49.5t51.5 -138.5q0 -36 -9 -77h-289v-5
q0 -78 68 -78q48 0 68 45zM265 338q-59 0 -84 -65h137q0 1 0.5 5t0.5 6q0 24 -14.5 39t-39.5 15z" />
    <glyph glyph-name="Ecaron" unicode="&#x11a;" horiz-adv-x="519" 
d="M288 663l-84 133h122l34 -46l50 46h130l-132 -133h-120zM116 614h440l-24 -138h-282l-17 -96h256l-23 -135h-257l-18 -106h281l-24 -139h-440z" />
    <glyph glyph-name="ecaron" unicode="&#x11b;" horiz-adv-x="482" 
d="M303 157h148q-22 -79 -80.5 -123t-145.5 -44q-95 0 -151 55.5t-56 148.5q0 109 69.5 187.5t183.5 78.5q91 0 142.5 -49.5t51.5 -138.5q0 -36 -9 -77h-289v-4q0 -79 68 -79q49 0 68 45zM235 498l-70 151h113l30 -56l50 56h119l-123 -151h-119zM265 338q-56 0 -83 -65h136
q0 1 0.5 5t0.5 6q0 24 -14.5 39t-39.5 15z" />
    <glyph glyph-name="Gcircumflex" unicode="&#x11c;" horiz-adv-x="625" 
d="M468 798l84 -132h-122l-34 45l-50 -45h-130l132 132h120zM315 -10q-127 0 -203 77.5t-76 201.5q0 148 92.5 251.5t233.5 103.5q113 0 180 -59.5t74 -155.5h-160q-7 34 -32.5 54t-66.5 20q-71 0 -115 -59t-44 -151q0 -64 33 -103t89 -39q42 0 74 21.5t45 55.5h-93l21 120
h254l-15 -87q-19 -112 -98.5 -181.5t-192.5 -69.5z" />
    <glyph glyph-name="gcircumflex" unicode="&#x11d;" horiz-adv-x="531" 
d="M409 649l70 -151h-113l-30 55l-50 -55h-119l123 151h119zM299 35l6 30q-46 -46 -109 -46q-82 0 -127.5 53t-45.5 133q0 108 65 181.5t167 73.5q39 0 68.5 -13t42.5 -32l7 35h156l-69 -390q-41 -229 -260 -229q-92 0 -148.5 44.5t-59.5 118.5h152q4 -48 64 -48q75 0 91 89
zM326 186l19 110q-5 17 -23 28.5t-42 11.5q-45 0 -72 -35t-27 -86q0 -32 17.5 -51.5t49.5 -19.5q47 0 78 42z" />
    <glyph glyph-name="Gbreve" unicode="&#x11e;" horiz-adv-x="625" 
d="M395 658q-65 0 -101.5 39t-23.5 107h108q-8 -42 28 -42t44 42h108q-13 -71 -55.5 -108.5t-107.5 -37.5zM315 -10q-127 0 -203 77.5t-76 201.5q0 148 92.5 251.5t233.5 103.5q113 0 180 -59.5t74 -155.5h-160q-7 34 -32.5 54t-66.5 20q-71 0 -115 -59t-44 -151
q0 -64 33 -103t89 -39q42 0 74 21.5t45 55.5h-93l21 120h254l-15 -87q-19 -112 -98.5 -181.5t-192.5 -69.5z" />
    <glyph glyph-name="gbreve" unicode="&#x11f;" horiz-adv-x="531" 
d="M299 35l6 30q-46 -46 -109 -46q-82 0 -127.5 53t-45.5 133q0 108 65 181.5t167 73.5q39 0 68.5 -13t42.5 -32l7 35h156l-69 -390q-41 -229 -260 -229q-92 0 -148.5 44.5t-59.5 118.5h152q4 -48 64 -48q75 0 91 89zM326 186l19 110q-5 17 -23 28.5t-42 11.5q-45 0 -72 -35
t-27 -86q0 -32 17.5 -51.5t49.5 -19.5q47 0 78 42zM332 488q-64 0 -100.5 40.5t-23.5 109.5h108q-9 -47 26 -47q36 0 45 47h107q-13 -73 -56 -111.5t-106 -38.5z" />
    <glyph glyph-name="Gdotaccent" unicode="&#x120;" horiz-adv-x="625" 
d="M492 743q0 -38 -26 -61.5t-63 -23.5t-63 23.5t-26 61.5q0 37 26 60.5t63 23.5t63 -23.5t26 -60.5zM315 -10q-127 0 -203 77.5t-76 201.5q0 148 92.5 251.5t233.5 103.5q113 0 180 -59.5t74 -155.5h-160q-7 34 -32.5 54t-66.5 20q-71 0 -115 -59t-44 -151q0 -64 33 -103
t89 -39q42 0 74 21.5t45 55.5h-93l21 120h254l-15 -87q-19 -112 -98.5 -181.5t-192.5 -69.5z" />
    <glyph glyph-name="gdotaccent" unicode="&#x121;" horiz-adv-x="531" 
d="M431 579q0 -37 -26 -60.5t-63 -23.5t-63 23.5t-26 60.5q0 38 26 61.5t63 23.5t63 -23.5t26 -61.5zM299 35l6 30q-46 -46 -109 -46q-82 0 -127.5 53t-45.5 133q0 108 65 181.5t167 73.5q39 0 68.5 -13t42.5 -32l7 35h156l-69 -390q-41 -229 -260 -229q-92 0 -148.5 44.5
t-59.5 118.5h152q4 -48 64 -48q75 0 91 89zM326 186l19 110q-5 17 -23 28.5t-42 11.5q-45 0 -72 -35t-27 -86q0 -32 17.5 -51.5t49.5 -19.5q47 0 78 42z" />
    <glyph glyph-name="Gcommaaccent" unicode="&#x122;" horiz-adv-x="625" 
d="M191 -236l55 62q-46 18 -46 68q0 32 23 52.5t58 20.5q34 0 57.5 -21.5t23.5 -57.5q0 -46 -47 -95l-27 -29h-97zM315 -10q-127 0 -203 77.5t-76 201.5q0 148 92.5 251.5t233.5 103.5q113 0 180 -59.5t74 -155.5h-160q-7 34 -32.5 54t-66.5 20q-71 0 -115 -59t-44 -151
q0 -64 33 -103t89 -39q42 0 74 21.5t45 55.5h-93l21 120h254l-15 -87q-19 -112 -98.5 -181.5t-192.5 -69.5z" />
    <glyph glyph-name="gcommaaccent" unicode="&#x123;" horiz-adv-x="531" 
d="M432 696l-59 -67q45 -18 45 -67q0 -32 -22.5 -53t-57.5 -21q-34 0 -57.5 21.5t-23.5 57.5q0 46 47 95l31 34h97zM299 35l6 30q-46 -46 -109 -46q-82 0 -127.5 53t-45.5 133q0 108 65 181.5t167 73.5q39 0 68.5 -13t42.5 -32l7 35h156l-69 -390q-41 -229 -260 -229
q-92 0 -148.5 44.5t-59.5 118.5h152q4 -48 64 -48q75 0 91 89zM326 186l19 110q-5 17 -23 28.5t-42 11.5q-45 0 -72 -35t-27 -86q0 -32 17.5 -51.5t49.5 -19.5q47 0 78 42z" />
    <glyph glyph-name="Hcircumflex" unicode="&#x124;" horiz-adv-x="650" 
d="M514 614h161l-108 -614h-161l43 243h-237l-43 -243h-161l108 614h161l-41 -233h237zM484 798l84 -132h-122l-34 45l-50 -45h-130l132 132h120z" />
    <glyph glyph-name="hcircumflex" unicode="&#x125;" horiz-adv-x="519" 
d="M358 460q64 0 100.5 -36t36.5 -97q0 -17 -3 -36l-51 -291h-157l45 257q2 16 2 17q0 47 -50 47q-23 0 -42.5 -13.5t-29.5 -35.5l-48 -272h-157l114 650h157l-42 -239q49 49 125 49zM389 807l84 -132h-122l-34 45l-50 -45h-130l132 132h120z" />
    <glyph glyph-name="Hbar" unicode="&#x126;" horiz-adv-x="683" 
d="M530 614h161l-14 -80h46l-22 -123h-46l-72 -411h-161l35 199h-237l-35 -199h-161l72 411h-45l21 123h46l14 80h161l-14 -80h237zM241 321h237l16 90h-237z" />
    <glyph glyph-name="hbar" unicode="&#x127;" horiz-adv-x="519" 
d="M43 490l18 102h47l10 58h157l-10 -58h82l-18 -102h-82l-14 -79q49 49 125 49q64 0 100.5 -36t36.5 -97q0 -17 -3 -36l-51 -291h-157l45 257q2 16 2 17q0 47 -50 47q-23 0 -42.5 -13.5t-29.5 -35.5l-48 -272h-157l86 490h-47z" />
    <glyph glyph-name="Itilde" unicode="&#x128;" horiz-adv-x="253" 
d="M277 614l-108 -614h-161l108 614h161zM300 810h86q-11 -66 -39 -108t-75 -42q-24 0 -56.5 18t-46.5 18q-26 0 -31 -33h-87q26 150 114 150q25 0 57 -18t46 -18q25 0 32 33z" />
    <glyph glyph-name="itilde" unicode="&#x129;" horiz-adv-x="242" 
d="M252 647h87q-12 -67 -39.5 -108.5t-71.5 -41.5q-24 0 -47.5 17.5t-36.5 17.5q-24 0 -30 -32h-86q12 67 39.5 108.5t71.5 41.5q24 0 47.5 -17.5t36.5 -17.5q24 0 29 32zM240 450l-79 -450h-157l79 450h157z" />
    <glyph glyph-name="Imacron" unicode="&#x12a;" horiz-adv-x="253" 
d="M277 614l-108 -614h-161l108 614h161zM74 666l19 108h266l-19 -108h-266z" />
    <glyph glyph-name="imacron" unicode="&#x12b;" horiz-adv-x="242" 
d="M50 504l19 108h243l-19 -108h-243zM240 450l-79 -450h-157l79 450h157z" />
    <glyph glyph-name="Ibreve" unicode="&#x12c;" horiz-adv-x="253" 
d="M277 614l-108 -614h-161l108 614h161zM212 658q-65 0 -101.5 39t-23.5 107h108q-7 -42 28 -42q37 0 44 42h108q-13 -71 -55.5 -108.5t-107.5 -37.5z" />
    <glyph glyph-name="ibreve" unicode="&#x12d;" horiz-adv-x="242" 
d="M174 488q-62 0 -96.5 40t-21.5 110h107q-9 -47 22 -47q32 0 41 47h107q-13 -73 -55 -111.5t-104 -38.5zM240 450l-79 -450h-157l79 450h157z" />
    <glyph glyph-name="Iogonek" unicode="&#x12e;" horiz-adv-x="253" 
d="M277 614l-108 -614q-5 -5 -15.5 -15t-15 -15t-11.5 -13t-10.5 -13t-6 -11t-2.5 -12q0 -15 15 -15q13 0 38 15l-15 -87q-33 -19 -69 -19q-35 0 -56 17t-21 48q0 23 12 46t25 37.5t36 36.5h-65l108 614h161z" />
    <glyph glyph-name="iogonek" unicode="&#x12f;" horiz-adv-x="242" 
d="M272 576q0 -40 -26.5 -64t-64.5 -24q-37 0 -62 22.5t-25 58.5q0 39 27 63.5t64 24.5t62 -22.5t25 -58.5zM4 0l79 450h157l-79 -450q-6 -6 -18.5 -18t-17.5 -17.5t-12.5 -14.5t-10.5 -15.5t-3 -13.5q0 -15 16 -15q13 0 38 15l-15 -87q-33 -19 -69 -19q-35 0 -56 17t-21 48
q0 23 12 46t25 37.5t36 36.5h-61z" />
    <glyph glyph-name="Idotaccent" unicode="&#x130;" horiz-adv-x="253" 
d="M277 614l-108 -614h-161l108 614h161zM308 743q0 -38 -26 -61.5t-63 -23.5t-63 23.5t-26 61.5q0 37 26 60.5t63 23.5t63 -23.5t26 -60.5z" />
    <glyph glyph-name="dotlessi" unicode="&#x131;" horiz-adv-x="242" 
d="M240 450l-79 -450h-157l79 450h157z" />
    <glyph glyph-name="IJ" unicode="&#x132;" horiz-adv-x="792" 
d="M277 614l-108 -614h-161l108 614h161zM270 223h161q-1 -8 -1 -13q0 -76 72 -76q42 0 64 27t31 80l66 373h161l-67 -380q-21 -120 -88.5 -182t-173.5 -62q-104 0 -165 55.5t-61 149.5q0 5 0.5 15.5t0.5 12.5z" />
    <glyph glyph-name="ij" unicode="&#x133;" horiz-adv-x="483" 
d="M240 450l-79 -450h-157l79 450h157zM272 576q0 -40 -26.5 -64t-64.5 -24q-37 0 -62 22.5t-25 58.5q0 39 27 63.5t64 24.5t62 -22.5t25 -58.5zM143 -158l21 119q16 -7 33 -7q41 0 49 50l79 446h157l-78 -440q-31 -179 -190 -179q-42 0 -71 11zM514 576q0 -40 -26.5 -64
t-64.5 -24q-37 0 -62 22.5t-25 58.5q0 39 27 63.5t64 24.5t62 -22.5t25 -58.5z" />
    <glyph glyph-name="Jcircumflex" unicode="&#x134;" horiz-adv-x="539" 
d="M17 223h161q-1 -8 -1 -13q0 -76 72 -76q42 0 64 27t31 80l66 373h161l-67 -380q-21 -120 -88.5 -182t-173.5 -62q-104 0 -165 55.5t-61 149.5q0 5 0.5 15.5t0.5 12.5zM578 798l84 -132h-122l-34 45l-50 -45h-130l132 132h120z" />
    <glyph glyph-name="jcircumflex" unicode="&#x135;" horiz-adv-x="242" 
d="M253 649l63 -151h-113l-24 54l-43 -54h-118l115 151h120zM-99 -158l21 119q16 -7 33 -7q41 0 49 50l79 446h157l-78 -440q-31 -179 -190 -179q-42 0 -71 11z" />
    <glyph glyph-name="Kcommaaccent" unicode="&#x136;" horiz-adv-x="608" 
d="M149 -236l55 62q-46 18 -46 68q0 32 23 52.5t58 20.5q34 0 57.5 -21.5t23.5 -57.5q0 -46 -47 -95l-27 -29h-97zM277 614l-44 -251l241 251h194l-266 -272l164 -342h-182l-116 238l-69 -69l-30 -169h-161l108 614h161z" />
    <glyph glyph-name="kcommaaccent" unicode="&#x137;" horiz-adv-x="518" 
d="M107 -236l55 62q-46 18 -46 68q0 32 23 52.5t58 20.5q34 0 57.5 -21.5t23.5 -57.5q0 -46 -47 -95l-27 -29h-97zM312 0l-90 169l-38 -38l-23 -131h-157l114 650h157l-61 -349l149 149h193l-209 -195l134 -255h-169z" />
    <glyph glyph-name="kgreenlandic" unicode="&#x138;" horiz-adv-x="522" 
d="M312 0l-90 169l-38 -38l-23 -131h-157l79 450h157l-26 -149l149 149h193l-209 -195l134 -255h-169z" />
    <glyph glyph-name="Lacute" unicode="&#x139;" horiz-adv-x="510" 
d="M289 666h-158l105 130h164zM8 0l108 614h161l-84 -475h276l-24 -139h-437z" />
    <glyph glyph-name="lacute" unicode="&#x13a;" horiz-adv-x="242" 
d="M280 676h-158l105 130h164zM275 650l-114 -650h-157l114 650h157z" />
    <glyph glyph-name="Lcommaaccent" unicode="&#x13b;" horiz-adv-x="510" 
d="M119 -236l55 62q-46 18 -46 68q0 32 23 52.5t58 20.5q34 0 57.5 -21.5t23.5 -57.5q0 -46 -47 -95l-27 -29h-97zM8 0l108 614h161l-84 -475h276l-24 -139h-437z" />
    <glyph glyph-name="lcommaaccent" unicode="&#x13c;" horiz-adv-x="242" 
d="M-32 -236l55 62q-46 18 -46 68q0 32 23 52.5t58 20.5q34 0 57.5 -21.5t23.5 -57.5q0 -46 -47 -95l-27 -29h-97zM275 650l-114 -650h-157l114 650h157z" />
    <glyph glyph-name="Lcaron" unicode="&#x13d;" horiz-adv-x="510" 
d="M433 447h-122l77 167h123zM8 0l108 614h161l-84 -475h276l-24 -139h-437z" />
    <glyph glyph-name="lcaron" unicode="&#x13e;" horiz-adv-x="242" 
d="M397 483h-122l77 167h123zM275 650l-114 -650h-157l114 650h157z" />
    <glyph glyph-name="Ldot" unicode="&#x13f;" horiz-adv-x="510" 
d="M8 0l108 614h161l-84 -475h276l-24 -139h-437zM488 318q0 -37 -26 -60.5t-63 -23.5t-63 23.5t-26 60.5q0 38 26 61.5t63 23.5t63 -23.5t26 -61.5z" />
    <glyph glyph-name="ldot" unicode="&#x140;" horiz-adv-x="438" 
d="M275 650l-114 -650h-157l114 650h157zM442 325q0 -37 -26 -60.5t-63 -23.5t-63 23.5t-26 60.5q0 38 26 61.5t63 23.5t63 -23.5t26 -61.5z" />
    <glyph glyph-name="Lslash" unicode="&#x141;" horiz-adv-x="526" 
d="M14 200l22 128l49 19l47 267h161l-38 -216l117 46l-23 -129l-117 -46l-23 -130h276l-24 -139h-437l38 219z" />
    <glyph glyph-name="lslash" unicode="&#x142;" horiz-adv-x="293" 
d="M301 650l-39 -220l64 29l-21 -115l-63 -28l-55 -316h-157l45 256l-57 -26l21 115l56 25l49 280h157z" />
    <glyph glyph-name="Nacute" unicode="&#x143;" horiz-adv-x="631" 
d="M471 666h-158l105 130h164zM656 614l-108 -614h-124l-196 370l-65 -370h-155l108 614h144l179 -349l62 349h155z" />
    <glyph glyph-name="nacute" unicode="&#x144;" horiz-adv-x="519" 
d="M381 500h-146l108 150h151zM4 0l79 450h157l-7 -39q49 49 125 49q64 0 100.5 -36t36.5 -97q0 -17 -3 -36l-51 -291h-157l45 257q2 16 2 17q0 47 -50 47q-23 0 -42.5 -13.5t-29.5 -35.5l-48 -272h-157z" />
    <glyph glyph-name="Ncommaaccent" unicode="&#x145;" horiz-adv-x="631" 
d="M164 -236l55 62q-46 18 -46 68q0 32 23 52.5t58 20.5q34 0 57.5 -21.5t23.5 -57.5q0 -46 -47 -95l-27 -29h-97zM656 614l-108 -614h-124l-196 370l-65 -370h-155l108 614h144l179 -349l62 349h155z" />
    <glyph glyph-name="ncommaaccent" unicode="&#x146;" horiz-adv-x="519" 
d="M109 -236l55 62q-46 18 -46 68q0 32 23 52.5t58 20.5q34 0 57.5 -21.5t23.5 -57.5q0 -46 -47 -95l-27 -29h-97zM4 0l79 450h157l-7 -39q49 49 125 49q64 0 100.5 -36t36.5 -97q0 -17 -3 -36l-51 -291h-157l45 257q2 16 2 17q0 47 -50 47q-23 0 -42.5 -13.5t-29.5 -35.5
l-48 -272h-157z" />
    <glyph glyph-name="Ncaron" unicode="&#x147;" horiz-adv-x="631" 
d="M338 663l-84 133h122l34 -46l50 46h130l-132 -133h-120zM656 614l-108 -614h-124l-196 370l-65 -370h-155l108 614h144l179 -349l62 349h155z" />
    <glyph glyph-name="ncaron" unicode="&#x148;" horiz-adv-x="519" 
d="M249 498l-70 151h113l30 -56l50 56h119l-123 -151h-119zM4 0l79 450h157l-7 -39q49 49 125 49q64 0 100.5 -36t36.5 -97q0 -17 -3 -36l-51 -291h-157l45 257q2 16 2 17q0 47 -50 47q-23 0 -42.5 -13.5t-29.5 -35.5l-48 -272h-157z" />
    <glyph glyph-name="Eng" unicode="&#x14a;" horiz-adv-x="631" 
d="M397 50l-169 320l-65 -370h-155l108 614h144l179 -349l62 349h155l-98 -560q-40 -227 -250 -227q-46 0 -91 18l23 136q32 -15 63 -15q39 0 61 18.5t33 65.5z" />
    <glyph glyph-name="eng" unicode="&#x14b;" horiz-adv-x="519" 
d="M181 -158l21 119q16 -7 33 -7q41 0 50 50l44 253q2 16 2 17q0 47 -50 47q-23 0 -42.5 -13.5t-29.5 -35.5l-48 -272h-157l79 450h157l-7 -39q49 49 125 49q64 0 100.5 -36t36.5 -97q0 -17 -3 -36l-49 -281q-31 -179 -190 -179q-43 0 -72 11z" />
    <glyph glyph-name="Omacron" unicode="&#x14c;" horiz-adv-x="643" 
d="M266 666l19 108h266l-19 -108h-266zM317 131q68 0 113.5 57.5t45.5 152.5q0 63 -32.5 102.5t-86.5 39.5q-69 0 -114 -57t-45 -153q0 -63 32.5 -102.5t86.5 -39.5zM312 -10q-126 0 -201 77.5t-75 201.5q0 153 94 254t232 101q126 0 201 -77.5t75 -201.5q0 -153 -94 -254
t-232 -101z" />
    <glyph glyph-name="omacron" unicode="&#x14d;" horiz-adv-x="496" 
d="M170 504l19 108h252l-19 -108h-252zM232 120q41 0 66.5 39.5t25.5 98.5q0 33 -16 53t-44 20q-40 0 -65.5 -40t-25.5 -99q0 -32 15.5 -52t43.5 -20zM228 -10q-94 0 -152 55.5t-58 148.5q0 116 72.5 191t177.5 75q94 0 152 -55.5t58 -148.5q0 -116 -72 -191t-178 -75z" />
    <glyph glyph-name="Obreve" unicode="&#x14e;" horiz-adv-x="643" 
d="M404 658q-65 0 -101.5 39t-23.5 107h108q-7 -42 28 -42q37 0 44 42h108q-13 -71 -55.5 -108.5t-107.5 -37.5zM317 131q68 0 113.5 57.5t45.5 152.5q0 63 -32.5 102.5t-86.5 39.5q-69 0 -114 -57t-45 -153q0 -63 32.5 -102.5t86.5 -39.5zM312 -10q-126 0 -201 77.5
t-75 201.5q0 153 94 254t232 101q126 0 201 -77.5t75 -201.5q0 -153 -94 -254t-232 -101z" />
    <glyph glyph-name="obreve" unicode="&#x14f;" horiz-adv-x="496" 
d="M232 120q41 0 66.5 39.5t25.5 98.5q0 33 -16 53t-44 20q-40 0 -65.5 -40t-25.5 -99q0 -32 15.5 -52t43.5 -20zM228 -10q-94 0 -152 55.5t-58 148.5q0 116 72.5 191t177.5 75q94 0 152 -55.5t58 -148.5q0 -116 -72 -191t-178 -75zM299 488q-64 0 -100.5 40.5t-23.5 109.5
h108q-9 -47 26 -47q36 0 45 47h107q-13 -73 -56 -111.5t-106 -38.5z" />
    <glyph glyph-name="Ohungarumlaut" unicode="&#x150;" horiz-adv-x="643" 
d="M317 131q68 0 113.5 57.5t45.5 152.5q0 63 -32.5 102.5t-86.5 39.5q-69 0 -114 -57t-45 -153q0 -63 32.5 -102.5t86.5 -39.5zM312 -10q-126 0 -201 77.5t-75 201.5q0 153 94 254t232 101q126 0 201 -77.5t75 -201.5q0 -153 -94 -254t-232 -101zM369 666h-133l99 130h133z
M540 666h-132l99 130h133z" />
    <glyph glyph-name="ohungarumlaut" unicode="&#x151;" horiz-adv-x="496" 
d="M270 500h-122l102 150h123zM431 500h-123l103 150h123zM232 120q41 0 66.5 39.5t25.5 98.5q0 33 -16 53t-44 20q-40 0 -65.5 -40t-25.5 -99q0 -32 15.5 -52t43.5 -20zM228 -10q-94 0 -152 55.5t-58 148.5q0 116 72.5 191t177.5 75q94 0 152 -55.5t58 -148.5
q0 -116 -72 -191t-178 -75z" />
    <glyph glyph-name="OE" unicode="&#x152;" horiz-adv-x="825" 
d="M862 614l-24 -138h-240l-18 -96h215l-23 -135h-215l-19 -106h240l-24 -139h-455q-127 0 -195 67.5t-68 187.5q0 158 101 258.5t264 100.5h461zM196 271q0 -63 33.5 -98t98.5 -35h54l59 337h-57q-85 0 -136.5 -56.5t-51.5 -147.5z" />
    <glyph glyph-name="oe" unicode="&#x153;" horiz-adv-x="779" 
d="M600 157h148q-22 -79 -80 -123t-146 -44q-95 0 -146 59q-62 -59 -148 -59q-94 0 -152 55.5t-58 148.5q0 116 72.5 191t177.5 75q86 0 144 -60q65 60 156 60t142.5 -49.5t51.5 -138.5q0 -36 -9 -77h-289v-5q0 -78 68 -78q48 0 68 45zM232 120q41 0 66.5 39.5t25.5 98.5
q0 33 -16 53t-44 20q-40 0 -65.5 -40t-25.5 -99q0 -32 15.5 -52t43.5 -20zM562 338q-59 0 -84 -65h137q0 1 0.5 5t0.5 6q0 24 -14.5 39t-39.5 15z" />
    <glyph glyph-name="Racute" unicode="&#x154;" horiz-adv-x="574" 
d="M264 203h-61l-36 -203h-159l108 614h265q91 0 143.5 -47.5t52.5 -132.5q0 -80 -42.5 -135t-113.5 -79l111 -220h-170zM251 479l-26 -148h99q46 0 71.5 23t25.5 65q0 60 -73 60h-97zM431 666h-158l105 130h164z" />
    <glyph glyph-name="racute" unicode="&#x155;" horiz-adv-x="365" 
d="M313 500h-146l108 150h151zM385 452l-27 -151q-24 14 -62 14q-68 0 -89 -51l-46 -264h-157l79 450h157l-7 -40q39 50 108 50q32 0 44 -8z" />
    <glyph glyph-name="Rcommaaccent" unicode="&#x156;" horiz-adv-x="574" 
d="M264 203h-61l-36 -203h-159l108 614h265q91 0 143.5 -47.5t52.5 -132.5q0 -80 -42.5 -135t-113.5 -79l111 -220h-170zM143 -236l55 62q-46 18 -46 68q0 32 23 52.5t58 20.5q34 0 57.5 -21.5t23.5 -57.5q0 -46 -47 -95l-27 -29h-97zM251 479l-26 -148h99q46 0 71.5 23
t25.5 65q0 60 -73 60h-97z" />
    <glyph glyph-name="rcommaaccent" unicode="&#x157;" horiz-adv-x="365" 
d="M-28 -236l55 62q-46 18 -46 68q0 32 23 52.5t58 20.5q34 0 57.5 -21.5t23.5 -57.5q0 -46 -47 -95l-27 -29h-97zM385 452l-27 -151q-24 14 -62 14q-68 0 -89 -51l-46 -264h-157l79 450h157l-7 -40q39 50 108 50q32 0 44 -8z" />
    <glyph glyph-name="Rcaron" unicode="&#x158;" horiz-adv-x="574" 
d="M264 203h-61l-36 -203h-159l108 614h265q91 0 143.5 -47.5t52.5 -132.5q0 -80 -42.5 -135t-113.5 -79l111 -220h-170zM298 663l-84 133h122l34 -46l50 46h130l-132 -133h-120zM251 479l-26 -148h99q46 0 71.5 23t25.5 65q0 60 -73 60h-97z" />
    <glyph glyph-name="rcaron" unicode="&#x159;" horiz-adv-x="365" 
d="M187 498l-70 151h113l30 -56l50 56h119l-123 -151h-119zM385 452l-27 -151q-24 14 -62 14q-68 0 -89 -51l-46 -264h-157l79 450h157l-7 -40q39 50 108 50q32 0 44 -8z" />
    <glyph glyph-name="Sacute" unicode="&#x15a;" horiz-adv-x="547" 
d="M554 433h-158q-5 27 -27.5 45t-58.5 18t-57 -16t-21 -43q0 -33 41 -45l111 -34q130 -39 130 -151q0 -101 -73.5 -159t-182.5 -58q-110 0 -176 51t-74 144h163q6 -32 30.5 -49t60.5 -17q39 0 61.5 16t23.5 45q0 19 -12.5 31t-41.5 20l-100 29q-61 17 -94 52t-33 97
q0 96 70.5 155.5t176.5 59.5q113 0 174.5 -52.5t66.5 -138.5zM416 666h-158l105 130h164z" />
    <glyph glyph-name="sacute" unicode="&#x15b;" horiz-adv-x="447" 
d="M338 500h-146l108 150h151zM1 140h147q2 -19 17.5 -29.5t37.5 -10.5q49 0 49 31q0 11 -7.5 17t-27.5 11l-72 20q-105 27 -105 119q0 75 59 118.5t143 43.5q95 0 143 -40t51 -108h-143q-2 17 -15.5 27.5t-35.5 10.5q-20 0 -33 -8t-13 -23q0 -16 24 -24l84 -24
q105 -31 105 -122q0 -78 -59.5 -118.5t-147.5 -40.5q-93 0 -145.5 40.5t-55.5 109.5z" />
    <glyph glyph-name="Scircumflex" unicode="&#x15c;" horiz-adv-x="547" 
d="M554 433h-158q-5 27 -27.5 45t-58.5 18t-57 -16t-21 -43q0 -33 41 -45l111 -34q130 -39 130 -151q0 -101 -73.5 -159t-182.5 -58q-110 0 -176 51t-74 144h163q6 -32 30.5 -49t60.5 -17q39 0 61.5 16t23.5 45q0 19 -12.5 31t-41.5 20l-100 29q-61 17 -94 52t-33 97
q0 96 70.5 155.5t176.5 59.5q113 0 174.5 -52.5t66.5 -138.5zM422 798l84 -132h-122l-34 45l-50 -45h-130l132 132h120z" />
    <glyph glyph-name="scircumflex" unicode="&#x15d;" horiz-adv-x="447" 
d="M351 649l70 -151h-113l-30 55l-50 -55h-119l123 151h119zM1 140h147q2 -19 17.5 -29.5t37.5 -10.5q49 0 49 31q0 11 -7.5 17t-27.5 11l-72 20q-105 27 -105 119q0 75 59 118.5t143 43.5q95 0 143 -40t51 -108h-143q-2 17 -15.5 27.5t-35.5 10.5q-20 0 -33 -8t-13 -23
q0 -16 24 -24l84 -24q105 -31 105 -122q0 -78 -59.5 -118.5t-147.5 -40.5q-93 0 -145.5 40.5t-55.5 109.5z" />
    <glyph glyph-name="Scedilla" unicode="&#x15e;" horiz-adv-x="547" 
d="M554 433h-158q-5 27 -27.5 45t-58.5 18t-57 -16t-21 -43q0 -33 41 -45l111 -34q130 -39 130 -151q0 -101 -73.5 -159t-182.5 -58q-110 0 -176 51t-74 144h163q6 -32 30.5 -49t60.5 -17q39 0 61.5 16t23.5 45q0 19 -12.5 31t-41.5 20l-100 29q-61 17 -94 52t-33 97
q0 96 70.5 155.5t176.5 59.5q113 0 174.5 -52.5t66.5 -138.5zM213 -181h-135l94 141h136z" />
    <glyph glyph-name="scedilla" unicode="&#x15f;" horiz-adv-x="447" 
d="M1 140h147q2 -19 17.5 -29.5t37.5 -10.5q49 0 49 31q0 11 -7.5 17t-27.5 11l-72 20q-105 27 -105 119q0 75 59 118.5t143 43.5q95 0 143 -40t51 -108h-143q-2 17 -15.5 27.5t-35.5 10.5q-20 0 -33 -8t-13 -23q0 -16 24 -24l84 -24q105 -31 105 -122q0 -78 -59.5 -118.5
t-147.5 -40.5q-93 0 -145.5 40.5t-55.5 109.5zM157 -181h-135l94 141h136z" />
    <glyph glyph-name="Scaron" unicode="&#x160;" horiz-adv-x="547" 
d="M283 663l-84 133h122l34 -46l50 46h130l-132 -133h-120zM554 433h-158q-5 27 -27.5 45t-58.5 18t-57 -16t-21 -43q0 -33 41 -45l111 -34q130 -39 130 -151q0 -101 -73.5 -159t-182.5 -58q-110 0 -176 51t-74 144h163q6 -32 30.5 -49t60.5 -17q39 0 61.5 16t23.5 45
q0 19 -12.5 31t-41.5 20l-100 29q-61 17 -94 52t-33 97q0 96 70.5 155.5t176.5 59.5q113 0 174.5 -52.5t66.5 -138.5z" />
    <glyph glyph-name="scaron" unicode="&#x161;" horiz-adv-x="447" 
d="M211 498l-70 151h113l30 -56l50 56h119l-123 -151h-119zM1 140h147q2 -19 17.5 -29.5t37.5 -10.5q49 0 49 31q0 11 -7.5 17t-27.5 11l-72 20q-105 27 -105 119q0 75 59 118.5t143 43.5q95 0 143 -40t51 -108h-143q-2 17 -15.5 27.5t-35.5 10.5q-20 0 -33 -8t-13 -23
q0 -16 24 -24l84 -24q105 -31 105 -122q0 -78 -59.5 -118.5t-147.5 -40.5q-93 0 -145.5 40.5t-55.5 109.5z" />
    <glyph glyph-name="Tcedilla" unicode="&#x162;" horiz-adv-x="580" 
d="M143 -236l55 62q-46 18 -46 68q0 32 23 52.5t58 20.5q34 0 57.5 -21.5t23.5 -57.5q0 -46 -47 -95l-27 -29h-97zM65 476l24 138h540l-25 -138h-189l-84 -476h-161l84 476h-189z" />
    <glyph glyph-name="tcedilla" unicode="&#x163;" horiz-adv-x="357" 
d="M64 -236l55 62q-46 18 -46 68q0 32 23 52.5t58 20.5q34 0 57.5 -21.5t23.5 -57.5q0 -46 -47 -95l-27 -29h-97zM62 155l33 173h-66l22 122h66l23 124h154l-23 -124h94l-21 -122h-95l-28 -146q-2 -14 -2 -18q0 -36 42 -36q27 0 52 10l-23 -133q-35 -14 -89 -14
q-143 0 -143 120q0 23 4 44z" />
    <glyph glyph-name="Tcaron" unicode="&#x164;" horiz-adv-x="580" 
d="M312 663l-84 133h122l34 -46l50 46h130l-132 -133h-120zM65 476l24 138h540l-25 -138h-189l-84 -476h-161l84 476h-189z" />
    <glyph glyph-name="tcaron" unicode="&#x165;" horiz-adv-x="357" 
d="M429 487h-122l77 167h123zM62 155l33 173h-66l22 122h66l23 124h154l-23 -124h94l-21 -122h-95l-28 -146q-2 -14 -2 -18q0 -36 42 -36q27 0 52 10l-23 -133q-35 -14 -89 -14q-143 0 -143 120q0 23 4 44z" />
    <glyph glyph-name="Tbar" unicode="&#x166;" horiz-adv-x="580" 
d="M65 476l24 138h540l-25 -138h-189l-20 -113h93l-23 -130h-93l-41 -233h-161l41 233h-89l23 130h89l20 113h-189z" />
    <glyph glyph-name="tbar" unicode="&#x167;" horiz-adv-x="357" 
d="M25 198l17 96h47l10 52h-66l18 104h66l23 124h154l-23 -124h94l-18 -104h-94l-10 -52h69l-17 -96h-71l-2 -14q-2 -14 -2 -18q0 -37 42 -37q24 0 52 11l-24 -135q-35 -14 -89 -14q-143 0 -143 120q0 23 4 44l8 43h-45z" />
    <glyph glyph-name="Utilde" unicode="&#x168;" horiz-adv-x="613" 
d="M478 810h86q-11 -66 -39 -108t-75 -42q-24 0 -56.5 18t-46.5 18q-26 0 -31 -33h-87q26 150 114 150q25 0 57 -18t46 -18q25 0 32 33zM282 -10q-111 0 -176 54.5t-65 153.5q0 32 6 62l63 354h160l-62 -349q-4 -26 -4 -38q0 -45 23 -69.5t67 -24.5q105 0 129 132l61 349
h160l-64 -364q-23 -127 -99 -193.5t-199 -66.5z" />
    <glyph glyph-name="utilde" unicode="&#x169;" horiz-adv-x="514" 
d="M512 450l-79 -450h-157l7 39q-51 -49 -125 -49q-63 0 -99 35.5t-36 96.5q0 18 3 37l51 291h157l-44 -257q-3 -11 -3 -22q0 -46 47 -46q23 0 43 14t30 37l48 274h157zM393 647h87q-26 -150 -115 -150q-24 0 -50.5 18t-40.5 18q-24 0 -31 -33h-87q28 150 115 150
q25 0 51 -18t40 -18q24 0 31 33z" />
    <glyph glyph-name="Umacron" unicode="&#x16a;" horiz-adv-x="613" 
d="M251 666l19 108h266l-19 -108h-266zM282 -10q-111 0 -176 54.5t-65 153.5q0 32 6 62l63 354h160l-62 -349q-4 -26 -4 -38q0 -45 23 -69.5t67 -24.5q105 0 129 132l61 349h160l-64 -364q-23 -127 -99 -193.5t-199 -66.5z" />
    <glyph glyph-name="umacron" unicode="&#x16b;" horiz-adv-x="514" 
d="M512 450l-79 -450h-157l7 39q-51 -49 -125 -49q-63 0 -99 35.5t-36 96.5q0 18 3 37l51 291h157l-44 -257q-3 -11 -3 -22q0 -46 47 -46q23 0 43 14t30 37l48 274h157zM180 504l19 108h252l-19 -108h-252z" />
    <glyph glyph-name="Ubreve" unicode="&#x16c;" horiz-adv-x="613" 
d="M385 658q-65 0 -101.5 39t-23.5 107h108q-8 -42 28 -42t44 42h108q-13 -71 -55.5 -108.5t-107.5 -37.5zM282 -10q-111 0 -176 54.5t-65 153.5q0 32 6 62l63 354h160l-62 -349q-4 -26 -4 -38q0 -45 23 -69.5t67 -24.5q105 0 129 132l61 349h160l-64 -364
q-23 -127 -99 -193.5t-199 -66.5z" />
    <glyph glyph-name="ubreve" unicode="&#x16d;" horiz-adv-x="514" 
d="M512 450l-79 -450h-157l7 39q-51 -49 -125 -49q-63 0 -99 35.5t-36 96.5q0 18 3 37l51 291h157l-44 -257q-3 -11 -3 -22q0 -46 47 -46q23 0 43 14t30 37l48 274h157zM310 488q-64 0 -100.5 40.5t-23.5 109.5h108q-9 -47 26 -47q36 0 45 47h107q-13 -73 -56 -111.5
t-106 -38.5z" />
    <glyph glyph-name="Uring" unicode="&#x16e;" horiz-adv-x="613" 
d="M282 -10q-111 0 -176 54.5t-65 153.5q0 32 6 62l63 354h160l-62 -349q-4 -26 -4 -38q0 -45 23 -69.5t67 -24.5q105 0 129 132l61 349h160l-64 -364q-23 -127 -99 -193.5t-199 -66.5zM396 711q15 0 26.5 11t11.5 28q0 14 -9.5 23.5t-24.5 9.5t-26 -10.5t-11 -27.5
q0 -14 9.5 -24t23.5 -10zM394 642q-44 0 -74 29.5t-30 71.5q0 45 33 77t80 32q44 0 74 -29t30 -71q0 -45 -33 -77.5t-80 -32.5z" />
    <glyph glyph-name="uring" unicode="&#x16f;" horiz-adv-x="514" 
d="M319 554q15 0 26.5 11t11.5 27q0 14 -10 24t-24 10q-15 0 -26.5 -11t-11.5 -28q0 -14 10 -23.5t24 -9.5zM316 485q-44 0 -73.5 29t-29.5 71q0 45 32.5 77.5t80.5 32.5q44 0 73.5 -29.5t29.5 -71.5q0 -45 -32.5 -77t-80.5 -32zM512 450l-79 -450h-157l7 39
q-51 -49 -125 -49q-63 0 -99 35.5t-36 96.5q0 18 3 37l51 291h157l-44 -257q-3 -11 -3 -22q0 -46 47 -46q23 0 43 14t30 37l48 274h157z" />
    <glyph glyph-name="Uhungarumlaut" unicode="&#x170;" horiz-adv-x="613" 
d="M282 -10q-111 0 -176 54.5t-65 153.5q0 32 6 62l63 354h160l-62 -349q-4 -26 -4 -38q0 -45 23 -69.5t67 -24.5q105 0 129 132l61 349h160l-64 -364q-23 -127 -99 -193.5t-199 -66.5zM360 666h-133l99 130h133zM531 666h-132l99 130h133z" />
    <glyph glyph-name="uhungarumlaut" unicode="&#x171;" horiz-adv-x="514" 
d="M512 450l-79 -450h-157l7 39q-51 -49 -125 -49q-63 0 -99 35.5t-36 96.5q0 18 3 37l51 291h157l-44 -257q-3 -11 -3 -22q0 -46 47 -46q23 0 43 14t30 37l48 274h157zM280 500h-122l102 150h123zM441 500h-123l103 150h123z" />
    <glyph glyph-name="Uogonek" unicode="&#x172;" horiz-adv-x="613" 
d="M282 -10q-111 0 -176 54.5t-65 153.5q0 32 6 62l63 354h160l-62 -349q-4 -26 -4 -38q0 -45 23 -69.5t67 -24.5q105 0 129 132l61 349h160l-64 -364q-26 -146 -142 -227q-92 -65 -92 -102q0 -15 16 -15q13 0 38 15l-16 -87q-33 -19 -68 -19q-36 0 -56.5 17t-20.5 48
q0 21 10 42t21.5 35t31.5 34q-4 -1 -20 -1z" />
    <glyph glyph-name="uogonek" unicode="&#x173;" horiz-adv-x="514" 
d="M276 0l7 39q-51 -49 -125 -49q-63 0 -99 35.5t-36 96.5q0 18 3 37l51 291h157l-44 -257q-3 -11 -3 -22q0 -46 47 -46q23 0 43 14t30 37l48 274h157l-79 -450q-4 -4 -13.5 -13t-13.5 -13l-11 -11t-10 -11.5t-7 -10t-5.5 -10.5t-1.5 -10q0 -15 16 -15q13 0 38 15l-16 -87
q-33 -19 -68 -19q-36 0 -56.5 17t-20.5 48q0 23 12 46t24.5 37t35.5 37h-60z" />
    <glyph glyph-name="Wcircumflex" unicode="&#x174;" horiz-adv-x="822" 
d="M420 614h122l22 -361l157 361h164l-284 -614h-146l-24 360l-168 -360h-146l-39 614h159l16 -361zM566 798l84 -132h-122l-34 45l-50 -45h-130l132 132h120z" />
    <glyph glyph-name="wcircumflex" unicode="&#x175;" horiz-adv-x="692" 
d="M473 649l70 -151h-113l-30 55l-50 -55h-119l123 151h119zM438 450l17 -244l122 244h149l-238 -450h-130l-18 228l-111 -228h-130l-52 450h147l21 -244l119 244h104z" />
    <glyph glyph-name="Ycircumflex" unicode="&#x176;" horiz-adv-x="612" 
d="M330 374l172 240h175l-291 -396l-38 -218h-161l38 218l-149 396h167zM461 798l84 -132h-122l-34 45l-50 -45h-130l132 132h120z" />
    <glyph glyph-name="ycircumflex" unicode="&#x177;" horiz-adv-x="497" 
d="M171 -159h-157l105 176l-73 433h148l39 -258l141 258h157zM371 649l70 -151h-113l-30 55l-50 -55h-119l123 151h119z" />
    <glyph glyph-name="Ydieresis" unicode="&#x178;" horiz-adv-x="612" 
d="M330 374l172 240h175l-291 -396l-38 -218h-161l38 218l-149 396h167zM225 734q0 33 22.5 56t55.5 23q32 0 55.5 -23t23.5 -56t-23.5 -56t-55.5 -23q-33 0 -55.5 23t-22.5 56zM406 734q0 33 23 56t55 23t55.5 -23t23.5 -56t-23.5 -56t-55.5 -23t-55 23t-23 56z" />
    <glyph glyph-name="Zacute" unicode="&#x179;" horiz-adv-x="561" 
d="M516 139l-25 -139h-493l20 119l348 357h-280l25 138h486l-21 -118l-343 -357h283zM431 666h-158l105 130h164z" />
    <glyph glyph-name="zacute" unicode="&#x17a;" horiz-adv-x="455" 
d="M339 500h-146l108 150h151zM407 123l-21 -123h-395l18 103l238 225h-193l22 122h387l-19 -102l-230 -225h193z" />
    <glyph glyph-name="Zdotaccent" unicode="&#x17b;" horiz-adv-x="561" 
d="M458 743q0 -38 -26 -61.5t-63 -23.5t-63 23.5t-26 61.5q0 37 26 60.5t63 23.5t63 -23.5t26 -60.5zM516 139l-25 -139h-493l20 119l348 357h-280l25 138h486l-21 -118l-343 -357h283z" />
    <glyph glyph-name="zdotaccent" unicode="&#x17c;" horiz-adv-x="455" 
d="M407 123l-21 -123h-395l18 103l238 225h-193l22 122h387l-19 -102l-230 -225h193zM373 579q0 -37 -26 -60.5t-63 -23.5t-63 23.5t-26 60.5q0 38 26 61.5t63 23.5t63 -23.5t26 -61.5z" />
    <glyph glyph-name="Zcaron" unicode="&#x17d;" horiz-adv-x="561" 
d="M298 663l-84 133h122l34 -46l50 46h130l-132 -133h-120zM516 139l-25 -139h-493l20 119l348 357h-280l25 138h486l-21 -118l-343 -357h283z" />
    <glyph glyph-name="zcaron" unicode="&#x17e;" horiz-adv-x="455" 
d="M213 498l-70 151h113l30 -56l50 56h119l-123 -151h-119zM407 123l-21 -123h-395l18 103l238 225h-193l22 122h387l-19 -102l-230 -225h193z" />
    <glyph glyph-name="florin" unicode="&#x192;" horiz-adv-x="420" 
d="M48 234l21 122h81l31 101q50 167 203 167q48 0 80 -13l-23 -127q-20 9 -42 9q-47 0 -63 -53l-25 -84h76l-22 -122h-91l-69 -234q-50 -166 -199 -166q-49 0 -81 13l21 120q18 -10 41 -10q24 0 38 12.5t22 41.5l67 223h-66z" />
    <glyph glyph-name="Aringacute" unicode="&#x1fa;" horiz-adv-x="646" 
d="M318 614h164l119 -614h-159l-22 119h-224l-66 -119h-160zM412 631q-44 0 -73.5 24t-29.5 59q0 37 32.5 63t79.5 26q44 0 74 -23.5t30 -58.5q0 -37 -33 -63.5t-80 -26.5zM516 821h-154l83 102h161zM366 424l-97 -173h128zM415 689q15 0 26 8.5t11 22.5q0 11 -9.5 18.5
t-23.5 7.5q-16 0 -27 -8.5t-11 -22.5q0 -11 9.5 -18.5t24.5 -7.5z" />
    <glyph glyph-name="aringacute" unicode="&#x1fb;" horiz-adv-x="485" 
d="M316 535q15 0 26 8.5t11 22.5q0 11 -9.5 18.5t-23.5 7.5q-16 0 -27 -8.5t-11 -22.5q0 -11 9.5 -18.5t24.5 -7.5zM313 477q-44 0 -73.5 24t-29.5 59q0 37 32.5 63.5t79.5 26.5q44 0 74 -24t30 -59q0 -37 -33 -63.5t-80 -26.5zM417 667h-154l83 102h161zM456 276l-48 -276
h-152l4 23q-37 -31 -103 -31q-65 0 -108.5 35.5t-43.5 95.5q0 73 55.5 115t135.5 42q69 0 105 -26l5 29q0 1 0.5 6t0.5 8q0 42 -46 42q-41 0 -59 -34h-148q18 68 79 111.5t146 43.5q83 0 132 -39.5t49 -107.5q0 -13 -4 -37zM277 124l5 28q-12 31 -60 31q-27 0 -48 -12.5
t-21 -36.5q0 -18 16.5 -28t39.5 -10q46 0 68 28z" />
    <glyph glyph-name="AEacute" unicode="&#x1fc;" horiz-adv-x="889" 
d="M408 614h518l-24 -138h-259l-18 -96h234l-23 -135h-234l-19 -106h259l-24 -139h-417l21 119h-198l-84 -119h-170zM740 666h-158l105 130h164zM488 492l-171 -241h128z" />
    <glyph glyph-name="aeacute" unicode="&#x1fd;" horiz-adv-x="738" 
d="M498 500h-146l108 150h151zM558 153h148q-23 -78 -80.5 -120.5t-144.5 -42.5q-100 0 -152 60q-69 -59 -167 -59q-71 0 -114 34.5t-43 93.5q0 75 58.5 114.5t145.5 39.5h92q3 15 3 24q0 44 -48 44q-43 0 -62 -36h-146q21 68 81 111.5t140 43.5q82 0 127 -48q21 20 60 34
t79 14q85 0 135.5 -49.5t50.5 -138.5q0 -36 -10 -83h-288v-5q1 -35 18.5 -53.5t48.5 -18.5q48 0 68 41zM277 138l9 51h-64q-69 0 -69 -49q0 -18 14 -28.5t37 -10.5q47 0 73 37zM525 338q-59 0 -84 -65h137q0 1 0.5 5t0.5 6q0 24 -14.5 39t-39.5 15z" />
    <glyph glyph-name="Oslashacute" unicode="&#x1fe;" horiz-adv-x="652" 
d="M34 36l57 60q-51 71 -51 173q0 153 94 254t232 101q101 0 174 -54l52 55l56 -47l-57 -60q51 -73 51 -173q0 -153 -94 -254t-232 -101q-105 0 -174 54l-52 -55zM321 128q69 0 116 59t47 154q0 28 -8 55l-230 -242q31 -26 75 -26zM199 273q0 -31 7 -55l229 242
q-33 26 -74 26q-69 0 -115.5 -59t-46.5 -154zM476 666h-158l105 130h164z" />
    <glyph glyph-name="oslashacute" unicode="&#x1ff;" horiz-adv-x="506" 
d="M20 16l44 47q-41 54 -41 131q0 116 72.5 191t177.5 75q74 0 127 -36l43 46l44 -37l-45 -48q41 -52 41 -129q0 -116 -72 -191t-178 -75q-75 0 -127 35l-42 -45zM367 500h-146l108 150h151zM171 189v-11l138 148q-17 12 -39 12q-42 0 -70.5 -44t-28.5 -105zM237 113
q42 0 70.5 44t28.5 105v9l-137 -147q16 -11 38 -11z" />
    <glyph glyph-name="Scommaaccent" unicode="&#x218;" horiz-adv-x="547" 
d="M135 -236l55 62q-46 18 -46 68q0 32 23 52.5t58 20.5q34 0 57.5 -21.5t23.5 -57.5q0 -46 -47 -95l-27 -29h-97zM554 433h-158q-5 27 -27.5 45t-58.5 18t-57 -16t-21 -43q0 -33 41 -45l111 -34q130 -39 130 -151q0 -101 -73.5 -159t-182.5 -58q-110 0 -176 51t-74 144h163
q6 -32 30.5 -49t60.5 -17q39 0 61.5 16t23.5 45q0 19 -12.5 31t-41.5 20l-100 29q-61 17 -94 52t-33 97q0 96 70.5 155.5t176.5 59.5q113 0 174.5 -52.5t66.5 -138.5z" />
    <glyph glyph-name="scommaaccent" unicode="&#x219;" horiz-adv-x="447" 
d="M66 -236l55 62q-46 18 -46 68q0 32 23 52.5t58 20.5q34 0 57.5 -21.5t23.5 -57.5q0 -46 -47 -95l-27 -29h-97zM1 140h147q2 -19 17.5 -29.5t37.5 -10.5q49 0 49 31q0 11 -7.5 17t-27.5 11l-72 20q-105 27 -105 119q0 75 59 118.5t143 43.5q95 0 143 -40t51 -108h-143
q-2 17 -15.5 27.5t-35.5 10.5q-20 0 -33 -8t-13 -23q0 -16 24 -24l84 -24q105 -31 105 -122q0 -78 -59.5 -118.5t-147.5 -40.5q-93 0 -145.5 40.5t-55.5 109.5z" />
    <glyph glyph-name="uni0237" unicode="&#x237;" horiz-adv-x="242" 
d="M-99 -158l21 119q16 -7 33 -7q41 0 49 50l79 446h157l-78 -440q-31 -179 -190 -179q-42 0 -71 11z" />
    <glyph glyph-name="circumflex" unicode="&#x2c6;" 
d="M336 649l70 -151h-113l-30 55l-50 -55h-119l123 151h119z" />
    <glyph glyph-name="caron" unicode="&#x2c7;" 
d="M164 498l-70 151h113l30 -56l50 56h119l-123 -151h-119z" />
    <glyph glyph-name="breve" unicode="&#x2d8;" 
d="M233 488q-64 0 -100.5 40.5t-23.5 109.5h108q-9 -47 26 -47q36 0 45 47h107q-13 -73 -56 -111.5t-106 -38.5z" />
    <glyph glyph-name="dotaccent" unicode="&#x2d9;" 
d="M339 579q0 -37 -26 -60.5t-63 -23.5t-63 23.5t-26 60.5q0 38 26 61.5t63 23.5t63 -23.5t26 -61.5z" />
    <glyph glyph-name="ring" unicode="&#x2da;" 
d="M247 554q15 0 26.5 11t11.5 27q0 14 -10 24t-24 10q-15 0 -26.5 -11t-11.5 -28q0 -14 10 -23.5t24 -9.5zM244 485q-44 0 -73.5 29t-29.5 71q0 45 32.5 77.5t80.5 32.5q44 0 73.5 -29.5t29.5 -71.5q0 -45 -32.5 -77t-80.5 -32z" />
    <glyph glyph-name="ogonek" unicode="&#x2db;" 
d="M244 8h96q-9 -9 -25.5 -24.5t-24 -23.5t-14.5 -19t-7 -20q0 -15 16 -15q13 0 38 15l-16 -87q-33 -19 -68 -19q-36 0 -56.5 17t-20.5 48q0 25 14.5 50.5t26.5 37.5t41 40z" />
    <glyph glyph-name="tilde" unicode="&#x2dc;" 
d="M325 647h87q-26 -150 -115 -150q-24 0 -50.5 18t-40.5 18q-24 0 -31 -33h-87q28 150 115 150q25 0 51 -18t40 -18q24 0 31 33z" />
    <glyph glyph-name="hungarumlaut" unicode="&#x2dd;" 
d="M179 500h-122l102 150h123zM340 500h-123l103 150h123z" />
    <glyph glyph-name="Wgrave" unicode="&#x1e80;" horiz-adv-x="822" 
d="M556 666h-144l-66 130h151zM420 614h122l22 -361l157 361h164l-284 -614h-146l-24 360l-168 -360h-146l-39 614h159l16 -361z" />
    <glyph glyph-name="wgrave" unicode="&#x1e81;" horiz-adv-x="692" 
d="M438 450l17 -244l122 244h149l-238 -450h-130l-18 228l-111 -228h-130l-52 450h147l21 -244l119 244h104zM456 500h-133l-61 150h138z" />
    <glyph glyph-name="Wacute" unicode="&#x1e82;" horiz-adv-x="822" 
d="M562 666h-158l105 130h164zM420 614h122l22 -361l157 361h164l-284 -614h-146l-24 360l-168 -360h-146l-39 614h159l16 -361z" />
    <glyph glyph-name="wacute" unicode="&#x1e83;" horiz-adv-x="692" 
d="M461 500h-146l108 150h151zM438 450l17 -244l122 244h149l-238 -450h-130l-18 228l-111 -228h-130l-52 450h147l21 -244l119 244h104z" />
    <glyph glyph-name="Wdieresis" unicode="&#x1e84;" horiz-adv-x="822" 
d="M330 734q0 33 22.5 56t55.5 23q32 0 55.5 -23t23.5 -56t-23.5 -56t-55.5 -23q-33 0 -55.5 23t-22.5 56zM511 734q0 33 23 56t55 23t55.5 -23t23.5 -56t-23.5 -56t-55.5 -23t-55 23t-23 56zM420 614h122l22 -361l157 361h164l-284 -614h-146l-24 360l-168 -360h-146
l-39 614h159l16 -361z" />
    <glyph glyph-name="wdieresis" unicode="&#x1e85;" horiz-adv-x="692" 
d="M238 567q0 32 22.5 54.5t54.5 22.5t54.5 -22.5t22.5 -54.5q0 -31 -22.5 -53.5t-54.5 -22.5t-54.5 22.5t-22.5 53.5zM415 567q0 32 22 54.5t54 22.5t55 -22.5t23 -54.5q0 -31 -23 -53.5t-55 -22.5q-31 0 -53.5 22.5t-22.5 53.5zM438 450l17 -244l122 244h149l-238 -450
h-130l-18 228l-111 -228h-130l-52 450h147l21 -244l119 244h104z" />
    <glyph glyph-name="Ygrave" unicode="&#x1ef2;" horiz-adv-x="612" 
d="M330 374l172 240h175l-291 -396l-38 -218h-161l38 218l-149 396h167zM451 666h-144l-66 130h151z" />
    <glyph glyph-name="ygrave" unicode="&#x1ef3;" horiz-adv-x="497" 
d="M171 -159h-157l105 176l-73 433h148l39 -258l141 258h157zM355 500h-133l-61 150h138z" />
    <glyph glyph-name="endash" unicode="&#x2013;" horiz-adv-x="466" 
d="M31 208l18 107h395l-18 -107h-395z" />
    <glyph glyph-name="emdash" unicode="&#x2014;" horiz-adv-x="837" 
d="M31 208l18 107h766l-18 -107h-766z" />
    <glyph glyph-name="quoteleft" unicode="&#x2018;" horiz-adv-x="222" 
d="M269 614l-87 -114q56 -19 56 -79q0 -39 -26.5 -64.5t-65.5 -25.5t-65.5 25.5t-26.5 70.5t42 98l70 89h103z" />
    <glyph glyph-name="quoteright" unicode="&#x2019;" horiz-adv-x="222" 
d="M42 341l87 114q-56 19 -56 79q0 39 26.5 64.5t65.5 25.5t65.5 -25.5t26.5 -70.5t-42 -98l-70 -89h-103z" />
    <glyph glyph-name="quotesinglbase" unicode="&#x201a;" horiz-adv-x="222" 
d="M-33 -113l87 114q-56 19 -56 79q0 39 26.5 64.5t65.5 25.5t65.5 -25.5t26.5 -70.5t-42 -98l-70 -89h-103z" />
    <glyph glyph-name="quotedblleft" unicode="&#x201c;" horiz-adv-x="435" 
d="M269 614l-87 -114q56 -19 56 -79q0 -39 -26.5 -64.5t-65.5 -25.5t-65.5 25.5t-26.5 70.5t42 98l70 89h103zM482 614l-87 -114q56 -19 56 -79q0 -39 -26.5 -64.5t-65.5 -25.5t-65.5 25.5t-26.5 70.5t42 98l70 89h103z" />
    <glyph glyph-name="quotedblright" unicode="&#x201d;" horiz-adv-x="435" 
d="M42 341l87 114q-56 19 -56 79q0 39 26.5 64.5t65.5 25.5t65.5 -25.5t26.5 -70.5t-42 -98l-70 -89h-103zM254 341l87 114q-56 19 -56 79q0 39 26.5 64.5t65.5 25.5t65.5 -25.5t26.5 -70.5t-42 -98l-70 -89h-103z" />
    <glyph glyph-name="quotedblbase" unicode="&#x201e;" horiz-adv-x="435" 
d="M-33 -113l87 114q-56 19 -56 79q0 39 26.5 64.5t65.5 25.5t65.5 -25.5t26.5 -70.5t-42 -98l-70 -89h-103zM179 -113l87 114q-56 19 -56 79q0 39 26.5 64.5t65.5 25.5t65.5 -25.5t26.5 -70.5t-42 -98l-70 -89h-103z" />
    <glyph glyph-name="dagger" unicode="&#x2020;" horiz-adv-x="345" 
d="M64 461l17 97h98l17 92h100l-17 -92h100l-18 -97h-99l-32 -185h-100l32 185h-98z" />
    <glyph glyph-name="daggerdbl" unicode="&#x2021;" horiz-adv-x="349" 
d="M72 496l15 87h101l12 67h96l-12 -67h102l-16 -87h-101l-12 -67h101l-15 -86h-101l-12 -67h-96l12 67h-101l15 86h101l12 67h-101z" />
    <glyph glyph-name="bullet" unicode="&#x2022;" horiz-adv-x="381" 
d="M361 261q0 -71 -48 -117.5t-117 -46.5q-71 0 -119 46.5t-48 117.5q0 73 48 120t119 47q69 0 117 -47t48 -120z" />
    <glyph glyph-name="ellipsis" unicode="&#x2026;" horiz-adv-x="699" 
d="M-2 87q0 39 27 66t65 27q39 0 66 -26.5t27 -66.5t-27 -67t-66 -27q-38 0 -65 27t-27 67zM242 87q0 40 26.5 66.5t65.5 26.5q38 0 65 -27t27 -66q0 -40 -27 -67t-65 -27q-39 0 -65.5 27t-26.5 67zM485 87q0 39 26.5 66t65.5 27t66 -26.5t27 -66.5t-27 -67t-66 -27
q-38 0 -65 27t-27 67z" />
    <glyph glyph-name="perthousand" unicode="&#x2030;" horiz-adv-x="1012" 
d="M211 624q60 0 100.5 -40.5t40.5 -99.5q0 -61 -44 -107t-107 -46q-59 0 -100 40.5t-41 99.5q0 61 44 107t107 46zM204 424q22 0 38.5 16.5t16.5 39.5q0 21 -15 36t-36 15t-38 -16.5t-17 -39.5q0 -21 15 -36t36 -15zM71 0l478 614h94l-479 -614h-93zM502 -10
q-59 0 -100 40.5t-41 99.5q0 61 44 107t108 46q59 0 99.5 -40.5t40.5 -99.5q0 -61 -44 -107t-107 -46zM509 190q-21 0 -37.5 -16t-16.5 -40q0 -21 14.5 -36t35.5 -15t38 16.5t17 39.5q0 21 -15 36t-36 15zM818 -10q-59 0 -100 40.5t-41 99.5q0 61 44 107t108 46
q59 0 99.5 -40.5t40.5 -99.5q0 -61 -44 -107t-107 -46zM825 190q-21 0 -37.5 -16t-16.5 -40q0 -21 14.5 -36t35.5 -15q22 0 38.5 16.5t16.5 39.5q0 21 -15 36t-36 15z" />
    <glyph glyph-name="guilsinglleft" unicode="&#x2039;" horiz-adv-x="278" 
d="M223 58h-134l-63 164l116 164h142l-122 -172z" />
    <glyph glyph-name="guilsinglright" unicode="&#x203a;" horiz-adv-x="278" 
d="M58 386h134l63 -164l-116 -164h-142l122 172z" />
    <glyph glyph-name="fraction" unicode="&#x2044;" horiz-adv-x="216" 
d="M408 614l-502 -614h-88l502 614h88z" />
    <glyph glyph-name="Euro" unicode="&#x20ac;" horiz-adv-x="566" 
d="M41 330l14 77h47q33 96 102.5 156.5t167.5 60.5q96 0 148.5 -55.5t56.5 -147.5h-140q-5 27 -24 45.5t-51 18.5q-69 0 -104 -78h140l-28 -77h-135q-4 -22 -6 -44h125l-29 -77h-93q15 -79 83 -79q63 0 88 63h141q-29 -93 -91 -148t-152 -55q-93 0 -152.5 59.5t-70.5 159.5
h-58l13 77h44q1 14 5 44h-41z" />
    <glyph glyph-name="uni2117" unicode="&#x2117;" horiz-adv-x="704" 
d="M684 307q0 -136 -92.5 -226.5t-224.5 -90.5t-224.5 90.5t-92.5 226.5t92.5 226.5t224.5 90.5t224.5 -90.5t92.5 -226.5zM637 307q0 116 -79 193.5t-191 77.5t-191 -77.5t-79 -193.5t79 -193.5t191 -77.5t191 77.5t79 193.5zM406 230h-64v-106h-106v369h170
q62 0 99.5 -34.5t37.5 -96.5q0 -63 -37.5 -97.5t-99.5 -34.5zM439 362q0 41 -45 41h-52v-83h52q45 0 45 42z" />
    <glyph glyph-name="trademark" unicode="&#x2122;" horiz-adv-x="610" 
d="M73 541l13 73h235l-13 -73h-77l-31 -181h-83l32 181h-76zM477 360h-48l-23 141l-24 -141h-73l45 254h94l23 -144l74 144h97l-45 -254h-73l25 141z" />
    <glyph glyph-name="uni2153" unicode="&#x2153;" horiz-adv-x="731" 
d="M521 140l14 72h21q47 0 47 35q0 23 -27 23q-14 0 -25 -10t-15 -24h-104q13 54 52.5 86.5t98.5 32.5q54 0 84 -27t30 -71q0 -28 -15 -50.5t-34 -32.5q30 -22 30 -63q0 -50 -39 -83.5t-98 -33.5t-95.5 32t-36.5 82l1 8h107v-3q0 -13 8 -22t24 -9q14 0 23.5 8t9.5 22
q0 28 -34 28h-27zM670 614l-524 -614h-96l524 614h96zM282 614l-63 -350h-102l42 233l-94 -42l18 105l125 54h74z" />
    <glyph glyph-name="uni2154" unicode="&#x2154;" horiz-adv-x="800" 
d="M56 334l152 122q40 31 40 53q0 20 -21 20q-12 0 -21.5 -9t-12.5 -19h-110q13 52 53.5 86t98.5 34q55 0 86.5 -26.5t31.5 -70.5q0 -25 -13 -49t-28.5 -38.5t-41.5 -35.5l-59 -46h113l-16 -89h-264zM590 140l13 72h22q46 0 46 35q0 23 -26 23q-31 0 -40 -34h-104
q12 54 51.5 86.5t98.5 32.5q54 0 84 -27t30 -71q0 -28 -14.5 -50.5t-34.5 -32.5q30 -21 30 -63q0 -50 -39 -83.5t-97 -33.5q-59 0 -95.5 32t-36.5 82l1 8h107v-3q0 -31 32 -31q14 0 23.5 8t9.5 22q0 28 -35 28h-26zM739 614l-524 -614h-97l524 614h97z" />
    <glyph glyph-name="uni215B" unicode="&#x215b;" horiz-adv-x="740" 
d="M670 614l-524 -614h-96l524 614h96zM282 614l-63 -350h-102l42 233l-94 -42l18 105l125 54h74zM513 104q0 -13 10 -21.5t26 -8.5q17 0 29 9.5t12 25.5q0 13 -10 21t-26 8q-18 0 -29.5 -9.5t-11.5 -24.5zM548 -5q-54 0 -94 25t-40 74q0 31 17.5 54t46.5 34q-31 20 -31 61
q0 54 39.5 83.5t94.5 29.5q50 0 84.5 -26.5t34.5 -70.5q0 -63 -53 -89q40 -22 40 -67q0 -51 -41 -79.5t-98 -28.5zM607 251q0 27 -32 27q-16 0 -27 -9t-11 -24q0 -12 9 -19.5t23 -7.5q16 0 27 9t11 24z" />
    <glyph glyph-name="uni215C" unicode="&#x215c;" horiz-adv-x="778" 
d="M586 -5q-54 0 -94 25t-40 74q0 31 17.5 54t46.5 34q-31 20 -31 61q0 54 39.5 83.5t94.5 29.5q50 0 84.5 -26.5t34.5 -70.5q0 -63 -53 -89q40 -22 40 -67q0 -51 -40.5 -79.5t-98.5 -28.5zM158 404l14 72h21q47 0 47 35q0 23 -27 23q-14 0 -25 -10t-15 -24h-104
q13 54 52.5 86.5t98.5 32.5q54 0 84 -27t30 -71q0 -28 -15 -50.5t-34 -32.5q30 -22 30 -63q0 -51 -39 -84t-98 -33t-95.5 32t-36.5 82l1 8h107v-3q0 -13 8 -22t24 -9q14 0 23.5 8t9.5 22q0 28 -34 28h-27zM708 614l-524 -614h-97l524 614h97zM551 104q0 -13 10 -21.5
t26 -8.5q17 0 29 9.5t12 25.5q0 13 -10 21t-26 8q-18 0 -29.5 -9.5t-11.5 -24.5zM645 251q0 27 -32 27q-16 0 -27 -9t-11 -24q0 -12 9 -19.5t23 -7.5q16 0 27 9t11 24z" />
    <glyph glyph-name="uni215D" unicode="&#x215d;" horiz-adv-x="778" 
d="M579 -5q-54 0 -93.5 25t-39.5 74q0 31 17.5 54t45.5 34q-30 20 -30 61q0 54 39.5 83.5t93.5 29.5q51 0 85.5 -26.5t34.5 -70.5q0 -62 -54 -89q41 -22 41 -67q0 -51 -41 -79.5t-99 -28.5zM176 258q-61 0 -96 30t-35 77l1 9h106v-3q0 -28 32 -28q17 0 28.5 11.5t11.5 28.5
q0 32 -34 32q-18 0 -34 -13h-88l38 212h224l-16 -85h-139l-8 -43q20 9 45 9q48 0 76.5 -27.5t28.5 -72.5q0 -61 -39.5 -99t-101.5 -38zM708 614l-525 -614h-96l524 614h97zM544 104q0 -13 10 -21.5t26 -8.5q18 0 29.5 9.5t11.5 25.5q0 13 -10 21t-26 8q-17 0 -29 -9.5
t-12 -24.5zM638 251q0 27 -31 27q-16 0 -27 -9t-11 -24q0 -27 31 -27q17 0 27.5 9t10.5 24z" />
    <glyph glyph-name="uni215E" unicode="&#x215e;" horiz-adv-x="716" 
d="M645 614l-524 -614h-96l524 614h96zM338 544l-162 -280h-108l151 260h-138l16 90h253zM482 104q0 -13 10 -21.5t26 -8.5q17 0 29 9.5t12 25.5q0 13 -10 21t-26 8q-17 0 -29 -9.5t-12 -24.5zM517 -5q-54 0 -93.5 25t-39.5 74q0 64 63 88q-30 20 -30 61q0 54 39.5 83.5
t93.5 29.5q51 0 85.5 -26.5t34.5 -70.5q0 -62 -54 -89q40 -22 40 -67q0 -51 -40.5 -79.5t-98.5 -28.5zM576 251q0 27 -32 27q-16 0 -26.5 -9t-10.5 -24q0 -27 31 -27q16 0 27 9t11 24z" />
    <glyph glyph-name="minus" unicode="&#x2212;" horiz-adv-x="556" 
d="M54 241l21 116h453l-20 -116h-454z" />
    <glyph glyph-name="approxequal" unicode="&#x2248;" horiz-adv-x="574" 
d="M76 311l19 109q70 40 129 40q38 0 99 -19.5t100 -19.5q64 0 132 41l-19 -109q-71 -41 -131 -41q-39 0 -100 20t-100 20q-60 0 -129 -41zM46 139l19 107q69 42 128 42q39 0 100 -20.5t100 -20.5q61 0 132 42l-19 -109q-70 -40 -133 -40q-39 0 -99 19.5t-99 19.5
q-59 0 -129 -40z" />
    <glyph glyph-name="notequal" unicode="&#x2260;" horiz-adv-x="574" 
d="M81 340l18 104h270l76 93h96l-76 -93h87l-18 -104h-154l-64 -79h205l-19 -103h-270l-76 -93h-96l76 93h-87l19 103h152l64 79h-203z" />
    <glyph glyph-name="lessequal" unicode="&#x2264;" horiz-adv-x="442" 
d="M62 298l24 139l368 122l-24 -129l-245 -67l221 -70l-20 -116zM17 42l19 112h346l-20 -112h-345z" />
    <glyph glyph-name="greaterequal" unicode="&#x2265;" horiz-adv-x="442" 
d="M382 154l-20 -112h-345l19 112h346zM432 437l-25 -138l-367 -122l24 128l245 68l-221 69l20 117z" />
    <glyph glyph-name="fi" unicode="&#xfb01;" horiz-adv-x="580" 
d="M578 450l-79 -450h-157l79 450h157zM610 576q0 -40 -26.5 -64t-64.5 -24q-37 0 -62 22.5t-25 58.5q0 39 27 63.5t64 24.5t62 -22.5t25 -58.5zM404 647l-23 -128q-13 9 -35 9q-57 0 -66 -54l-4 -24h87l-22 -122h-87l-57 -328h-155l57 328h-67l22 122h67l6 33
q14 85 67 130.5t139 45.5q40 0 71 -12z" />
    <glyph glyph-name="fl" unicode="&#xfb02;" horiz-adv-x="580" 
d="M613 650l-114 -650h-157l114 650h157zM404 647l-23 -128q-13 9 -35 9q-57 0 -66 -54l-4 -24h87l-22 -122h-87l-57 -328h-155l57 328h-67l22 122h67l6 33q14 85 67 130.5t139 45.5q40 0 71 -12z" />
    <glyph glyph-name="i.dot" horiz-adv-x="242" 
d="M240 450l-79 -450h-157l79 450h157zM274 579q0 -37 -26 -60.5t-63 -23.5t-63 23.5t-26 60.5q0 38 26 61.5t63 23.5t63 -23.5t26 -61.5z" />
    <glyph glyph-name="space_uni0326" 
d="M167 -236l55 62q-46 18 -46 68q0 32 23 52.5t58 20.5q34 0 57.5 -21.5t23.5 -57.5q0 -46 -47 -95l-27 -29h-97z" />
    <glyph glyph-name="space_uni0326.alt" 
d="M338 696l-59 -67q45 -18 45 -67q0 -32 -22.5 -53t-57.5 -21q-34 0 -57.5 21.5t-23.5 57.5q0 46 47 95l31 34h97z" />
    <glyph glyph-name="space_dotbelowcomb" 
d="M337 -114q0 -37 -25.5 -60t-61.5 -23t-61.5 23t-25.5 60q0 36 25.5 58.5t61.5 22.5t61.5 -22.5t25.5 -58.5z" />
    <glyph glyph-name="caron.Slovak" 
d="M273 483h-122l77 167h123z" />
    <glyph glyph-name="cedilla.alt" 
d="M269 -181h-135l94 141h136z" />
    <glyph glyph-name="grave.cap" 
d="M358 666h-144l-66 130h151z" />
    <glyph glyph-name="acute.cap" 
d="M275 666h-158l105 130h164z" />
    <glyph glyph-name="circumflex.cap" 
d="M334 798l84 -132h-122l-34 45l-50 -45h-130l132 132h120z" />
    <glyph glyph-name="caron.cap" 
d="M166 663l-84 133h122l34 -46l50 46h130l-132 -133h-120z" />
    <glyph glyph-name="tilde.cap" 
d="M331 810h86q-11 -66 -39 -108t-75 -42q-24 0 -56.5 18t-46.5 18q-26 0 -31 -33h-87q26 150 114 150q25 0 57 -18t46 -18q25 0 32 33z" />
    <glyph glyph-name="macron.cap" 
d="M107 666l19 108h266l-19 -108h-266z" />
    <glyph glyph-name="breve.cap" 
d="M233 658q-65 0 -101.5 39t-23.5 107h108q-8 -42 28 -42t44 42h108q-13 -71 -55.5 -108.5t-107.5 -37.5z" />
    <glyph glyph-name="dotaccent.cap" 
d="M339 743q0 -38 -26 -61.5t-63 -23.5t-63 23.5t-26 61.5q0 37 26 60.5t63 23.5t63 -23.5t26 -60.5z" />
    <glyph glyph-name="dieresis.cap" 
d="M81 734q0 33 22.5 56t55.5 23q32 0 55.5 -23t23.5 -56t-23.5 -56t-55.5 -23q-33 0 -55.5 23t-22.5 56zM262 734q0 33 23 56t55 23t55.5 -23t23.5 -56t-23.5 -56t-55.5 -23t-55 23t-23 56z" />
    <glyph glyph-name="ring.cap" 
d="M247 711q15 0 26.5 11t11.5 28q0 14 -9.5 23.5t-24.5 9.5t-26 -10.5t-11 -27.5q0 -14 9.5 -24t23.5 -10zM245 642q-44 0 -74 29.5t-30 71.5q0 45 33 77t80 32q44 0 74 -29t30 -71q0 -45 -33 -77.5t-80 -32.5z" />
    <glyph glyph-name="hungarumlaut.cap" 
d="M181 666h-133l99 130h133zM352 666h-132l99 130h133z" />
    <glyph glyph-name="exclamdown.cap" horiz-adv-x="239" 
d="M217 408l-40 -408h-190l109 408h121zM267 532q0 -37 -27 -62.5t-66 -25.5t-66 25.5t-27 62.5q0 38 27 63.5t66 25.5t66 -25.5t27 -63.5z" />
    <glyph glyph-name="questiondown.cap" horiz-adv-x="475" 
d="M226 134q28 0 47.5 17.5t25.5 43.5h166q-27 -91 -95.5 -148t-168.5 -57q-86 0 -137 42.5t-51 114.5q0 23 6 45t11.5 35.5t23.5 35t23.5 27.5t31 30t28.5 27q38 34 43 61h155q-13 -59 -62 -107q-8 -8 -26 -24.5t-26.5 -25t-19.5 -22t-15.5 -25.5t-5.5 -25
q0 -20 12.5 -32.5t33.5 -12.5zM368 532q0 -38 -27 -63t-66 -25q-41 0 -68 25t-27 63t27 63.5t68 25.5q39 0 66 -25.5t27 -63.5z" />
    <glyph glyph-name="guilsinglleft.cap" horiz-adv-x="278" 
d="M244 138h-134l-63 164l116 164h143l-122 -172z" />
    <glyph glyph-name="guilsinglright.cap" horiz-adv-x="278" 
d="M75 466h134l63 -164l-116 -164h-143l122 172z" />
    <glyph glyph-name="guillemotleft.cap" horiz-adv-x="451" 
d="M237 138h-127l-63 164l121 164h130l-121 -170zM419 138h-129l-61 158l120 170h130l-122 -172z" />
    <glyph glyph-name="guillemotright.cap" horiz-adv-x="451" 
d="M255 466h127l63 -164l-121 -164h-129l121 170zM73 466h129l62 -158l-121 -170h-130l122 172z" />
    <glyph glyph-name="slash.cap" horiz-adv-x="394" 
d="M-50 -64l376 734h144l-377 -734h-143z" />
    <glyph glyph-name="backslash.cap" horiz-adv-x="394" 
d="M222 670l119 -734h-126l-119 734h126z" />
    <glyph glyph-name="bar.cap" horiz-adv-x="223" 
d="M-3 -64l129 734h130l-129 -734h-130z" />
    <glyph glyph-name="periodcentered.cap" horiz-adv-x="233" 
d="M36 295q0 39 27 66t65 27q39 0 66 -26.5t27 -66.5t-27 -67t-66 -27q-38 0 -65 27t-27 67z" />
    <glyph glyph-name="bullet.cap" horiz-adv-x="381" 
d="M367 295q0 -72 -48 -118t-118 -46t-118 46t-48 118q0 73 48 120t118 47t118 -47t48 -120z" />
    <glyph glyph-name="hyphen.cap" horiz-adv-x="312" 
d="M36 230l23 131h241l-23 -131h-241z" />
    <glyph glyph-name="endash.cap" horiz-adv-x="466" 
d="M36 242l19 106h395l-19 -106h-395z" />
    <glyph glyph-name="emdash.cap" horiz-adv-x="837" 
d="M36 242l19 106h766l-19 -106h-766z" />
    <glyph glyph-name="parenleft.cap" horiz-adv-x="334" 
d="M41 248q0 158 96 275.5t259 146.5l-26 -147q-80 -26 -132.5 -97.5t-52.5 -177.5q0 -127 108 -165l-26 -147q-108 29 -167 109.5t-59 202.5z" />
    <glyph glyph-name="parenright.cap" horiz-adv-x="334" 
d="M325 358q0 -158 -96 -275.5t-259 -146.5l26 147q81 26 133 97.5t52 177.5q0 127 -108 165l26 147q108 -29 167 -109t59 -203z" />
    <glyph glyph-name="bracketleft.cap" horiz-adv-x="331" 
d="M252 540l-83 -474h119l-22 -130h-266l129 734h266l-23 -130h-120z" />
    <glyph glyph-name="bracketright.cap" horiz-adv-x="331" 
d="M112 66l84 474h-120l23 130h266l-129 -734h-266l23 130h119z" />
    <glyph glyph-name="braceleft.cap" horiz-adv-x="366" 
d="M240 220l-22 -125q-6 -29 24 -29h81l-23 -130h-124q-59 0 -87.5 35.5t-18.5 94.5l25 143q5 29 -24 29h-44l23 130h44q29 0 34 29l25 143q10 58 52.5 94t99.5 36h124l-23 -130h-81q-29 0 -34 -29l-22 -125q-10 -55 -62 -84q43 -29 33 -82z" />
    <glyph glyph-name="braceright.cap" horiz-adv-x="366" 
d="M160 386l22 125q6 29 -24 29h-82l23 130h125q58 0 87 -35.5t19 -94.5l-25 -143q-5 -29 24 -29h44l-24 -130h-43q-29 0 -34 -29l-25 -143q-10 -58 -52.5 -94t-99.5 -36h-125l23 130h82q29 0 34 29l22 125q10 55 62 84q-43 29 -33 82z" />
    <glyph glyph-name="at.cap" horiz-adv-x="759" 
d="M606 483l-56 -243q-11 -41 24 -41q46 0 76 48t30 132q0 98 -68.5 153.5t-177.5 55.5q-139 0 -228 -92t-89 -237q0 -68 26 -118.5t69 -77t89.5 -39t97.5 -12.5q123 0 240 53l-14 -81q-96 -46 -226 -46q-73 0 -137 19t-116 56.5t-82 100.5t-30 144q0 169 114 287t289 118
q143 0 232.5 -79.5t89.5 -202.5q0 -124 -65 -192t-158 -68q-78 0 -113 50q-36 -48 -103 -48q-60 0 -93.5 39t-33.5 100q0 92 56 160.5t141 68.5q28 0 51 -10.5t32 -25.5l8 28h125zM428 265l21 86q-9 31 -46 31q-33 0 -56.5 -29.5t-23.5 -70.5q0 -50 48 -50q35 0 57 33z" />
    <glyph glyph-name="Euro.lt" horiz-adv-x="520" 
d="M47 330l13 77h39q33 96 97 156.5t151 60.5q85 0 131.5 -55.5t49.5 -147.5h-132q-10 64 -62 64q-53 0 -88 -78h118l-28 -77h-114q-4 -22 -6 -44h107l-30 -77h-77q13 -79 69 -79q54 0 77 63h134q-28 -93 -86 -148t-141 -55t-135 60t-60 159h-48l13 77h35q2 22 6 44h-33z
" />
    <glyph glyph-name="dollar.lt" horiz-adv-x="520" 
d="M-1 192h157q4 -31 27.5 -48t57.5 -17q37 0 58.5 15.5t22.5 43.5q0 33 -53 47l-96 28q-59 17 -91.5 50t-32.5 93q0 84 58.5 140t149.5 64l16 89h128l-18 -101q62 -20 94.5 -64t36.5 -105h-148q-5 26 -26.5 43t-55.5 17t-55 -15t-21 -41q0 -30 42 -43l106 -32
q126 -37 126 -145q0 -86 -57 -140t-146 -66l-16 -91h-128l18 98q-70 17 -110.5 63.5t-43.5 116.5z" />
    <glyph glyph-name="cent.lt" horiz-adv-x="520" 
d="M34 202q0 100 58 175.5t153 89.5l17 93h128l-19 -105q107 -40 107 -165h-150q-2 50 -50 50q-42 0 -65.5 -41.5t-23.5 -92.5q0 -35 15.5 -55t43.5 -20q48 0 63 49h151q-32 -148 -169 -175l-16 -90h-128l17 95q-63 19 -97.5 70t-34.5 122z" />
    <glyph glyph-name="sterling.lt" horiz-adv-x="520" 
d="M290 422l-11 -59h112l-20 -119h-113l-4 -23q-11 -64 -37 -91h263l-22 -130h-456l22 130h45q26 35 36 91l4 23h-64l20 119h64l10 54q17 94 73 150.5t149 56.5q87 0 132.5 -50t42.5 -130h-139q0 50 -43 50q-51 0 -64 -72z" />
    <glyph glyph-name="yen.lt" horiz-adv-x="520" 
d="M13 104l17 92h138l8 48h-139l17 92h96l-79 278h155l56 -218l130 218h159l-180 -278h96l-16 -92h-139l-8 -48h139l-16 -92h-139l-18 -104h-156l18 104h-139z" />
    <glyph glyph-name="florin.lt" horiz-adv-x="520" 
d="M113 234l22 122h81l31 101q23 81 74.5 124t127.5 43q49 0 81 -13l-23 -127q-22 9 -42 9q-47 0 -63 -53l-26 -84h77l-22 -122h-91l-70 -234q-49 -166 -198 -166q-49 0 -81 13l20 120q20 -10 42 -10q24 0 38 12.5t22 41.5l67 223h-67z" />
    <glyph glyph-name="zero.lt" horiz-adv-x="520" 
d="M242 130q37 0 65 42.5t40.5 98.5t12.5 112q0 101 -64 101q-37 0 -65 -42t-40.5 -98.5t-12.5 -112.5q0 -101 64 -101zM234 -10q-100 0 -154 67.5t-54 178.5q0 165 79.5 276.5t198.5 111.5q101 0 154.5 -67.5t53.5 -178.5q0 -165 -79.5 -276.5t-198.5 -111.5z" />
    <glyph glyph-name="one.lt" horiz-adv-x="520" 
d="M21 0l24 138h148l53 302l-156 -71l28 153l207 92h108l-84 -476h126l-24 -138h-430z" />
    <glyph glyph-name="two.lt" horiz-adv-x="520" 
d="M11 107l255 215q25 21 38 34t28 35.5t15 42.5q0 44 -48 44q-53 0 -68 -59h-167q24 90 91.5 147.5t164.5 57.5q91 0 142.5 -44t51.5 -119q0 -36 -10 -66t-34 -58.5t-43.5 -47.5t-58.5 -51l-118 -100h212l-24 -138h-445z" />
    <glyph glyph-name="three.lt" horiz-adv-x="520" 
d="M214 253l21 115h35q39 0 65 18t26 54q0 22 -14 36t-40 14q-29 0 -50 -19t-30 -49h-162q23 91 90 146.5t165 55.5q91 0 141 -46t50 -120q0 -51 -28 -92t-67 -59q59 -38 59 -114q0 -87 -67 -145t-166 -58q-101 0 -161 52.5t-60 137.5l1 17h159v-5q0 -31 17.5 -49t49.5 -18
q33 0 55.5 19.5t22.5 51.5q0 27 -19 42t-52 15h-41z" />
    <glyph glyph-name="four.lt" horiz-adv-x="520" 
d="M430 614l-236 -370h94l19 104h138l-19 -104h82l-23 -130h-82l-19 -114h-139l20 114h-263l21 121l245 379h162z" />
    <glyph glyph-name="five.lt" horiz-adv-x="520" 
d="M242 -10q-101 0 -160 53t-59 137l1 17h158v-5q0 -30 18 -48.5t51 -18.5q37 0 61 24.5t24 62.5q0 31 -18 49t-50 18q-40 0 -72 -32h-135l66 367h384l-25 -137h-253l-16 -92q42 22 88 22q83 0 131.5 -49t48.5 -129q0 -104 -68 -171.5t-175 -67.5z" />
    <glyph glyph-name="six.lt" horiz-adv-x="520" 
d="M525 443h-150q-4 20 -19.5 34t-40.5 14q-46 0 -80 -39t-45 -94h2q18 19 49 32t63 13q85 0 136.5 -51t51.5 -125q0 -99 -69 -168t-171 -69q-111 0 -166 71.5t-55 182.5q0 52 11.5 105t36 102.5t59 88t83 61.5t104.5 23q90 0 142 -49.5t58 -131.5zM178 193
q0 -33 19.5 -53.5t55.5 -20.5q38 0 65 26.5t27 66.5q0 32 -19 53t-55 21q-38 0 -65.5 -26.5t-27.5 -66.5z" />
    <glyph glyph-name="seven.lt" horiz-adv-x="520" 
d="M504 506l-275 -506h-169l262 476h-273l24 138h450z" />
    <glyph glyph-name="eight.lt" horiz-adv-x="520" 
d="M173 175q0 -28 20 -44.5t53 -17.5q35 0 60 20t25 55q0 28 -20.5 45t-52.5 17q-35 0 -60 -20t-25 -55zM242 -10q-56 0 -105 17t-83.5 57t-34.5 96q0 60 35 103t88 58q-60 34 -60 111q0 89 65.5 140.5t157.5 51.5q86 0 144.5 -44.5t58.5 -119.5q0 -53 -28.5 -95.5
t-75.5 -61.5q34 -17 56 -49t22 -73q0 -90 -70.5 -140.5t-169.5 -50.5zM365 448q0 25 -18.5 41t-46.5 16q-33 0 -55 -19t-22 -52q0 -25 18 -41t46 -16q33 0 55.5 19t22.5 52z" />
    <glyph glyph-name="nine.lt" horiz-adv-x="520" 
d="M13 171h150q4 -20 19.5 -34t40.5 -14q46 0 80 39t45 94h-2q-18 -19 -49 -32t-63 -13q-85 0 -136.5 51t-51.5 125q0 99 69 168t171 69q111 0 166 -71.5t55 -182.5q0 -52 -11.5 -105t-36 -102.5t-59 -88t-83 -61.5t-104.5 -23q-90 0 -142 49.5t-58 131.5zM360 421
q0 33 -19.5 53.5t-55.5 20.5q-38 0 -65 -26.5t-27 -66.5q0 -32 19 -53t55 -21q38 0 65.5 26.5t27.5 66.5z" />
    <glyph glyph-name="period.tab" horiz-adv-x="260" 
d="M9 87q0 39 26.5 66t65.5 27t66 -26.5t27 -66.5t-27 -67t-66 -27q-38 0 -65 27t-27 67z" />
    <glyph glyph-name="comma.tab" horiz-adv-x="260" 
d="M-14 -105l88 116q-56 17 -56 79q0 39 26.5 64t65.5 25t65.5 -25.5t26.5 -70.5q0 -43 -42 -98l-71 -90h-103z" />
    <glyph glyph-name="colon.tab" horiz-adv-x="260" 
d="M9 87q0 39 26.5 66t65.5 27t66 -26.5t27 -66.5t-27 -67t-66 -27q-38 0 -65 27t-27 67zM57 352q0 40 26.5 66.5t65.5 26.5t66 -26.5t27 -66.5t-27 -67t-66 -27q-38 0 -65 27t-27 67z" />
    <glyph glyph-name="semicolon.tab" horiz-adv-x="260" 
d="M-14 -105l88 116q-56 17 -56 79q0 39 26.5 64t65.5 25t65.5 -25.5t26.5 -70.5q0 -43 -42 -98l-71 -90h-103zM57 352q0 40 26.5 66.5t65.5 26.5t66 -26.5t27 -66.5t-27 -67t-66 -27q-38 0 -65 27t-27 67z" />
    <glyph glyph-name="space.tab" horiz-adv-x="260" 
 />
    <glyph glyph-name="percent.lt" horiz-adv-x="520" 
d="M180 624q49 0 83 -34t34 -84q0 -52 -36.5 -90t-90.5 -38q-49 0 -83 34t-34 83q0 52 36.5 90.5t90.5 38.5zM173 456q18 0 32 13.5t14 33.5q0 18 -12 30.5t-30 12.5t-32 -13.5t-14 -33.5q0 -18 12 -30.5t30 -12.5zM348 -10q-49 0 -83 34t-34 84q0 52 36.5 90t90.5 38
q49 0 83 -34t34 -83q0 -52 -36.5 -90.5t-90.5 -38.5zM355 158q-18 0 -32 -13.5t-14 -33.5q0 -18 12 -30.5t30 -12.5t32 13.5t14 33.5q0 18 -12 30.5t-30 12.5zM550 614l-478 -614h-94l478 614h94z" />
    <glyph glyph-name="perthousand.lt" horiz-adv-x="800" 
d="M196 624q50 0 84 -34t34 -84q0 -51 -36.5 -89.5t-90.5 -38.5q-49 0 -83.5 34t-34.5 83q0 51 37 90t90 39zM190 456q18 0 32 13.5t14 33.5q0 18 -12.5 30.5t-30.5 12.5t-32 -13.5t-14 -33.5q0 -18 12.5 -30.5t30.5 -12.5zM365 -10q-49 0 -83.5 34t-34.5 84q0 51 36.5 89.5
t90.5 38.5q50 0 84 -34t34 -83q0 -51 -37 -90t-90 -39zM371 158q-18 0 -32 -13.5t-14 -33.5q0 -18 12.5 -30.5t30.5 -12.5t32 13.5t14 33.5q0 18 -12.5 30.5t-30.5 12.5zM567 614l-479 -614h-93l478 614h94zM633 -10q-49 0 -83 34t-34 84q0 52 36.5 90t90.5 38q49 0 83 -34
t34 -83q0 -52 -36.5 -90.5t-90.5 -38.5zM640 158q-18 0 -32 -13.5t-14 -33.5q0 -18 12 -30.5t30 -12.5t32 13.5t14 33.5q0 18 -12 30.5t-30 12.5z" />
    <glyph glyph-name="plus.lt" horiz-adv-x="520" 
d="M248 526h116l-30 -169h169l-21 -116h-169l-29 -168h-116l29 168h-168l20 116h169z" />
    <glyph glyph-name="minus.lt" horiz-adv-x="520" 
d="M29 241l20 116h454l-21 -116h-453z" />
    <glyph glyph-name="multiply.lt" horiz-adv-x="520" 
d="M188 301l-100 120l91 78l99 -120l142 120l67 -81l-142 -120l99 -121l-91 -77l-99 120l-142 -121l-67 81z" />
    <glyph glyph-name="divide.lt" horiz-adv-x="520" 
d="M29 241l20 116h454l-21 -116h-453zM218 479q0 33 23.5 56t56.5 23q34 0 58 -23t24 -56t-24 -56t-58 -23q-33 0 -56.5 23t-23.5 56zM155 119q0 33 23.5 56t56.5 23q34 0 57.5 -23t23.5 -56t-23.5 -56t-57.5 -23q-33 0 -56.5 23t-23.5 56z" />
    <glyph glyph-name="equal.lt" horiz-adv-x="520" 
d="M15 158l18 103h453l-19 -103h-452zM47 340l18 105h453l-18 -105h-453z" />
    <glyph glyph-name="less.lt" horiz-adv-x="520" 
d="M68 225l25 144l372 153l-23 -133l-253 -96l219 -95l-22 -126z" />
    <glyph glyph-name="greater.lt" horiz-adv-x="520" 
d="M465 369l-26 -144l-371 -153l22 133l253 96l-219 95l22 126z" />
    <glyph glyph-name="plusminus.lt" horiz-adv-x="520" 
d="M270 561h106l-23 -128h165l-18 -104h-166l-23 -128h-105l23 128h-165l19 104h164zM14 48l19 105h436l-19 -105h-436z" />
    <glyph glyph-name="lessequal.lt" horiz-adv-x="520" 
d="M92 298l25 139l367 122l-24 -129l-245 -67l221 -70l-20 -116zM47 42l20 112h345l-19 -112h-346z" />
    <glyph glyph-name="greaterequal.lt" horiz-adv-x="520" 
d="M424 154l-20 -112h-345l19 112h346zM474 437l-25 -138l-367 -122l24 128l245 68l-221 69l20 117z" />
    <glyph glyph-name="notequal.lt" horiz-adv-x="520" 
d="M47 340l18 104h269l76 93h96l-76 -93h88l-18 -104h-154l-65 -79h205l-19 -103h-270l-75 -93h-96l75 93h-86l18 103h152l65 79h-203z" />
    <glyph glyph-name="approxequal.lt" horiz-adv-x="520" 
d="M42 311l20 109q69 40 128 40q38 0 99 -19.5t100 -19.5q64 0 132 41l-19 -109q-71 -41 -131 -41q-39 0 -100 20t-100 20q-60 0 -129 -41zM12 139l19 107q69 42 128 42q39 0 100 -20.5t100 -20.5q61 0 132 42l-19 -109q-70 -40 -133 -40q-39 0 -99.5 19.5t-98.5 19.5
q-59 0 -129 -40z" />
    </font>
</defs>
</svg>
