<?xml version="1.0" standalone="no"?>
<!DOCTYPE svg PUBLIC "-//W3C//DTD SVG 1.1//EN" "http://www.w3.org/Graphics/SVG/1.1/DTD/svg11.dtd" >
<svg xmlns="http://www.w3.org/2000/svg" xmlns:xlink="http://www.w3.org/1999/xlink" version="1.1">
<metadata>
Created by FontForge 20150824 at Mon May  9 02:38:34 2016
 By Everything Fonts
(c) 2011 Klim Type Foundry. All rights reserved.
</metadata>
<defs>
<font id="calibreregularitalic" horiz-adv-x="500" >
  <font-face 
    font-family="calibreregularitalic"
    font-weight="400"
    font-style="italic"
    font-stretch="normal"
    units-per-em="1000"
    panose-1="2 11 5 3 3 2 2 13 2 3"
    ascent="650"
    descent="-350"
    x-height="444"
    cap-height="614"
    bbox="-188 -201 893 893"
    underline-thickness="30"
    underline-position="-100"
    slope="-10"
    unicode-range="U+0020-FB02"
  />
<missing-glyph horiz-adv-x="608" 
 />
    <glyph glyph-name="f_f" unicode="ff" horiz-adv-x="550" 
d="M626 649l-12 -67q-19 11 -43 11q-75 0 -89 -81l-12 -68h101l-12 -64h-100l-67 -380h-74l66 380h-186l-67 -380h-74l66 380h-74l11 64h75l12 68q12 66 55.5 103.5t103.5 37.5q37 0 58 -10l-12 -67q-19 11 -43 11q-74 0 -89 -81l-11 -62h187l13 74q11 66 55 103.5t104 37.5
q35 0 58 -10z" />
    <glyph glyph-name=".notdef" horiz-adv-x="608" 
 />
    <glyph glyph-name=".null" horiz-adv-x="0" 
 />
    <glyph glyph-name="nonmarkingreturn" horiz-adv-x="333" 
 />
    <glyph glyph-name="space" unicode=" " horiz-adv-x="221" 
 />
    <glyph glyph-name="exclam" unicode="!" horiz-adv-x="203" 
d="M74 193l58 421h90l-94 -421h-54zM25 49q0 23 15.5 39t37.5 16q23 0 38.5 -16t15.5 -39t-15.5 -38.5t-38.5 -15.5q-22 0 -37.5 15.5t-15.5 38.5z" />
    <glyph glyph-name="quotedbl" unicode="&#x22;" horiz-adv-x="265" 
d="M68 395l39 219h66l-39 -219h-66zM187 395l39 219h66l-39 -219h-66z" />
    <glyph glyph-name="numbersign" unicode="#" horiz-adv-x="589" 
d="M533 235l-12 -59h-117l-53 -176h-67l53 176h-135l-53 -176h-66l53 176h-91l13 59h96l44 144h-111l11 59h118l53 176h67l-54 -176h135l54 176h66l-53 -176h90l-12 -59h-96l-44 -144h111zM264 379l-44 -144h135l44 144h-135z" />
    <glyph glyph-name="dollar" unicode="$" horiz-adv-x="472" 
d="M16 174h74q8 -50 45 -75t91 -25q61 0 99.5 29.5t38.5 84.5q0 54 -77 76l-98 30q-116 34 -116 133q0 78 57.5 128.5t145.5 50.5l17 93h69l-18 -101q59 -15 92.5 -54.5t38.5 -97.5h-72q-6 43 -39 69t-88 26q-56 0 -93 -28.5t-37 -77.5q0 -53 77 -77l96 -28
q118 -36 118 -135q0 -81 -56.5 -131.5t-140.5 -55.5l-17 -97h-69l18 101q-67 12 -108.5 53.5t-47.5 108.5z" />
    <glyph glyph-name="percent" unicode="%" horiz-adv-x="649" 
d="M205 623q54 0 90.5 -36.5t36.5 -89.5q0 -56 -40 -98t-98 -42q-53 0 -90 37t-37 90q0 56 39.5 97.5t98.5 41.5zM197 417q31 0 53.5 22.5t22.5 55.5q0 28 -21 48.5t-50 20.5q-30 0 -52.5 -22.5t-22.5 -55.5q0 -29 20.5 -49t49.5 -20zM54 0l487 614h67l-487 -614h-67z
M457 -9q-54 0 -90.5 36.5t-36.5 89.5q0 56 40 98t98 42q54 0 90.5 -37t36.5 -90q0 -56 -39.5 -97.5t-98.5 -41.5zM465 197q-31 0 -53.5 -22.5t-22.5 -55.5q0 -28 21 -48.5t50 -20.5q30 0 52.5 22.5t22.5 55.5q0 29 -20.5 49t-49.5 20z" />
    <glyph glyph-name="ampersand" unicode="&#x26;" horiz-adv-x="565" 
d="M320 561q-47 0 -76.5 -29t-29.5 -78q0 -42 45 -99l143 -187q36 55 51 130h70q-20 -103 -81 -182l89 -116h-89l-49 63q-82 -72 -182 -72q-86 0 -135.5 45.5t-49.5 121.5q0 64 40.5 114t107.5 75q-34 52 -34 104q0 76 52.5 124t127.5 48q76 0 117 -41t43 -111h-74
q-2 42 -24.5 66t-61.5 24zM211 54q83 0 145 57l-143 184q-50 -12 -81.5 -49.5t-31.5 -87.5q0 -47 31 -75.5t80 -28.5z" />
    <glyph glyph-name="quotesingle" unicode="'" horiz-adv-x="148" 
d="M68 395l39 219h69l-40 -219h-68z" />
    <glyph glyph-name="parenleft" unicode="(" horiz-adv-x="321" 
d="M32 216q0 157 91.5 274t248.5 160l-14 -81q-109 -31 -179.5 -127.5t-70.5 -225.5q0 -86 40 -143t110 -77l-15 -80q-99 31 -155 108.5t-56 191.5z" />
    <glyph glyph-name="parenright" unicode=")" horiz-adv-x="321" 
d="M312 350q0 -157 -91.5 -274t-248.5 -160l14 81q109 31 179.5 127.5t70.5 225.5q0 86 -40 143t-110 77l15 80q99 -31 155 -108.5t56 -191.5z" />
    <glyph glyph-name="asterisk" unicode="*" horiz-adv-x="332" 
d="M211 360l-44 7l18 104l-98 -36l-15 41l98 36l-81 68l28 33l80 -66l18 102l44 -7l-17 -103l97 35l16 -41l-99 -36l82 -68l-29 -33l-80 67z" />
    <glyph glyph-name="plus" unicode="+" horiz-adv-x="540" 
d="M285 494h63l-29 -166h166l-11 -62h-166l-29 -166h-63l29 166h-166l11 62h166z" />
    <glyph glyph-name="comma" unicode="," horiz-adv-x="171" 
d="M-39 -107l82 107q-36 10 -36 49q0 23 15 38t38 15t38 -15t15 -41q0 -28 -27 -63l-69 -90h-56z" />
    <glyph glyph-name="hyphen" unicode="-" horiz-adv-x="321" 
d="M43 226l12 70h241l-12 -70h-241z" />
    <glyph glyph-name="period" unicode="." horiz-adv-x="171" 
d="M7 49q0 23 15.5 39t37.5 16t37.5 -16t15.5 -39t-15 -38.5t-38 -15.5t-38 15.5t-15 38.5z" />
    <glyph glyph-name="slash" unicode="/" horiz-adv-x="333" 
d="M-48 -84l376 734h77l-377 -734h-76z" />
    <glyph glyph-name="zero" unicode="0" horiz-adv-x="535" 
d="M246 62q58 0 103.5 48t68.5 121t23 154q0 76 -30.5 121.5t-87.5 45.5q-58 0 -104 -48.5t-68.5 -121t-22.5 -153.5q0 -76 30.5 -121.5t87.5 -45.5zM246 -9q-91 0 -143 64.5t-52 173.5q0 161 78.5 277.5t193.5 116.5q91 0 142.5 -64.5t51.5 -173.5q0 -161 -78 -277.5
t-193 -116.5z" />
    <glyph glyph-name="one" unicode="1" horiz-adv-x="325" 
d="M316 615l-108 -615h-76l91 519l-166 -77l14 80l198 93h47z" />
    <glyph glyph-name="two" unicode="2" horiz-adv-x="452" 
d="M-5 52l252 231q77 72 99 101q34 46 34 86q0 39 -24.5 61t-69.5 22q-54 0 -89.5 -33.5t-51.5 -89.5h-81q24 88 84.5 140.5t145.5 52.5q78 0 121 -38.5t43 -105.5q0 -43 -21.5 -83.5t-48.5 -68.5t-74 -71q-11 -10 -17 -15l-187 -171h287l-13 -70h-397z" />
    <glyph glyph-name="three" unicode="3" horiz-adv-x="460" 
d="M199 281l12 67h41q56 0 95 31.5t39 88.5q0 39 -25.5 63t-70.5 24q-48 0 -84.5 -30t-51.5 -79h-81q23 79 83.5 128t140.5 49q79 0 122 -40.5t43 -108.5q0 -58 -36.5 -103t-88.5 -59q41 -14 63.5 -46t22.5 -77q0 -84 -61.5 -141t-152.5 -57q-90 0 -141 46t-51 123l1 16h76
v-5q0 -112 115 -112q60 0 99.5 36t39.5 94q0 42 -29.5 67t-76.5 25h-43z" />
    <glyph glyph-name="four" unicode="4" horiz-adv-x="509" 
d="M415 614l-300 -409h193l26 148h73l-26 -148h108l-12 -66h-108l-24 -139h-73l24 139h-285l10 56l308 419h86z" />
    <glyph glyph-name="five" unicode="5" horiz-adv-x="469" 
d="M212 -9q-86 0 -137 47t-51 123v15h77v-6q0 -51 30.5 -81t83.5 -30q64 0 105.5 45.5t41.5 111.5q0 51 -28.5 82.5t-78.5 31.5q-63 0 -114 -53h-64l60 337h336l-12 -70h-270l-33 -185q51 39 113 39q77 0 121.5 -48t44.5 -128q0 -94 -63.5 -162.5t-161.5 -68.5z" />
    <glyph glyph-name="six" unicode="6" 
d="M506 464h-76q-5 40 -30 65.5t-70 25.5q-76 0 -131 -72t-68 -173h1q24 41 67 66t90 25q81 0 131 -52t50 -128q0 -93 -64.5 -161.5t-158.5 -68.5q-97 0 -146.5 65t-49.5 168q0 100 33.5 190t99 149.5t147.5 59.5q77 0 122 -42t53 -117zM130 180q0 -51 31 -86t88 -35
q60 0 103 45t43 111q0 51 -31.5 85.5t-87.5 34.5q-59 0 -102.5 -44.5t-43.5 -110.5z" />
    <glyph glyph-name="seven" unicode="7" horiz-adv-x="440" 
d="M472 553l-316 -553h-82l313 544h-313l12 70h397z" />
    <glyph glyph-name="eight" unicode="8" horiz-adv-x="487" 
d="M104 160q0 -47 35 -76t88 -29q62 0 104.5 36t42.5 94q0 48 -35 77t-90 29q-61 0 -103 -37t-42 -94zM225 -9q-80 0 -139 42.5t-59 120.5q0 67 44 115.5t106 59.5q-75 36 -75 120q0 75 57.5 124.5t141.5 49.5q76 0 127.5 -40t51.5 -109q0 -57 -36 -99.5t-89 -57.5
q44 -18 69.5 -53t25.5 -83q0 -87 -67 -138.5t-158 -51.5zM403 470q0 40 -29.5 64.5t-72.5 24.5q-53 0 -88.5 -32t-35.5 -82q0 -40 29.5 -65t72.5 -25q53 0 88.5 32.5t35.5 82.5z" />
    <glyph glyph-name="nine" unicode="9" 
d="M28 150h76q5 -40 30 -65.5t70 -25.5q76 0 131 72t68 173h-1q-24 -41 -67 -66t-90 -25q-81 0 -131 52t-50 128q0 93 64.5 161.5t158.5 68.5q97 0 146.5 -65t49.5 -168q0 -100 -33.5 -190t-99 -149.5t-147.5 -59.5q-77 0 -122 42t-53 117zM404 434q0 51 -31 86t-88 35
q-60 0 -103 -45t-43 -111q0 -51 31.5 -85.5t87.5 -34.5q59 0 102.5 44.5t43.5 110.5z" />
    <glyph glyph-name="colon" unicode=":" horiz-adv-x="171" 
d="M7 49q0 23 15.5 39t37.5 16t37.5 -16t15.5 -39t-15 -38.5t-38 -15.5t-38 15.5t-15 38.5zM62 363q0 23 15.5 39t37.5 16t37.5 -16t15.5 -39t-15 -38.5t-38 -15.5t-38 15.5t-15 38.5z" />
    <glyph glyph-name="semicolon" unicode=";" horiz-adv-x="171" 
d="M-39 -107l82 107q-36 10 -36 49q0 23 15 38t38 15t38 -15t15 -41q0 -28 -27 -63l-69 -90h-56zM62 363q0 23 15.5 39t37.5 16t37.5 -16t15.5 -39t-15 -38.5t-38 -15.5t-38 15.5t-15 38.5z" />
    <glyph glyph-name="less" unicode="&#x3c;" horiz-adv-x="423" 
d="M67 256l13 78l323 151l-13 -74l-259 -119l217 -118l-12 -69z" />
    <glyph glyph-name="equal" unicode="=" horiz-adv-x="551" 
d="M73 199l10 58h395l-10 -58h-395zM98 337l10 60h394l-10 -60h-394z" />
    <glyph glyph-name="greater" unicode="&#x3e;" horiz-adv-x="423" 
d="M380 334l-13 -78l-323 -151l13 73l258 120l-216 118l12 69z" />
    <glyph glyph-name="question" unicode="?" horiz-adv-x="432" 
d="M277 553q-55 0 -93 -32t-53 -88h-78q25 88 84.5 139t143.5 51q77 0 119.5 -38.5t42.5 -107.5q0 -38 -20.5 -75.5t-39 -56t-60.5 -55.5q-8 -7 -12 -11q-52 -46 -61 -86h-74q14 66 79 126q6 6 27 24.5t31.5 29t24.5 28.5t20.5 36t6.5 37q0 36 -23.5 57.5t-64.5 21.5z
M138 49q0 23 15.5 39t37.5 16t37.5 -16t15.5 -39t-15 -38.5t-38 -15.5t-38 15.5t-15 38.5z" />
    <glyph glyph-name="at" unicode="@" horiz-adv-x="774" 
d="M574 381l-57 -243q-11 -54 38 -54q56 0 95 54.5t39 147.5q0 101 -71 162.5t-186 61.5q-145 0 -240 -98.5t-95 -248.5q0 -69 26.5 -121.5t71 -82t95.5 -43.5t107 -14q119 0 226 47l-10 -59q-92 -44 -217 -44q-72 0 -135.5 19t-114.5 56t-81 99.5t-30 142.5
q0 168 112.5 285.5t285.5 117.5q142 0 229.5 -78.5t87.5 -201.5q0 -121 -62.5 -188.5t-145.5 -67.5q-36 0 -62 15.5t-35 42.5q-17 -25 -46.5 -41t-58.5 -16q-58 0 -91 37.5t-33 96.5q0 89 55.5 157t137.5 68q63 0 89 -46l10 37h66zM452 151l29 124q-16 53 -71 53
q-54 0 -89.5 -48.5t-35.5 -108.5q0 -36 19.5 -57t52.5 -21q53 0 95 58z" />
    <glyph glyph-name="A" unicode="A" horiz-adv-x="596" 
d="M341 614h75l124 -614h-78l-36 186h-252l-106 -186h-82zM362 516l-150 -262h201z" />
    <glyph glyph-name="B" unicode="B" horiz-adv-x="538" 
d="M408 315q41 -11 64.5 -43.5t23.5 -77.5q0 -91 -66.5 -142.5t-169.5 -51.5h-221l108 614h202q85 0 130 -36.5t45 -104.5q0 -60 -34 -101.5t-82 -56.5zM176 347h125q68 0 107 29.5t39 87.5q0 81 -111 81h-125zM164 281l-37 -212h145q68 0 107.5 34t39.5 91q0 41 -27.5 64
t-81.5 23h-146z" />
    <glyph glyph-name="C" unicode="C" horiz-adv-x="589" 
d="M50 264q0 144 86 251.5t222 107.5q94 0 153 -51.5t69 -137.5h-78q-12 54 -49 86t-95 32q-102 0 -165 -84t-63 -204q0 -90 46.5 -146t123.5 -56q122 0 173 119h78q-27 -88 -93 -139t-158 -51q-111 0 -180.5 75.5t-69.5 197.5z" />
    <glyph glyph-name="D" unicode="D" horiz-adv-x="608" 
d="M129 71h118q118 0 190 79.5t72 205.5q0 89 -47 138.5t-138 49.5h-111zM39 0l108 614h187q122 0 188 -68.5t66 -189.5q0 -153 -98 -254.5t-253 -101.5h-198z" />
    <glyph glyph-name="E" unicode="E" horiz-adv-x="515" 
d="M147 614h391l-13 -70h-314l-34 -194h285l-12 -70h-285l-37 -209h314l-12 -71h-391z" />
    <glyph glyph-name="F" unicode="F" horiz-adv-x="485" 
d="M117 0h-78l108 614h374l-12 -70h-296l-37 -207h278l-12 -70h-278z" />
    <glyph glyph-name="G" unicode="G" horiz-adv-x="611" 
d="M305 -9q-114 0 -184.5 75t-70.5 198q0 93 37.5 174.5t109.5 133t163 51.5q96 0 157.5 -51t71.5 -138h-76q-13 55 -52.5 86.5t-100.5 31.5q-103 0 -166.5 -84t-63.5 -204q0 -90 47 -146t128 -56q77 0 131 47.5t68 125.5h-146l13 68h218l-10 -60q-19 -113 -92.5 -182.5
t-181.5 -69.5z" />
    <glyph glyph-name="H" unicode="H" horiz-adv-x="651" 
d="M573 614h78l-108 -614h-78l49 280h-348l-49 -280h-78l108 614h78l-47 -263h348z" />
    <glyph glyph-name="I" unicode="I" horiz-adv-x="225" 
d="M225 614l-108 -614h-78l108 614h78z" />
    <glyph glyph-name="J" unicode="J" horiz-adv-x="487" 
d="M23 187h80q-1 -8 -1 -12q0 -51 27.5 -81.5t80.5 -30.5q113 0 138 147l71 404h79l-72 -413q-18 -99 -75 -154.5t-141 -55.5q-87 0 -137.5 48t-50.5 128z" />
    <glyph glyph-name="K" unicode="K" horiz-adv-x="564" 
d="M225 614l-54 -307l340 307h102l-314 -281l215 -333h-90l-185 283l-86 -74l-36 -209h-78l108 614h78z" />
    <glyph glyph-name="L" unicode="L" horiz-adv-x="504" 
d="M39 0l108 614h78l-96 -543h314l-12 -71h-392z" />
    <glyph glyph-name="M" unicode="M" horiz-adv-x="737" 
d="M362 0h-54l-112 467l-82 -467h-75l108 614h83l122 -509l296 509h89l-108 -614h-75l81 467z" />
    <glyph glyph-name="N" unicode="N" horiz-adv-x="623" 
d="M624 614l-108 -614h-59l-256 498l-87 -498h-75l108 614h74l243 -477l84 477h76z" />
    <glyph glyph-name="O" unicode="O" horiz-adv-x="629" 
d="M299 62q101 0 166 83t65 204q0 88 -46 145.5t-123 57.5q-101 0 -166 -83t-65 -204q0 -88 46 -145.5t123 -57.5zM299 -9q-111 0 -180 76t-69 198q0 147 89 252.5t222 105.5q111 0 179.5 -76t68.5 -198q0 -147 -88.5 -252.5t-221.5 -105.5z" />
    <glyph glyph-name="P" unicode="P" horiz-adv-x="537" 
d="M311 246h-151l-43 -246h-78l108 614h229q81 0 126.5 -41t45.5 -117q0 -98 -66.5 -154t-170.5 -56zM213 545l-41 -229h150q69 0 108 36t39 100q0 93 -108 93h-148z" />
    <glyph glyph-name="Q" unicode="Q" horiz-adv-x="629" 
d="M300 -9q-111 0 -180 76t-69 199q0 147 88 252t221 105q111 0 180 -76t69 -199q0 -87 -33.5 -163.5t-92.5 -125.5l38 -62l-55 -36l-37 61q-60 -31 -129 -31zM300 62q52 0 92 21l-41 69l55 34l40 -66q84 81 84 228q0 89 -46.5 146.5t-123.5 57.5q-101 0 -165.5 -82.5
t-64.5 -203.5q0 -89 46.5 -146.5t123.5 -57.5z" />
    <glyph glyph-name="R" unicode="R" horiz-adv-x="550" 
d="M276 260h-114l-45 -260h-78l108 614h217q87 0 133.5 -40t46.5 -115q0 -83 -51.5 -134t-136.5 -62l135 -263h-84zM213 545l-39 -218h146q68 0 106.5 34t38.5 96q0 42 -28.5 65t-81.5 23h-142z" />
    <glyph glyph-name="S" unicode="S" horiz-adv-x="509" 
d="M506 453h-77q-6 46 -41.5 74.5t-94.5 28.5t-97.5 -30.5t-38.5 -82.5q0 -59 79 -82l103 -31q124 -38 124 -142q0 -89 -65 -143t-158 -54q-94 0 -155 46t-68 131h78q7 -54 47 -82t98 -28q64 0 105 32t41 90q0 59 -81 83l-104 31q-121 37 -121 140q0 83 60.5 136t152.5 53
q96 0 151 -46t62 -124z" />
    <glyph glyph-name="T" unicode="T" horiz-adv-x="567" 
d="M87 544l13 70h506l-12 -70h-214l-96 -544h-79l96 544h-214z" />
    <glyph glyph-name="U" unicode="U" horiz-adv-x="607" 
d="M282 -9q-99 0 -158.5 51t-59.5 146q0 26 7 65l63 361h79l-64 -361q-5 -32 -5 -53q0 -67 36.5 -103t101.5 -36q158 0 192 192l63 361h79l-65 -371q-22 -123 -92.5 -187.5t-176.5 -64.5z" />
    <glyph glyph-name="V" unicode="V" horiz-adv-x="590" 
d="M284 0h-74l-115 614h79l90 -510l295 510h84z" />
    <glyph glyph-name="W" unicode="W" horiz-adv-x="771" 
d="M427 614h63l34 -488l222 488h77l-282 -614h-72l-37 479l-223 -479h-72l-42 614h75l31 -488z" />
    <glyph glyph-name="X" unicode="X" horiz-adv-x="559" 
d="M612 614l-273 -305l157 -309h-82l-127 253l-225 -253h-90l283 316l-151 298h82l122 -241l214 241h90z" />
    <glyph glyph-name="Y" unicode="Y" horiz-adv-x="557" 
d="M297 324l229 290h87l-287 -361l-45 -253h-78l45 253l-159 361h82z" />
    <glyph glyph-name="Z" unicode="Z" horiz-adv-x="534" 
d="M471 71l-12 -71h-451l9 57l432 487h-338l12 70h442l-11 -56l-430 -487h347z" />
    <glyph glyph-name="bracketleft" unicode="[" horiz-adv-x="313" 
d="M207 582l-104 -598h145l-12 -68h-217l129 734h217l-12 -68h-146z" />
    <glyph glyph-name="backslash" unicode="\" horiz-adv-x="333" 
d="M169 650l119 -734h-72l-119 734h72z" />
    <glyph glyph-name="bracketright" unicode="]" horiz-adv-x="313" 
d="M129 -16l104 598h-145l12 68h217l-129 -734h-217l12 68h146z" />
    <glyph glyph-name="asciicircum" unicode="^" horiz-adv-x="357" 
d="M206 614h74l90 -194h-74l-61 128l-106 -128h-83z" />
    <glyph glyph-name="underscore" unicode="_" horiz-adv-x="367" 
d="M-29 -109l11 67h327l-12 -67h-326z" />
    <glyph glyph-name="grave" unicode="`" 
d="M318 516h-65l-65 134h73z" />
    <glyph glyph-name="a" unicode="a" horiz-adv-x="453" 
d="M405 295l-51 -295h-73l5 33q-43 -41 -116 -41q-64 0 -106.5 35t-42.5 92q0 68 56 111t133 43q75 0 111 -38l11 58q2 16 2 24q0 32 -20 51.5t-59 19.5q-71 0 -105 -61h-74q21 57 71.5 91.5t115.5 34.5q68 0 106.5 -35t38.5 -94q0 -12 -3 -29zM299 110l9 46
q-6 24 -33.5 39.5t-64.5 15.5q-46 0 -81.5 -23t-35.5 -65q0 -31 27.5 -49.5t65.5 -18.5q37 0 68.5 15t44.5 40z" />
    <glyph glyph-name="b" unicode="b" horiz-adv-x="504" 
d="M114 53l-10 -53h-75l114 650h75l-46 -261q55 64 133 64q80 0 122 -52.5t42 -137.5q0 -112 -66.5 -192t-168.5 -80q-43 0 -74.5 18t-45.5 44zM158 307l-31 -175q25 -73 105 -73q75 0 118 59.5t43 144.5q0 55 -27 88.5t-77 33.5q-76 0 -131 -78z" />
    <glyph glyph-name="c" unicode="c" horiz-adv-x="446" 
d="M328 134h76q-20 -67 -70.5 -105t-121.5 -38q-82 0 -130 53t-48 142q0 107 64.5 187t166.5 80q73 0 114.5 -38.5t46.5 -104.5h-75q-10 77 -88 77q-70 0 -111 -59t-41 -142q0 -59 28 -94t78 -35q82 0 111 77z" />
    <glyph glyph-name="d" unicode="d" horiz-adv-x="504" 
d="M390 391l45 259h76l-114 -650h-76l11 55q-55 -64 -133 -64q-80 0 -122.5 52.5t-42.5 137.5q0 109 67.5 190.5t168.5 81.5q43 0 74.5 -18t45.5 -44zM346 137l30 175q-24 73 -104 73q-74 0 -118 -62t-44 -142q0 -55 27.5 -88.5t77.5 -33.5q76 0 131 78z" />
    <glyph glyph-name="e" unicode="e" horiz-adv-x="462" 
d="M338 133h76q-20 -64 -72.5 -103t-124.5 -39q-85 0 -134 53t-49 142q0 105 64 186t170 81q80 0 122.5 -47.5t42.5 -129.5q0 -26 -8 -68h-315q-1 -8 -1 -22q0 -62 29 -96.5t83 -34.5q40 0 71.5 20.5t45.5 57.5zM265 389q-54 0 -91 -34.5t-54 -89.5h239q1 7 1 19
q0 45 -24.5 75t-70.5 30z" />
    <glyph glyph-name="f" unicode="f" horiz-adv-x="289" 
d="M365 649l-12 -67q-19 11 -43 11q-74 0 -89 -81l-12 -68h101l-12 -64h-100l-67 -380h-74l66 380h-74l11 64h75l13 74q12 66 55.5 103.5t103.5 37.5q37 0 58 -10z" />
    <glyph glyph-name="g" unicode="g" horiz-adv-x="503" 
d="M326 28l8 39q-55 -64 -133 -64q-80 0 -123 52t-43 135q0 105 67 184t168 79q43 0 74.5 -18t45.5 -43l9 52h76l-74 -417q-17 -100 -74.5 -153.5t-145.5 -53.5q-79 0 -126 40t-49 107h74q2 -41 29 -62t72 -21q119 0 145 144zM348 148l29 166q-11 33 -39 52.5t-66 19.5
q-74 0 -117.5 -59t-43.5 -137q0 -54 28 -86.5t78 -32.5q75 0 131 77z" />
    <glyph glyph-name="h" unicode="h" horiz-adv-x="489" 
d="M314 453q62 0 96.5 -35t34.5 -93q0 -16 -3 -34l-51 -291h-76l49 279q3 16 3 29q0 76 -80 76q-39 0 -75 -24t-55 -60l-53 -300h-75l114 650h75l-46 -263q57 66 142 66z" />
    <glyph glyph-name="i" unicode="i" horiz-adv-x="209" 
d="M182 444l-78 -444h-75l78 444h75zM217 578q0 -20 -14.5 -34t-34.5 -14t-34 14t-14 34t14 34t34 14t34.5 -14t14.5 -34z" />
    <glyph glyph-name="j" unicode="j" horiz-adv-x="209" 
d="M-93 -168l12 66q15 -12 38 -12q27 0 41.5 15.5t21.5 52.5l87 490h75l-87 -495q-23 -128 -136 -128q-32 0 -52 11zM217 578q0 -20 -14.5 -34t-34.5 -14t-34 14t-14 34t14 34t34 14t34.5 -14t14.5 -34z" />
    <glyph glyph-name="k" unicode="k" horiz-adv-x="462" 
d="M328 0l-139 206l-56 -46l-29 -160h-75l114 650h75l-70 -402l234 196h102l-237 -194l166 -250h-85z" />
    <glyph glyph-name="l" unicode="l" horiz-adv-x="209" 
d="M218 650l-114 -650h-75l114 650h75z" />
    <glyph glyph-name="m" unicode="m" horiz-adv-x="717" 
d="M409 382q60 71 141 71q60 0 91.5 -34.5t31.5 -89.5q0 -19 -3 -37l-51 -292h-76l48 275q4 21 4 37q0 72 -67 72q-70 0 -114 -83l-52 -301h-76l48 275q4 32 4 37q0 72 -67 72q-36 0 -65.5 -23.5t-48.5 -59.5l-53 -301h-75l78 444h75l-10 -57q53 66 129 66q41 0 69.5 -20
t38.5 -51z" />
    <glyph glyph-name="n" unicode="n" horiz-adv-x="489" 
d="M29 0l78 444h75l-10 -57q57 66 142 66q62 0 96.5 -35t34.5 -93q0 -16 -3 -34l-51 -291h-76l49 279q3 16 3 29q0 76 -80 76q-39 0 -75 -24t-55 -60l-53 -300h-75z" />
    <glyph glyph-name="o" unicode="o" horiz-adv-x="478" 
d="M217 57q66 0 108.5 57t42.5 146q0 58 -28.5 92.5t-78.5 34.5q-65 0 -108 -57t-43 -146q0 -58 28.5 -92.5t78.5 -34.5zM217 -9q-86 0 -134.5 52.5t-48.5 140.5q0 116 66 192.5t162 76.5q85 0 133.5 -52.5t48.5 -140.5q0 -116 -66 -192.5t-161 -76.5z" />
    <glyph glyph-name="p" unicode="p" horiz-adv-x="504" 
d="M114 53l-40 -223h-75l108 614h75l-10 -55q55 64 133 64q80 0 122 -52.5t42 -137.5q0 -112 -66.5 -192t-168.5 -80q-43 0 -74.5 18t-45.5 44zM158 307l-31 -175q25 -73 105 -73q75 0 118 59.5t43 144.5q0 55 -27 88.5t-77 33.5q-76 0 -131 -78z" />
    <glyph glyph-name="q" unicode="q" horiz-adv-x="501" 
d="M390 391l9 53h76l-108 -614h-76l41 225q-55 -64 -133 -64q-80 0 -122.5 52.5t-42.5 137.5q0 109 67.5 190.5t168.5 81.5q43 0 74.5 -18t45.5 -44zM346 137l30 175q-24 73 -104 73q-74 0 -118 -62t-44 -142q0 -55 27.5 -88.5t77.5 -33.5q76 0 131 78z" />
    <glyph glyph-name="r" unicode="r" horiz-adv-x="321" 
d="M336 446l-14 -77q-16 12 -48 12q-36 0 -67.5 -22t-49.5 -61l-53 -298h-75l78 444h75l-10 -58q19 29 52.5 48t69.5 19q30 0 42 -7z" />
    <glyph glyph-name="s" unicode="s" horiz-adv-x="414" 
d="M14 124h74q6 -35 33 -52.5t68 -17.5q43 0 70.5 17.5t27.5 53.5q0 38 -56 57l-77 23q-46 14 -70 39t-24 70q0 61 48 100t118 39q75 0 116.5 -34.5t46.5 -93.5h-72q-13 65 -91 65q-39 0 -65.5 -18.5t-26.5 -50.5q0 -19 12 -30.5t39 -20.5l77 -24q98 -31 98 -111
q0 -66 -49 -105t-122 -39q-77 0 -123.5 36.5t-51.5 96.5z" />
    <glyph glyph-name="t" unicode="t" horiz-adv-x="316" 
d="M70 114l49 266h-74l12 64h74l21 117h76l-22 -117h105l-11 -64h-105l-47 -254q-3 -14 -3 -25q0 -43 48 -43q31 0 63 18l-12 -70q-32 -15 -74 -15q-49 0 -76.5 23t-27.5 68q0 15 4 32z" />
    <glyph glyph-name="u" unicode="u" horiz-adv-x="487" 
d="M459 444l-78 -444h-76l10 56q-57 -65 -142 -65q-61 0 -94.5 34.5t-33.5 92.5q0 17 3 35l51 291h75l-49 -282q-3 -17 -3 -31q0 -74 78 -74q39 0 75 24.5t55 61.5l53 301h76z" />
    <glyph glyph-name="v" unicode="v" horiz-adv-x="455" 
d="M209 0h-74l-77 444h74l58 -350l205 350h82z" />
    <glyph glyph-name="w" unicode="w" horiz-adv-x="628" 
d="M384 444l21 -339l167 339h77l-225 -444h-73l-22 337l-163 -337h-72l-38 444h72l27 -339l164 339h65z" />
    <glyph glyph-name="x" unicode="x" horiz-adv-x="449" 
d="M467 444l-201 -218l120 -226h-78l-92 174l-157 -174h-86l212 230l-113 214h79l84 -162l146 162h86z" />
    <glyph glyph-name="y" unicode="y" horiz-adv-x="455" 
d="M107 -170h-76l103 175l-76 439h74l60 -349l203 349h82z" />
    <glyph glyph-name="z" unicode="z" horiz-adv-x="431" 
d="M363 64l-10 -64h-349l9 49l306 331h-241l12 64h337l-8 -49l-307 -331h251z" />
    <glyph glyph-name="braceleft" unicode="{" horiz-adv-x="339" 
d="M173 206l-33 -185q-6 -37 29 -37h105l-12 -68h-104q-50 0 -74.5 31t-16.5 81l32 183q6 37 -29 37h-46l13 70h46q36 0 42 37l32 183q9 50 45 81t85 31h104l-12 -68h-105q-36 0 -42 -37l-33 -185q-9 -52 -57 -77q39 -27 31 -77z" />
    <glyph glyph-name="bar" unicode="|" horiz-adv-x="219" 
d="M23 -84l129 734h73l-129 -734h-73z" />
    <glyph glyph-name="braceright" unicode="}" horiz-adv-x="339" 
d="M189 360l33 185q6 37 -29 37h-105l12 68h104q50 0 74.5 -31t16.5 -81l-32 -183q-6 -37 29 -37h46l-13 -70h-46q-36 0 -42 -37l-32 -183q-9 -50 -45 -81t-85 -31h-104l12 68h105q36 0 42 37l33 185q9 52 57 77q-39 27 -31 77z" />
    <glyph glyph-name="asciitilde" unicode="~" horiz-adv-x="418" 
d="M336 335h63q-11 -61 -42.5 -95t-76.5 -34q-34 0 -70 33t-54 33q-43 0 -54 -62h-63q11 60 42 94t77 34q26 0 48 -16.5t40.5 -33t35.5 -16.5q41 0 54 63z" />
    <glyph glyph-name="exclamdown" unicode="&#xa1;" horiz-adv-x="209" 
d="M157 325l-58 -421h-90l94 421h54zM206 469q0 -23 -15.5 -39t-37.5 -16q-23 0 -38.5 16t-15.5 39t15.5 38.5t38.5 15.5q22 0 37.5 -15.5t15.5 -38.5z" />
    <glyph glyph-name="cent" unicode="&#xa2;" horiz-adv-x="444" 
d="M36 196q0 103 59.5 181t155.5 85l16 91h68l-17 -96q50 -13 78.5 -50t31.5 -92h-75q-3 38 -26 60t-62 22q-70 0 -111.5 -59t-41.5 -142q0 -59 28.5 -94t77.5 -35q42 0 71 21.5t42 60.5h75q-17 -63 -61 -101.5t-107 -45.5l-15 -89h-69l16 92q-62 14 -98 64.5t-36 126.5z
" />
    <glyph glyph-name="sterling" unicode="&#xa3;" horiz-adv-x="488" 
d="M227 425l-17 -91h153l-10 -63h-154l-20 -115q-10 -61 -39 -91h295l-11 -65h-429l10 65h61q28 36 38 91l20 115h-82l11 63h82l17 91q16 90 68 144t132 54q77 0 116.5 -39.5t40.5 -105.5h-73q-1 38 -23 58.5t-61 20.5q-102 0 -125 -132z" />
    <glyph glyph-name="yen" unicode="&#xa5;" horiz-adv-x="535" 
d="M58 134l11 60h158l12 70h-158l11 59h128l-123 291h79l111 -275l209 275h85l-226 -291h129l-11 -59h-159l-12 -70h159l-11 -60h-158l-23 -134h-76l23 134h-158z" />
    <glyph glyph-name="section" unicode="&#xa7;" horiz-adv-x="457" 
d="M309 280l-137 105q-26 -8 -45.5 -28t-19.5 -47q0 -14 8.5 -27t17 -20.5t27.5 -22.5l137 -104q25 7 45 27t20 47q0 14 -8.5 27.5t-17.5 21t-27 21.5zM337 88q8 -16 8 -42q0 -66 -51 -107.5t-120 -41.5q-76 0 -115.5 36t-40.5 98h72q5 -72 87 -72q41 0 68.5 21t27.5 58
q0 18 -10.5 31t-37.5 33l-108 82q-38 29 -58 55t-20 62q0 43 25.5 78t67.5 54q-8 19 -8 41q0 67 51 108t120 41q76 0 115.5 -36t41.5 -98h-73q-5 72 -87 72q-41 0 -68 -20.5t-27 -57.5q0 -18 10.5 -31.5t36.5 -33.5l108 -81q38 -28 58 -55t20 -63q0 -43 -25.5 -78t-67.5 -53
z" />
    <glyph glyph-name="dieresis" unicode="&#xa8;" 
d="M133 571q0 20 13.5 33.5t33.5 13.5q19 0 32.5 -13.5t13.5 -33.5q0 -19 -13.5 -32.5t-32.5 -13.5t-33 13.5t-14 32.5zM274 571q0 20 13 33.5t32 13.5q20 0 33.5 -13.5t13.5 -33.5q0 -19 -14 -32.5t-33 -13.5t-32 13.5t-13 32.5z" />
    <glyph glyph-name="copyright" unicode="&#xa9;" horiz-adv-x="706" 
d="M687 307q0 -136 -92 -226t-224 -90t-224.5 90t-92.5 226t92.5 226t224.5 90t224 -90t92 -226zM647 307q0 119 -80.5 198t-195.5 79q-116 0 -196.5 -79t-80.5 -198t80.5 -198t196.5 -79q115 0 195.5 79t80.5 198zM194 309q0 89 50.5 144t129.5 55q66 0 106.5 -34.5
t52.5 -92.5h-75q-19 59 -84 59q-48 0 -77 -36t-29 -95t29 -95t77 -36q65 0 84 59h75q-12 -58 -53 -92.5t-106 -34.5q-79 0 -129.5 55t-50.5 144z" />
    <glyph glyph-name="ordfeminine" unicode="&#xaa;" horiz-adv-x="309" 
d="M322 513l-34 -192h-65l3 21q-26 -26 -74 -26q-42 0 -70.5 23.5t-28.5 61.5q0 46 37 74.5t87 28.5q47 0 73 -24l6 34q1 4 1 14q0 40 -45 40q-42 0 -60 -35h-64q15 41 50 66t82 25q49 0 76.5 -24.5t27.5 -65.5q0 -7 -2 -21zM236 397l4 27q-9 31 -56 31q-26 0 -46 -13
t-20 -37q0 -18 15.5 -28.5t37.5 -10.5q44 0 65 31z" />
    <glyph glyph-name="guillemotleft" unicode="&#xab;" horiz-adv-x="357" 
d="M160 74h-68l-66 148l118 148h75l-122 -152zM306 74h-69l-66 148l118 148h75l-122 -152z" />
    <glyph glyph-name="registered" unicode="&#xae;" horiz-adv-x="412" 
d="M420 440q0 -78 -53 -130.5t-128 -52.5t-128 52.5t-53 130.5t53 130.5t128 52.5t128 -52.5t53 -130.5zM390 440q0 67 -44 110.5t-107 43.5t-106.5 -43.5t-43.5 -110.5q0 -66 43.5 -109.5t106.5 -43.5t107 43.5t44 109.5zM236 414h-25v-68h-42v192h84q31 0 49.5 -16.5
t18.5 -46.5q0 -46 -42 -57l49 -72h-47zM280 475q0 27 -29 27h-40v-53h40q14 0 21.5 7.5t7.5 18.5z" />
    <glyph glyph-name="macron" unicode="&#xaf;" 
d="M137 530l11 61h214l-11 -61h-214z" />
    <glyph glyph-name="degree" unicode="&#xb0;" horiz-adv-x="336" 
d="M214 623q49 0 81.5 -32.5t32.5 -80.5q0 -55 -39 -95t-93 -40q-49 0 -81.5 33t-32.5 81q0 55 39 94.5t93 39.5zM210 568q-29 0 -50.5 -22t-21.5 -54q0 -26 18 -43.5t44 -17.5q28 0 50 21.5t22 54.5q0 26 -18 43.5t-44 17.5z" />
    <glyph glyph-name="plusminus" unicode="&#xb1;" horiz-adv-x="544" 
d="M293 518h61l-23 -129h164l-11 -62h-164l-23 -129h-61l23 129h-164l11 62h164zM53 88l10 62h389l-10 -62h-389z" />
    <glyph glyph-name="twosuperior" unicode="&#xb2;" horiz-adv-x="296" 
d="M46 325l137 121q56 50 56 79q0 36 -38 36q-43 0 -56 -50h-67q13 48 47.5 78t83.5 30q45 0 70.5 -22t25.5 -61q0 -25 -13 -48.5t-26 -36.5t-42 -39l-83 -75h134l-10 -55h-226z" />
    <glyph glyph-name="threesuperior" unicode="&#xb3;" horiz-adv-x="301" 
d="M158 427l8 48h21q26 0 43.5 13.5t17.5 39.5q0 16 -11 26.5t-30 10.5q-44 0 -59 -48h-65q12 45 46.5 73.5t82.5 28.5q46 0 71.5 -23.5t25.5 -61.5q0 -30 -18 -53.5t-42 -31.5q40 -18 40 -64t-35 -77t-86 -31q-52 0 -82 26.5t-30 70.5v8h64v-2q0 -49 49 -49q25 0 42 15.5
t17 39.5q0 19 -13 30t-35 11h-22z" />
    <glyph glyph-name="acute" unicode="&#xb4;" 
d="M230 516h-71l103 134h81z" />
    <glyph glyph-name="paragraph" unicode="&#xb6;" horiz-adv-x="489" 
d="M302 -90l124 704h63l-124 -704h-63zM170 -90l69 391q-74 0 -127.5 36t-53.5 100q0 60 39 102t92 58.5t113 16.5h55l-124 -704h-63z" />
    <glyph glyph-name="periodcentered" unicode="&#xb7;" horiz-adv-x="176" 
d="M37 262q0 23 15.5 39t37.5 16t37.5 -16t15.5 -39t-15 -38.5t-38 -15.5t-38 15.5t-15 38.5z" />
    <glyph glyph-name="cedilla" unicode="&#xb8;" 
d="M239 -183h-75l89 132h78z" />
    <glyph glyph-name="onesuperior" unicode="&#xb9;" horiz-adv-x="232" 
d="M235 615l-58 -333h-63l45 259l-87 -40l12 64l109 50h42z" />
    <glyph glyph-name="ordmasculine" unicode="&#xba;" horiz-adv-x="325" 
d="M192 373q38 0 62 34t24 86q0 33 -16.5 53t-43.5 20q-37 0 -61.5 -34t-24.5 -87q0 -32 15.5 -52t44.5 -20zM190 314q-58 0 -92.5 36t-34.5 96q0 77 45.5 127.5t110.5 50.5q58 0 93 -36t35 -95q0 -77 -45.5 -128t-111.5 -51z" />
    <glyph glyph-name="guillemotright" unicode="&#xbb;" horiz-adv-x="357" 
d="M209 370h68l66 -148l-118 -148h-75l122 152zM63 370h69l66 -148l-118 -148h-75l122 152z" />
    <glyph glyph-name="onequarter" unicode="&#xbc;" horiz-adv-x="667" 
d="M637 614l-535 -614h-70l536 614h69zM257 615l-59 -333h-60l45 259l-95 -44l11 64l118 54h40zM555 333l-144 -211h80l11 67h57l-12 -67h53l-10 -53h-52l-12 -69h-56l12 69h-150l8 47l152 217h63z" />
    <glyph glyph-name="onehalf" unicode="&#xbd;" horiz-adv-x="682" 
d="M637 614l-535 -614h-70l536 614h69zM257 615l-59 -333h-60l45 259l-95 -44l11 64l118 54h40zM367 43l137 121q58 51 58 81q0 36 -38 36q-22 0 -38.5 -14.5t-21.5 -37.5h-65q12 48 47 78.5t84 30.5q45 0 70.5 -22.5t25.5 -61.5q0 -24 -13 -47t-27 -37.5t-43 -39.5l-85 -76
h137l-9 -54h-226z" />
    <glyph glyph-name="threequarters" unicode="&#xbe;" horiz-adv-x="706" 
d="M676 614l-535 -614h-69l535 614h69zM171 426l8 49h21q26 0 43.5 13.5t17.5 38.5q0 16 -11 27t-30 11q-43 0 -59 -49h-65q12 46 46.5 74.5t82.5 28.5q46 0 71.5 -23.5t25.5 -61.5q0 -30 -17.5 -53.5t-42.5 -31.5q40 -18 40 -64q0 -47 -34.5 -78t-86.5 -31q-51 0 -81.5 27
t-30.5 71l1 8h64v-3q0 -48 48 -48q25 0 42.5 15t17.5 39q0 19 -13 30t-35 11h-23zM594 333l-144 -211h80l12 67h56l-12 -67h53l-10 -53h-52l-12 -69h-56l12 69h-150l8 47l152 217h63z" />
    <glyph glyph-name="questiondown" unicode="&#xbf;" horiz-adv-x="432" 
d="M173 -35q55 0 93 32t53 88h78q-25 -88 -84.5 -139t-143.5 -51q-77 0 -119.5 38.5t-42.5 107.5q0 38 20.5 75.5t39 56t60.5 55.5q8 7 12 11q52 46 61 86h74q-14 -66 -79 -126q-6 -6 -27 -24.5t-31.5 -29t-24.5 -28.5t-20.5 -36t-6.5 -37q0 -36 23.5 -57.5t64.5 -21.5z
M312 469q0 -23 -15.5 -39t-37.5 -16t-37.5 16t-15.5 39t15 38.5t38 15.5t38 -15.5t15 -38.5z" />
    <glyph glyph-name="Agrave" unicode="&#xc0;" horiz-adv-x="596" 
d="M341 614h75l124 -614h-78l-36 186h-252l-106 -186h-82zM362 516l-150 -262h201zM424 668h-71l-71 117h82z" />
    <glyph glyph-name="Aacute" unicode="&#xc1;" horiz-adv-x="596" 
d="M341 614h75l124 -614h-78l-36 186h-252l-106 -186h-82zM362 516l-150 -262h201zM422 668h-79l100 117h90z" />
    <glyph glyph-name="Acircumflex" unicode="&#xc2;" horiz-adv-x="596" 
d="M341 614h75l124 -614h-78l-36 186h-252l-106 -186h-82zM362 516l-150 -262h201zM439 791l71 -122h-65l-47 71l-70 -71h-72l114 122h69z" />
    <glyph glyph-name="Atilde" unicode="&#xc3;" horiz-adv-x="596" 
d="M341 614h75l124 -614h-78l-36 186h-252l-106 -186h-82zM362 516l-150 -262h201zM488 785h50q-9 -54 -34 -86t-62 -32q-25 0 -51.5 29t-40.5 29q-33 0 -44 -55h-50q9 54 34 86t62 32q25 0 51.5 -29t40.5 -29q33 0 44 55z" />
    <glyph glyph-name="Adieresis" unicode="&#xc4;" horiz-adv-x="596" 
d="M341 614h75l124 -614h-78l-36 186h-252l-106 -186h-82zM362 516l-150 -262h201zM279 722q0 19 13.5 32.5t33.5 13.5q19 0 32.5 -13.5t13.5 -32.5t-13.5 -32.5t-32.5 -13.5q-20 0 -33.5 13.5t-13.5 32.5zM420 722q0 19 13 32.5t32 13.5q20 0 33.5 -13.5t13.5 -32.5
t-13.5 -32.5t-33.5 -13.5q-19 0 -32 13.5t-13 32.5z" />
    <glyph glyph-name="Aring" unicode="&#xc5;" horiz-adv-x="596" 
d="M341 614h75l124 -614h-78l-36 186h-252l-106 -186h-82zM362 516l-150 -262h201zM394 648q-36 0 -60 23.5t-24 58.5q0 37 26.5 64t64.5 27q36 0 60 -24t24 -59q0 -37 -26.5 -63.5t-64.5 -26.5zM396 689q19 0 33 13.5t14 33.5q0 19 -12.5 31.5t-30.5 12.5
q-19 0 -33.5 -13.5t-14.5 -34.5q0 -18 13 -30.5t31 -12.5z" />
    <glyph glyph-name="AE" unicode="&#xc6;" horiz-adv-x="870" 
d="M461 614h432l-13 -70h-304l-34 -194h275l-13 -70h-274l-37 -209h304l-12 -71h-382l33 186h-221l-144 -186h-85zM501 554l-233 -300h180z" />
    <glyph glyph-name="Ccedilla" unicode="&#xc7;" horiz-adv-x="589" 
d="M50 264q0 144 86 251.5t222 107.5q94 0 153 -51.5t69 -137.5h-78q-12 54 -49 86t-95 32q-102 0 -165 -84t-63 -204q0 -90 46.5 -146t123.5 -56q122 0 173 119h78q-27 -88 -93 -139t-158 -51q-111 0 -180.5 75.5t-69.5 197.5zM207 -183h-75l89 132h78z" />
    <glyph glyph-name="Egrave" unicode="&#xc8;" horiz-adv-x="515" 
d="M391 668h-71l-71 117h82zM147 614h391l-13 -70h-314l-34 -194h285l-12 -70h-285l-37 -209h314l-12 -71h-391z" />
    <glyph glyph-name="Eacute" unicode="&#xc9;" horiz-adv-x="515" 
d="M388 668h-79l100 117h90zM147 614h391l-13 -70h-314l-34 -194h285l-12 -70h-285l-37 -209h314l-12 -71h-391z" />
    <glyph glyph-name="Ecircumflex" unicode="&#xca;" horiz-adv-x="515" 
d="M147 614h391l-13 -70h-314l-34 -194h285l-12 -70h-285l-37 -209h314l-12 -71h-391zM407 791l71 -122h-65l-47 71l-70 -71h-72l114 122h69z" />
    <glyph glyph-name="Edieresis" unicode="&#xcb;" horiz-adv-x="515" 
d="M247 722q0 19 13.5 32.5t33.5 13.5q19 0 32.5 -13.5t13.5 -32.5t-13.5 -32.5t-32.5 -13.5q-20 0 -33.5 13.5t-13.5 32.5zM388 722q0 19 13 32.5t32 13.5q20 0 33.5 -13.5t13.5 -32.5t-13.5 -32.5t-33.5 -13.5q-19 0 -32 13.5t-13 32.5zM147 614h391l-13 -70h-314
l-34 -194h285l-12 -70h-285l-37 -209h314l-12 -71h-391z" />
    <glyph glyph-name="Igrave" unicode="&#xcc;" horiz-adv-x="225" 
d="M225 614l-108 -614h-78l108 614h78zM232 668h-71l-71 117h82z" />
    <glyph glyph-name="Iacute" unicode="&#xcd;" horiz-adv-x="225" 
d="M225 614l-108 -614h-78l108 614h78zM230 668h-79l100 117h90z" />
    <glyph glyph-name="Icircumflex" unicode="&#xce;" horiz-adv-x="225" 
d="M225 614l-108 -614h-78l108 614h78zM249 791l71 -122h-65l-47 71l-70 -71h-72l114 122h69z" />
    <glyph glyph-name="Idieresis" unicode="&#xcf;" horiz-adv-x="225" 
d="M225 614l-108 -614h-78l108 614h78zM88 722q0 19 13.5 32.5t33.5 13.5q19 0 32.5 -13.5t13.5 -32.5t-13.5 -32.5t-32.5 -13.5q-20 0 -33.5 13.5t-13.5 32.5zM229 722q0 19 13 32.5t32 13.5q20 0 33.5 -13.5t13.5 -32.5t-13.5 -32.5t-33.5 -13.5q-19 0 -32 13.5t-13 32.5z
" />
    <glyph glyph-name="Eth" unicode="&#xd0;" horiz-adv-x="621" 
d="M45 284l11 67h58l46 263h187q122 0 188 -68.5t66 -189.5q0 -153 -98 -254.5t-253 -101.5h-198l50 284h-57zM142 71h118q118 0 190 79.5t72 205.5q0 89 -47 138.5t-138 49.5h-111l-34 -193h122l-11 -67h-123z" />
    <glyph glyph-name="Ntilde" unicode="&#xd1;" horiz-adv-x="623" 
d="M496 785h50q-9 -54 -34 -86t-62 -32q-25 0 -51.5 29t-40.5 29q-33 0 -44 -55h-50q9 54 34 86t62 32q25 0 51.5 -29t40.5 -29q33 0 44 55zM624 614l-108 -614h-59l-256 498l-87 -498h-75l108 614h74l243 -477l84 477h76z" />
    <glyph glyph-name="Ograve" unicode="&#xd2;" horiz-adv-x="629" 
d="M427 668h-71l-71 117h82zM299 62q101 0 166 83t65 204q0 88 -46 145.5t-123 57.5q-101 0 -166 -83t-65 -204q0 -88 46 -145.5t123 -57.5zM299 -9q-111 0 -180 76t-69 198q0 147 89 252.5t222 105.5q111 0 179.5 -76t68.5 -198q0 -147 -88.5 -252.5t-221.5 -105.5z" />
    <glyph glyph-name="Oacute" unicode="&#xd3;" horiz-adv-x="629" 
d="M425 668h-79l100 117h90zM299 62q101 0 166 83t65 204q0 88 -46 145.5t-123 57.5q-101 0 -166 -83t-65 -204q0 -88 46 -145.5t123 -57.5zM299 -9q-111 0 -180 76t-69 198q0 147 89 252.5t222 105.5q111 0 179.5 -76t68.5 -198q0 -147 -88.5 -252.5t-221.5 -105.5z" />
    <glyph glyph-name="Ocircumflex" unicode="&#xd4;" horiz-adv-x="629" 
d="M299 62q101 0 166 83t65 204q0 88 -46 145.5t-123 57.5q-101 0 -166 -83t-65 -204q0 -88 46 -145.5t123 -57.5zM299 -9q-111 0 -180 76t-69 198q0 147 89 252.5t222 105.5q111 0 179.5 -76t68.5 -198q0 -147 -88.5 -252.5t-221.5 -105.5zM444 791l71 -122h-65l-47 71
l-70 -71h-72l114 122h69z" />
    <glyph glyph-name="Otilde" unicode="&#xd5;" horiz-adv-x="629" 
d="M493 785h50q-9 -54 -34 -86t-62 -32q-25 0 -51.5 29t-40.5 29q-33 0 -44 -55h-50q9 54 34 86t62 32q25 0 51.5 -29t40.5 -29q33 0 44 55zM299 62q101 0 166 83t65 204q0 88 -46 145.5t-123 57.5q-101 0 -166 -83t-65 -204q0 -88 46 -145.5t123 -57.5zM299 -9
q-111 0 -180 76t-69 198q0 147 89 252.5t222 105.5q111 0 179.5 -76t68.5 -198q0 -147 -88.5 -252.5t-221.5 -105.5z" />
    <glyph glyph-name="Odieresis" unicode="&#xd6;" horiz-adv-x="629" 
d="M284 722q0 19 13.5 32.5t33.5 13.5q19 0 32.5 -13.5t13.5 -32.5t-13.5 -32.5t-32.5 -13.5q-20 0 -33.5 13.5t-13.5 32.5zM425 722q0 19 13 32.5t32 13.5q20 0 33.5 -13.5t13.5 -32.5t-13.5 -32.5t-33.5 -13.5q-19 0 -32 13.5t-13 32.5zM299 62q101 0 166 83t65 204
q0 88 -46 145.5t-123 57.5q-101 0 -166 -83t-65 -204q0 -88 46 -145.5t123 -57.5zM299 -9q-111 0 -180 76t-69 198q0 147 89 252.5t222 105.5q111 0 179.5 -76t68.5 -198q0 -147 -88.5 -252.5t-221.5 -105.5z" />
    <glyph glyph-name="multiply" unicode="&#xd7;" horiz-adv-x="470" 
d="M207 296l-101 121l47 40l99 -122l144 123l35 -42l-143 -123l100 -121l-47 -41l-101 122l-143 -123l-35 44z" />
    <glyph glyph-name="Oslash" unicode="&#xd8;" horiz-adv-x="639" 
d="M52 18l57 67q-54 73 -54 180q0 147 89 252.5t222 105.5q92 0 158 -55l47 55l45 -33l-54 -63q52 -74 52 -178q0 -147 -88.5 -252.5t-221.5 -105.5q-91 0 -156 53l-50 -59zM135 265q0 -69 27 -119l312 364q-45 42 -108 42q-101 0 -166 -83t-65 -204zM304 62q101 0 166 83
t65 204q0 66 -26 116l-312 -364q44 -39 107 -39z" />
    <glyph glyph-name="Ugrave" unicode="&#xd9;" horiz-adv-x="607" 
d="M417 668h-71l-71 117h82zM282 -9q-99 0 -158.5 51t-59.5 146q0 26 7 65l63 361h79l-64 -361q-5 -32 -5 -53q0 -67 36.5 -103t101.5 -36q158 0 192 192l63 361h79l-65 -371q-22 -123 -92.5 -187.5t-176.5 -64.5z" />
    <glyph glyph-name="Uacute" unicode="&#xda;" horiz-adv-x="607" 
d="M415 668h-79l100 117h90zM282 -9q-99 0 -158.5 51t-59.5 146q0 26 7 65l63 361h79l-64 -361q-5 -32 -5 -53q0 -67 36.5 -103t101.5 -36q158 0 192 192l63 361h79l-65 -371q-22 -123 -92.5 -187.5t-176.5 -64.5z" />
    <glyph glyph-name="Ucircumflex" unicode="&#xdb;" horiz-adv-x="607" 
d="M282 -9q-99 0 -158.5 51t-59.5 146q0 26 7 65l63 361h79l-64 -361q-5 -32 -5 -53q0 -67 36.5 -103t101.5 -36q158 0 192 192l63 361h79l-65 -371q-22 -123 -92.5 -187.5t-176.5 -64.5zM434 791l71 -122h-65l-47 71l-70 -71h-72l114 122h69z" />
    <glyph glyph-name="Udieresis" unicode="&#xdc;" horiz-adv-x="607" 
d="M273 722q0 19 13.5 32.5t33.5 13.5q19 0 32.5 -13.5t13.5 -32.5t-13.5 -32.5t-32.5 -13.5q-20 0 -33.5 13.5t-13.5 32.5zM414 722q0 19 13 32.5t32 13.5q20 0 33.5 -13.5t13.5 -32.5t-13.5 -32.5t-33.5 -13.5q-19 0 -32 13.5t-13 32.5zM282 -9q-99 0 -158.5 51t-59.5 146
q0 26 7 65l63 361h79l-64 -361q-5 -32 -5 -53q0 -67 36.5 -103t101.5 -36q158 0 192 192l63 361h79l-65 -371q-22 -123 -92.5 -187.5t-176.5 -64.5z" />
    <glyph glyph-name="Yacute" unicode="&#xdd;" horiz-adv-x="557" 
d="M298 324l229 290h87l-287 -361l-45 -253h-78l45 253l-159 361h82zM396 668h-79l100 117h90z" />
    <glyph glyph-name="Thorn" unicode="&#xde;" horiz-adv-x="537" 
d="M291 131h-151l-23 -131h-78l108 614h78l-20 -115h150q82 0 127.5 -41t45.5 -117q0 -98 -66.5 -154t-170.5 -56zM193 430l-41 -230h150q68 0 107.5 36.5t39.5 100.5q0 44 -27 68.5t-81 24.5h-148z" />
    <glyph glyph-name="germandbls" unicode="&#xdf;" horiz-adv-x="510" 
d="M368 367q47 -12 75 -51t28 -99q0 -101 -65.5 -162t-156.5 -61q-53 0 -89 17l12 69q26 -18 77 -18q65 0 107.5 42t42.5 113q0 54 -34 83.5t-98 29.5h-41l12 66h41q53 0 89 32t36 84q0 37 -22.5 59.5t-64.5 22.5q-55 0 -89 -36t-43 -95l-82 -463h-74l81 463q14 88 71.5 142
t140.5 54q74 0 115 -37.5t41 -98.5q0 -57 -32.5 -98.5t-77.5 -57.5z" />
    <glyph glyph-name="agrave" unicode="&#xe0;" horiz-adv-x="453" 
d="M405 295l-51 -295h-73l5 33q-43 -41 -116 -41q-64 0 -106.5 35t-42.5 92q0 68 56 111t133 43q75 0 111 -38l11 58q2 16 2 24q0 32 -20 51.5t-59 19.5q-71 0 -105 -61h-74q21 57 71.5 91.5t115.5 34.5q68 0 106.5 -35t38.5 -94q0 -12 -3 -29zM299 110l9 46
q-6 24 -33.5 39.5t-64.5 15.5q-46 0 -81.5 -23t-35.5 -65q0 -31 27.5 -49.5t65.5 -18.5q37 0 68.5 15t44.5 40zM320 516h-65l-65 134h73z" />
    <glyph glyph-name="aacute" unicode="&#xe1;" horiz-adv-x="453" 
d="M405 295l-51 -295h-73l5 33q-43 -41 -116 -41q-64 0 -106.5 35t-42.5 92q0 68 56 111t133 43q75 0 111 -38l11 58q2 16 2 24q0 32 -20 51.5t-59 19.5q-71 0 -105 -61h-74q21 57 71.5 91.5t115.5 34.5q68 0 106.5 -35t38.5 -94q0 -12 -3 -29zM299 110l9 46
q-6 24 -33.5 39.5t-64.5 15.5q-46 0 -81.5 -23t-35.5 -65q0 -31 27.5 -49.5t65.5 -18.5q37 0 68.5 15t44.5 40zM319 516h-71l103 134h81z" />
    <glyph glyph-name="acircumflex" unicode="&#xe2;" horiz-adv-x="453" 
d="M341 645l69 -136h-62l-47 88l-77 -88h-68l116 136h69zM405 295l-51 -295h-73l5 33q-43 -41 -116 -41q-64 0 -106.5 35t-42.5 92q0 68 56 111t133 43q75 0 111 -38l11 58q2 16 2 24q0 32 -20 51.5t-59 19.5q-71 0 -105 -61h-74q21 57 71.5 91.5t115.5 34.5q68 0 106.5 -35
t38.5 -94q0 -12 -3 -29zM299 110l9 46q-6 24 -33.5 39.5t-64.5 15.5q-46 0 -81.5 -23t-35.5 -65q0 -31 27.5 -49.5t65.5 -18.5q37 0 68.5 15t44.5 40z" />
    <glyph glyph-name="atilde" unicode="&#xe3;" horiz-adv-x="453" 
d="M405 295l-51 -295h-73l5 33q-43 -41 -116 -41q-64 0 -106.5 35t-42.5 92q0 68 56 111t133 43q75 0 111 -38l11 58q2 16 2 24q0 32 -20 51.5t-59 19.5q-71 0 -105 -61h-74q21 57 71.5 91.5t115.5 34.5q68 0 106.5 -35t38.5 -94q0 -12 -3 -29zM299 110l9 46
q-6 24 -33.5 39.5t-64.5 15.5q-46 0 -81.5 -23t-35.5 -65q0 -31 27.5 -49.5t65.5 -18.5q37 0 68.5 15t44.5 40zM388 633h50q-9 -54 -34 -86t-62 -32q-25 0 -51.5 29t-40.5 29q-33 0 -44 -55h-50q9 54 34 86t62 32q25 0 51.5 -29t40.5 -29q33 0 44 55z" />
    <glyph glyph-name="adieresis" unicode="&#xe4;" horiz-adv-x="453" 
d="M182 571q0 20 13.5 33.5t33.5 13.5q19 0 32.5 -13.5t13.5 -33.5q0 -19 -13.5 -32.5t-32.5 -13.5t-33 13.5t-14 32.5zM323 571q0 20 13 33.5t32 13.5q20 0 33.5 -13.5t13.5 -33.5q0 -19 -14 -32.5t-33 -13.5t-32 13.5t-13 32.5zM405 295l-51 -295h-73l5 33
q-43 -41 -116 -41q-64 0 -106.5 35t-42.5 92q0 68 56 111t133 43q75 0 111 -38l11 58q2 16 2 24q0 32 -20 51.5t-59 19.5q-71 0 -105 -61h-74q21 57 71.5 91.5t115.5 34.5q68 0 106.5 -35t38.5 -94q0 -12 -3 -29zM299 110l9 46q-6 24 -33.5 39.5t-64.5 15.5q-46 0 -81.5 -23
t-35.5 -65q0 -31 27.5 -49.5t65.5 -18.5q37 0 68.5 15t44.5 40z" />
    <glyph glyph-name="aring" unicode="&#xe5;" horiz-adv-x="453" 
d="M405 295l-51 -295h-73l5 33q-43 -41 -116 -41q-64 0 -106.5 35t-42.5 92q0 68 56 111t133 43q75 0 111 -38l11 58q2 16 2 24q0 32 -20 51.5t-59 19.5q-71 0 -105 -61h-74q21 57 71.5 91.5t115.5 34.5q68 0 106.5 -35t38.5 -94q0 -12 -3 -29zM299 110l9 46
q-6 24 -33.5 39.5t-64.5 15.5q-46 0 -81.5 -23t-35.5 -65q0 -31 27.5 -49.5t65.5 -18.5q37 0 68.5 15t44.5 40zM298 535q19 0 33 13.5t14 33.5q0 19 -12.5 31t-30.5 12q-19 0 -33 -13.5t-14 -33.5q0 -19 12.5 -31t30.5 -12zM296 494q-36 0 -59.5 23.5t-23.5 58.5
q0 37 26.5 63.5t64.5 26.5q36 0 59.5 -23.5t23.5 -58.5q0 -37 -26.5 -63.5t-64.5 -26.5z" />
    <glyph glyph-name="ae" unicode="&#xe6;" horiz-adv-x="738" 
d="M613 133h76q-20 -64 -72 -103t-125 -39q-114 0 -153 92q-31 -42 -79 -66.5t-103 -24.5q-60 0 -98 33t-38 89q0 69 56.5 110.5t140.5 41.5h110q6 34 6 49q0 34 -19.5 53.5t-59.5 19.5q-71 0 -105 -61h-74q22 57 72.5 91.5t114.5 34.5q98 0 129 -78q26 35 65.5 56.5
t85.5 21.5q80 0 122.5 -47.5t42.5 -129.5q0 -33 -7 -69h-315q-1 -5 -1 -23q0 -62 29 -95.5t82 -33.5q41 0 72 20.5t45 57.5zM305 136l12 71h-103q-51 0 -86 -21t-35 -66q0 -30 22.5 -47.5t56.5 -17.5q88 0 133 81zM540 389q-53 0 -89.5 -34.5t-53.5 -88.5h237q1 6 1 19
q0 45 -24 74.5t-71 29.5z" />
    <glyph glyph-name="ccedilla" unicode="&#xe7;" horiz-adv-x="446" 
d="M328 134h76q-20 -67 -70.5 -105t-121.5 -38q-82 0 -130 53t-48 142q0 107 64.5 187t166.5 80q73 0 114.5 -38.5t46.5 -104.5h-75q-10 77 -88 77q-70 0 -111 -59t-41 -142q0 -59 28 -94t78 -35q82 0 111 77zM140 -183h-75l89 132h78z" />
    <glyph glyph-name="egrave" unicode="&#xe8;" horiz-adv-x="462" 
d="M338 133h76q-20 -64 -72.5 -103t-124.5 -39q-85 0 -134 53t-49 142q0 105 64 186t170 81q80 0 122.5 -47.5t42.5 -129.5q0 -26 -8 -68h-315q-1 -8 -1 -22q0 -62 29 -96.5t83 -34.5q40 0 71.5 20.5t45.5 57.5zM265 389q-54 0 -91 -34.5t-54 -89.5h239q1 7 1 19
q0 45 -24.5 75t-70.5 30zM322 516h-65l-65 134h73z" />
    <glyph glyph-name="eacute" unicode="&#xe9;" horiz-adv-x="462" 
d="M338 133h76q-20 -64 -72.5 -103t-124.5 -39q-85 0 -134 53t-49 142q0 105 64 186t170 81q80 0 122.5 -47.5t42.5 -129.5q0 -26 -8 -68h-315q-1 -8 -1 -22q0 -62 29 -96.5t83 -34.5q40 0 71.5 20.5t45.5 57.5zM265 389q-54 0 -91 -34.5t-54 -89.5h239q1 7 1 19
q0 45 -24.5 75t-70.5 30zM320 516h-71l103 134h81z" />
    <glyph glyph-name="ecircumflex" unicode="&#xea;" horiz-adv-x="462" 
d="M338 133h76q-20 -64 -72.5 -103t-124.5 -39q-85 0 -134 53t-49 142q0 105 64 186t170 81q80 0 122.5 -47.5t42.5 -129.5q0 -26 -8 -68h-315q-1 -8 -1 -22q0 -62 29 -96.5t83 -34.5q40 0 71.5 20.5t45.5 57.5zM265 389q-54 0 -91 -34.5t-54 -89.5h239q1 7 1 19
q0 45 -24.5 75t-70.5 30zM343 645l69 -136h-62l-47 88l-77 -88h-68l116 136h69z" />
    <glyph glyph-name="edieresis" unicode="&#xeb;" horiz-adv-x="462" 
d="M338 133h76q-20 -64 -72.5 -103t-124.5 -39q-85 0 -134 53t-49 142q0 105 64 186t170 81q80 0 122.5 -47.5t42.5 -129.5q0 -26 -8 -68h-315q-1 -8 -1 -22q0 -62 29 -96.5t83 -34.5q40 0 71.5 20.5t45.5 57.5zM265 389q-54 0 -91 -34.5t-54 -89.5h239q1 7 1 19
q0 45 -24.5 75t-70.5 30zM184 571q0 20 13.5 33.5t33.5 13.5q19 0 32.5 -13.5t13.5 -33.5q0 -19 -13.5 -32.5t-32.5 -13.5t-33 13.5t-14 32.5zM325 571q0 20 13 33.5t32 13.5q20 0 33.5 -13.5t13.5 -33.5q0 -19 -14 -32.5t-33 -13.5t-32 13.5t-13 32.5z" />
    <glyph glyph-name="igrave" unicode="&#xec;" horiz-adv-x="209" 
d="M182 444l-78 -444h-75l78 444h75zM190 516h-65l-65 134h73z" />
    <glyph glyph-name="iacute" unicode="&#xed;" horiz-adv-x="209" 
d="M188 516h-71l103 134h81zM182 444l-78 -444h-75l78 444h75z" />
    <glyph glyph-name="icircumflex" unicode="&#xee;" horiz-adv-x="209" 
d="M213 645l50 -136h-61l-31 85l-59 -85h-66l98 136h69zM182 444l-78 -444h-75l78 444h75z" />
    <glyph glyph-name="idieresis" unicode="&#xef;" horiz-adv-x="209" 
d="M60 571q0 20 13 33.5t33 13.5t33 -13.5t13 -33.5q0 -19 -13.5 -32.5t-32.5 -13.5t-32.5 13.5t-13.5 32.5zM184 571q0 20 13 33.5t33 13.5q19 0 32.5 -13.5t13.5 -33.5q0 -19 -13.5 -32.5t-32.5 -13.5t-32.5 13.5t-13.5 32.5zM182 444l-78 -444h-75l78 444h75z" />
    <glyph glyph-name="eth" unicode="&#xf0;" horiz-adv-x="478" 
d="M197 496l-17 45l85 28q-30 36 -80 77v4h87q30 -24 60 -58l85 28l15 -46l-69 -23q81 -124 81 -269q0 -130 -65.5 -210.5t-161.5 -80.5q-86 0 -134.5 52.5t-48.5 140.5q0 115 65 192t157 77q70 0 99 -41h4q-17 55 -62 117zM217 57q66 0 108.5 57t42.5 146q0 58 -28.5 92.5
t-78.5 34.5q-65 0 -108 -57t-43 -146q0 -58 28.5 -92.5t78.5 -34.5z" />
    <glyph glyph-name="ntilde" unicode="&#xf1;" horiz-adv-x="489" 
d="M29 0l78 444h75l-10 -57q57 66 142 66q62 0 96.5 -35t34.5 -93q0 -16 -3 -34l-51 -291h-76l49 279q3 16 3 29q0 76 -80 76q-39 0 -75 -24t-55 -60l-53 -300h-75zM404 633h50q-9 -54 -34 -86t-62 -32q-25 0 -51.5 29t-40.5 29q-33 0 -44 -55h-50q9 54 34 86t62 32
q25 0 51.5 -29t40.5 -29q33 0 44 55z" />
    <glyph glyph-name="ograve" unicode="&#xf2;" horiz-adv-x="478" 
d="M217 57q66 0 108.5 57t42.5 146q0 58 -28.5 92.5t-78.5 34.5q-65 0 -108 -57t-43 -146q0 -58 28.5 -92.5t78.5 -34.5zM217 -9q-86 0 -134.5 52.5t-48.5 140.5q0 116 66 192.5t162 76.5q85 0 133.5 -52.5t48.5 -140.5q0 -116 -66 -192.5t-161 -76.5zM320 516h-65l-65 134
h73z" />
    <glyph glyph-name="oacute" unicode="&#xf3;" horiz-adv-x="478" 
d="M319 516h-71l103 134h81zM217 57q66 0 108.5 57t42.5 146q0 58 -28.5 92.5t-78.5 34.5q-65 0 -108 -57t-43 -146q0 -58 28.5 -92.5t78.5 -34.5zM217 -9q-86 0 -134.5 52.5t-48.5 140.5q0 116 66 192.5t162 76.5q85 0 133.5 -52.5t48.5 -140.5q0 -116 -66 -192.5
t-161 -76.5z" />
    <glyph glyph-name="ocircumflex" unicode="&#xf4;" horiz-adv-x="478" 
d="M342 645l69 -136h-62l-47 88l-77 -88h-68l116 136h69zM217 57q66 0 108.5 57t42.5 146q0 58 -28.5 92.5t-78.5 34.5q-65 0 -108 -57t-43 -146q0 -58 28.5 -92.5t78.5 -34.5zM217 -9q-86 0 -134.5 52.5t-48.5 140.5q0 116 66 192.5t162 76.5q85 0 133.5 -52.5t48.5 -140.5
q0 -116 -66 -192.5t-161 -76.5z" />
    <glyph glyph-name="otilde" unicode="&#xf5;" horiz-adv-x="478" 
d="M217 57q66 0 108.5 57t42.5 146q0 58 -28.5 92.5t-78.5 34.5q-65 0 -108 -57t-43 -146q0 -58 28.5 -92.5t78.5 -34.5zM217 -9q-86 0 -134.5 52.5t-48.5 140.5q0 116 66 192.5t162 76.5q85 0 133.5 -52.5t48.5 -140.5q0 -116 -66 -192.5t-161 -76.5zM391 633h50
q-9 -54 -34 -86t-62 -32q-25 0 -51.5 29t-40.5 29q-33 0 -44 -55h-50q9 54 34 86t62 32q25 0 51.5 -29t40.5 -29q33 0 44 55z" />
    <glyph glyph-name="odieresis" unicode="&#xf6;" horiz-adv-x="478" 
d="M182 571q0 20 13.5 33.5t33.5 13.5q19 0 32.5 -13.5t13.5 -33.5q0 -19 -13.5 -32.5t-32.5 -13.5t-33 13.5t-14 32.5zM323 571q0 20 13 33.5t32 13.5q20 0 33.5 -13.5t13.5 -33.5q0 -19 -14 -32.5t-33 -13.5t-32 13.5t-13 32.5zM217 57q66 0 108.5 57t42.5 146
q0 58 -28.5 92.5t-78.5 34.5q-65 0 -108 -57t-43 -146q0 -58 28.5 -92.5t78.5 -34.5zM217 -9q-86 0 -134.5 52.5t-48.5 140.5q0 116 66 192.5t162 76.5q85 0 133.5 -52.5t48.5 -140.5q0 -116 -66 -192.5t-161 -76.5z" />
    <glyph glyph-name="divide" unicode="&#xf7;" horiz-adv-x="540" 
d="M79 266l11 62h395l-11 -62h-395zM260 458q0 21 15 36t35 15q21 0 36 -15t15 -36t-15 -36t-36 -15q-20 0 -35 15t-15 36zM204 136q0 21 14.5 36t35.5 15t36 -15t15 -36t-15 -36t-36 -15t-35.5 15t-14.5 36z" />
    <glyph glyph-name="oslash" unicode="&#xf8;" horiz-adv-x="488" 
d="M28 -5l50 60q-39 49 -39 129q0 116 66 192.5t162 76.5q67 0 112 -34l46 56l39 -29l-51 -62q36 -50 36 -124q0 -116 -66 -192.5t-161 -76.5q-65 0 -110 31l-46 -56zM112 184q0 -44 14 -71l209 253q-26 23 -69 23q-65 0 -109.5 -58.5t-44.5 -146.5zM222 55q66 0 110 58
t44 147q0 38 -12 66l-208 -251q26 -20 66 -20z" />
    <glyph glyph-name="ugrave" unicode="&#xf9;" horiz-adv-x="487" 
d="M459 444l-78 -444h-76l10 56q-57 -65 -142 -65q-61 0 -94.5 34.5t-33.5 92.5q0 17 3 35l51 291h75l-49 -282q-3 -17 -3 -31q0 -74 78 -74q39 0 75 24.5t55 61.5l53 301h76zM323 516h-65l-65 134h73z" />
    <glyph glyph-name="uacute" unicode="&#xfa;" horiz-adv-x="487" 
d="M321 516h-71l103 134h81zM459 444l-78 -444h-76l10 56q-57 -65 -142 -65q-61 0 -94.5 34.5t-33.5 92.5q0 17 3 35l51 291h75l-49 -282q-3 -17 -3 -31q0 -74 78 -74q39 0 75 24.5t55 61.5l53 301h76z" />
    <glyph glyph-name="ucircumflex" unicode="&#xfb;" horiz-adv-x="487" 
d="M345 645l69 -136h-62l-47 88l-77 -88h-68l116 136h69zM459 444l-78 -444h-76l10 56q-57 -65 -142 -65q-61 0 -94.5 34.5t-33.5 92.5q0 17 3 35l51 291h75l-49 -282q-3 -17 -3 -31q0 -74 78 -74q39 0 75 24.5t55 61.5l53 301h76z" />
    <glyph glyph-name="udieresis" unicode="&#xfc;" horiz-adv-x="487" 
d="M185 571q0 20 13.5 33.5t33.5 13.5q19 0 32.5 -13.5t13.5 -33.5q0 -19 -13.5 -32.5t-32.5 -13.5t-33 13.5t-14 32.5zM326 571q0 20 13 33.5t32 13.5q20 0 33.5 -13.5t13.5 -33.5q0 -19 -14 -32.5t-33 -13.5t-32 13.5t-13 32.5zM459 444l-78 -444h-76l10 56
q-57 -65 -142 -65q-61 0 -94.5 34.5t-33.5 92.5q0 17 3 35l51 291h75l-49 -282q-3 -17 -3 -31q0 -74 78 -74q39 0 75 24.5t55 61.5l53 301h76z" />
    <glyph glyph-name="yacute" unicode="&#xfd;" horiz-adv-x="455" 
d="M107 -170h-76l103 175l-76 439h74l60 -349l203 349h82zM300 516h-71l103 134h81z" />
    <glyph glyph-name="thorn" unicode="&#xfe;" horiz-adv-x="504" 
d="M114 53l-40 -223h-75l144 820h75l-46 -261q55 64 133 64q80 0 122 -52.5t42 -137.5q0 -112 -66.5 -192t-168.5 -80q-43 0 -74.5 18t-45.5 44zM158 307l-31 -175q25 -73 105 -73q75 0 118 59.5t43 144.5q0 55 -27 88.5t-77 33.5q-76 0 -131 -78z" />
    <glyph glyph-name="ydieresis" unicode="&#xff;" horiz-adv-x="455" 
d="M107 -170h-76l103 175l-76 439h74l60 -349l203 349h82zM164 571q0 20 13.5 33.5t33.5 13.5q19 0 32.5 -13.5t13.5 -33.5q0 -19 -13.5 -32.5t-32.5 -13.5t-33 13.5t-14 32.5zM305 571q0 20 13 33.5t32 13.5q20 0 33.5 -13.5t13.5 -33.5q0 -19 -14 -32.5t-33 -13.5
t-32 13.5t-13 32.5z" />
    <glyph glyph-name="Amacron" unicode="&#x100;" horiz-adv-x="596" 
d="M341 614h75l124 -614h-78l-36 186h-252l-106 -186h-82zM362 516l-150 -262h201zM278 671l11 61h214l-11 -61h-214z" />
    <glyph glyph-name="amacron" unicode="&#x101;" horiz-adv-x="453" 
d="M405 295l-51 -295h-73l5 33q-43 -41 -116 -41q-64 0 -106.5 35t-42.5 92q0 68 56 111t133 43q75 0 111 -38l11 58q2 16 2 24q0 32 -20 51.5t-59 19.5q-71 0 -105 -61h-74q21 57 71.5 91.5t115.5 34.5q68 0 106.5 -35t38.5 -94q0 -12 -3 -29zM299 110l9 46
q-6 24 -33.5 39.5t-64.5 15.5q-46 0 -81.5 -23t-35.5 -65q0 -31 27.5 -49.5t65.5 -18.5q37 0 68.5 15t44.5 40zM183 530l11 61h214l-11 -61h-214z" />
    <glyph glyph-name="Abreve" unicode="&#x102;" horiz-adv-x="596" 
d="M341 614h75l124 -614h-78l-36 186h-252l-106 -186h-82zM362 516l-150 -262h201zM388 666q-50 0 -78.5 32t-18.5 88h57q-6 -31 7 -47.5t40 -16.5q58 0 70 64h57q-22 -120 -134 -120z" />
    <glyph glyph-name="abreve" unicode="&#x103;" horiz-adv-x="453" 
d="M405 295l-51 -295h-73l5 33q-43 -41 -116 -41q-64 0 -106.5 35t-42.5 92q0 68 56 111t133 43q75 0 111 -38l11 58q2 16 2 24q0 32 -20 51.5t-59 19.5q-71 0 -105 -61h-74q21 57 71.5 91.5t115.5 34.5q68 0 106.5 -35t38.5 -94q0 -12 -3 -29zM299 110l9 46
q-6 24 -33.5 39.5t-64.5 15.5q-46 0 -81.5 -23t-35.5 -65q0 -31 27.5 -49.5t65.5 -18.5q37 0 68.5 15t44.5 40zM288 500q-50 0 -78 34t-17 94h57q-6 -34 5.5 -53.5t38.5 -19.5q55 0 70 73h57q-11 -62 -46 -95t-87 -33z" />
    <glyph glyph-name="Aogonek" unicode="&#x104;" horiz-adv-x="596" 
d="M341 614h75l124 -614q-6 -8 -17.5 -23t-16 -21t-12 -16.5t-10 -16t-6.5 -12.5t-5 -12.5t-1 -11.5q0 -19 18 -19q14 0 40 15l-9 -50q-28 -19 -55 -19t-41.5 14t-14.5 38q0 11 3.5 23.5t6.5 20.5t13 22.5t14 20t18.5 24t18.5 23.5h-22l-36 186h-252l-106 -186h-82zM362 516
l-150 -262h201z" />
    <glyph glyph-name="aogonek" unicode="&#x105;" horiz-adv-x="453" 
d="M299 110l9 46q-6 24 -33.5 39.5t-64.5 15.5q-46 0 -81.5 -23t-35.5 -65q0 -31 27.5 -49.5t65.5 -18.5q37 0 68.5 15t44.5 40zM281 0l5 33q-43 -41 -116 -41q-64 0 -106.5 35t-42.5 92q0 68 56 111t133 43q75 0 111 -38l11 58q2 16 2 24q0 32 -20 51.5t-59 19.5
q-71 0 -105 -61h-74q21 57 71.5 91.5t115.5 34.5q68 0 106.5 -35t38.5 -94q0 -12 -3 -29l-51 -295q-7 -10 -17.5 -23.5t-16 -20.5t-12.5 -17t-10.5 -15.5t-6.5 -12.5t-4.5 -12.5t-1.5 -11.5q0 -19 18 -19q16 0 40 15l-9 -50q-28 -19 -54 -19q-27 0 -41.5 14t-14.5 38
q0 11 3.5 23.5t6.5 20.5t13 22.5t14 20t18.5 24t18.5 23.5h-17z" />
    <glyph glyph-name="Cacute" unicode="&#x106;" horiz-adv-x="589" 
d="M50 264q0 144 86 251.5t222 107.5q94 0 153 -51.5t69 -137.5h-78q-12 54 -49 86t-95 32q-102 0 -165 -84t-63 -204q0 -90 46.5 -146t123.5 -56q122 0 173 119h78q-27 -88 -93 -139t-158 -51q-111 0 -180.5 75.5t-69.5 197.5zM412 668h-79l100 117h90z" />
    <glyph glyph-name="cacute" unicode="&#x107;" horiz-adv-x="446" 
d="M317 516h-71l103 134h81zM328 134h76q-20 -67 -70.5 -105t-121.5 -38q-82 0 -130 53t-48 142q0 107 64.5 187t166.5 80q73 0 114.5 -38.5t46.5 -104.5h-75q-10 77 -88 77q-70 0 -111 -59t-41 -142q0 -59 28 -94t78 -35q82 0 111 77z" />
    <glyph glyph-name="Ccircumflex" unicode="&#x108;" horiz-adv-x="589" 
d="M50 264q0 144 86 251.5t222 107.5q94 0 153 -51.5t69 -137.5h-78q-12 54 -49 86t-95 32q-102 0 -165 -84t-63 -204q0 -90 46.5 -146t123.5 -56q122 0 173 119h78q-27 -88 -93 -139t-158 -51q-111 0 -180.5 75.5t-69.5 197.5zM435 791l71 -122h-65l-47 71l-70 -71h-72
l114 122h69z" />
    <glyph glyph-name="ccircumflex" unicode="&#x109;" horiz-adv-x="446" 
d="M340 645l69 -136h-62l-47 88l-77 -88h-68l116 136h69zM328 134h76q-20 -67 -70.5 -105t-121.5 -38q-82 0 -130 53t-48 142q0 107 64.5 187t166.5 80q73 0 114.5 -38.5t46.5 -104.5h-75q-10 77 -88 77q-70 0 -111 -59t-41 -142q0 -59 28 -94t78 -35q82 0 111 77z" />
    <glyph glyph-name="Cdotaccent" unicode="&#x10a;" horiz-adv-x="589" 
d="M439 721q0 -19 -14.5 -33.5t-33.5 -14.5t-33.5 14.5t-14.5 33.5q0 20 14 34.5t34 14.5t34 -14.5t14 -34.5zM50 264q0 144 86 251.5t222 107.5q94 0 153 -51.5t69 -137.5h-78q-12 54 -49 86t-95 32q-102 0 -165 -84t-63 -204q0 -90 46.5 -146t123.5 -56q122 0 173 119h78
q-27 -88 -93 -139t-158 -51q-111 0 -180.5 75.5t-69.5 197.5z" />
    <glyph glyph-name="cdotaccent" unicode="&#x10b;" horiz-adv-x="446" 
d="M328 134h76q-20 -67 -70.5 -105t-121.5 -38q-82 0 -130 53t-48 142q0 107 64.5 187t166.5 80q73 0 114.5 -38.5t46.5 -104.5h-75q-10 77 -88 77q-70 0 -111 -59t-41 -142q0 -59 28 -94t78 -35q82 0 111 77zM346 578q0 -20 -14 -34t-34 -14t-34 14t-14 34t14 34t34 14
t34 -14t14 -34z" />
    <glyph glyph-name="Ccaron" unicode="&#x10c;" horiz-adv-x="589" 
d="M349 666l-71 121h65l47 -71l70 71h72l-114 -121h-69zM50 264q0 144 86 251.5t222 107.5q94 0 153 -51.5t69 -137.5h-78q-12 54 -49 86t-95 32q-102 0 -165 -84t-63 -204q0 -90 46.5 -146t123.5 -56q122 0 173 119h78q-27 -88 -93 -139t-158 -51q-111 0 -180.5 75.5
t-69.5 197.5z" />
    <glyph glyph-name="ccaron" unicode="&#x10d;" horiz-adv-x="446" 
d="M253 510l-69 136h62l47 -88l77 88h68l-116 -136h-69zM328 134h76q-20 -67 -70.5 -105t-121.5 -38q-82 0 -130 53t-48 142q0 107 64.5 187t166.5 80q73 0 114.5 -38.5t46.5 -104.5h-75q-10 77 -88 77q-70 0 -111 -59t-41 -142q0 -59 28 -94t78 -35q82 0 111 77z" />
    <glyph glyph-name="Dcaron" unicode="&#x10e;" horiz-adv-x="608" 
d="M327 666l-71 121h65l47 -71l70 71h72l-114 -121h-69zM129 71h118q118 0 190 79.5t72 205.5q0 89 -47 138.5t-138 49.5h-111zM39 0l108 614h187q122 0 188 -68.5t66 -189.5q0 -153 -98 -254.5t-253 -101.5h-198z" />
    <glyph glyph-name="dcaron" unicode="&#x10f;" horiz-adv-x="504" 
d="M593 486h-63l77 164h64zM390 391l45 259h76l-114 -650h-76l11 55q-55 -64 -133 -64q-80 0 -122.5 52.5t-42.5 137.5q0 109 67.5 190.5t168.5 81.5q43 0 74.5 -18t45.5 -44zM346 137l30 175q-24 73 -104 73q-74 0 -118 -62t-44 -142q0 -55 27.5 -88.5t77.5 -33.5
q76 0 131 78z" />
    <glyph glyph-name="Dcroat" unicode="&#x110;" horiz-adv-x="621" 
d="M45 284l11 67h58l46 263h187q122 0 188 -68.5t66 -189.5q0 -153 -98 -254.5t-253 -101.5h-198l50 284h-57zM142 71h118q118 0 190 79.5t72 205.5q0 89 -47 138.5t-138 49.5h-111l-34 -193h122l-11 -67h-123z" />
    <glyph glyph-name="dcroat" unicode="&#x111;" horiz-adv-x="504" 
d="M303 511l9 54h108l15 85h76l-15 -85h57l-10 -54h-57l-89 -511h-76l11 55q-55 -64 -133 -64q-80 0 -122.5 52.5t-42.5 137.5q0 109 67.5 190.5t168.5 81.5q43 0 74.5 -18t45.5 -44l21 120h-108zM346 137l30 175q-24 73 -104 73q-74 0 -118 -62t-44 -142q0 -55 27.5 -88.5
t77.5 -33.5q76 0 131 78z" />
    <glyph glyph-name="Emacron" unicode="&#x112;" horiz-adv-x="515" 
d="M248 671l11 61h214l-11 -61h-214zM147 614h391l-13 -70h-314l-34 -194h285l-12 -70h-285l-37 -209h314l-12 -71h-391z" />
    <glyph glyph-name="emacron" unicode="&#x113;" horiz-adv-x="462" 
d="M338 133h76q-20 -64 -72.5 -103t-124.5 -39q-85 0 -134 53t-49 142q0 105 64 186t170 81q80 0 122.5 -47.5t42.5 -129.5q0 -26 -8 -68h-315q-1 -8 -1 -22q0 -62 29 -96.5t83 -34.5q40 0 71.5 20.5t45.5 57.5zM265 389q-54 0 -91 -34.5t-54 -89.5h239q1 7 1 19
q0 45 -24.5 75t-70.5 30zM183 530l11 61h214l-11 -61h-214z" />
    <glyph glyph-name="Ebreve" unicode="&#x114;" horiz-adv-x="515" 
d="M357 666q-50 0 -78.5 32t-18.5 88h57q-6 -31 7 -47.5t40 -16.5q58 0 70 64h57q-22 -120 -134 -120zM147 614h391l-13 -70h-314l-34 -194h285l-12 -70h-285l-37 -209h314l-12 -71h-391z" />
    <glyph glyph-name="ebreve" unicode="&#x115;" horiz-adv-x="462" 
d="M338 133h76q-20 -64 -72.5 -103t-124.5 -39q-85 0 -134 53t-49 142q0 105 64 186t170 81q80 0 122.5 -47.5t42.5 -129.5q0 -26 -8 -68h-315q-1 -8 -1 -22q0 -62 29 -96.5t83 -34.5q40 0 71.5 20.5t45.5 57.5zM265 389q-54 0 -91 -34.5t-54 -89.5h239q1 7 1 19
q0 45 -24.5 75t-70.5 30zM288 500q-50 0 -78 34t-17 94h57q-6 -34 5.5 -53.5t38.5 -19.5q55 0 70 73h57q-11 -62 -46 -95t-87 -33z" />
    <glyph glyph-name="Edotaccent" unicode="&#x116;" horiz-adv-x="515" 
d="M411 721q0 -19 -14.5 -33.5t-33.5 -14.5t-33.5 14.5t-14.5 33.5q0 20 14 34.5t34 14.5t34 -14.5t14 -34.5zM147 614h391l-13 -70h-314l-34 -194h285l-12 -70h-285l-37 -209h314l-12 -71h-391z" />
    <glyph glyph-name="edotaccent" unicode="&#x117;" horiz-adv-x="462" 
d="M338 133h76q-20 -64 -72.5 -103t-124.5 -39q-85 0 -134 53t-49 142q0 105 64 186t170 81q80 0 122.5 -47.5t42.5 -129.5q0 -26 -8 -68h-315q-1 -8 -1 -22q0 -62 29 -96.5t83 -34.5q40 0 71.5 20.5t45.5 57.5zM265 389q-54 0 -91 -34.5t-54 -89.5h239q1 7 1 19
q0 45 -24.5 75t-70.5 30zM349 578q0 -20 -14.5 -34t-33.5 -14t-33.5 14t-14.5 34t14 34t34 14t34 -14t14 -34z" />
    <glyph glyph-name="Eogonek" unicode="&#x118;" horiz-adv-x="515" 
d="M147 614h391l-13 -70h-314l-34 -194h285l-12 -70h-285l-37 -209h314l-12 -71h-38q-9 -13 -23.5 -32t-20.5 -27t-13 -19t-9.5 -19t-2.5 -16q0 -19 18 -19q16 0 40 15l-9 -50q-28 -19 -54 -19q-27 0 -41.5 14t-14.5 38q0 11 3.5 23.5t6.5 20.5t13 22.5t14 20t18.5 24
t18.5 23.5h-297z" />
    <glyph glyph-name="eogonek" unicode="&#x119;" horiz-adv-x="462" 
d="M338 133h76q-16 -46 -62 -98q-96 -107 -96 -148q0 -19 18 -19q14 0 40 15l-9 -50q-28 -19 -55 -19t-41.5 14t-14.5 38q0 31 17.5 61t52.5 71q-21 -7 -47 -7q-85 0 -134 53t-49 142q0 105 64 186t170 81q80 0 122.5 -47.5t42.5 -129.5q0 -26 -8 -68h-315q-1 -5 -1 -22
q0 -62 29 -96.5t83 -34.5q40 0 71.5 20.5t45.5 57.5zM265 389q-54 0 -91 -34.5t-53 -89.5h238q1 7 1 19q0 45 -24.5 75t-70.5 30z" />
    <glyph glyph-name="Ecaron" unicode="&#x11a;" horiz-adv-x="515" 
d="M321 666l-71 121h65l47 -71l70 71h72l-114 -121h-69zM147 614h391l-13 -70h-314l-34 -194h285l-12 -70h-285l-37 -209h314l-12 -71h-391z" />
    <glyph glyph-name="ecaron" unicode="&#x11b;" horiz-adv-x="462" 
d="M338 133h76q-20 -64 -72.5 -103t-124.5 -39q-85 0 -134 53t-49 142q0 105 64 186t170 81q80 0 122.5 -47.5t42.5 -129.5q0 -26 -8 -68h-315q-1 -8 -1 -22q0 -62 29 -96.5t83 -34.5q40 0 71.5 20.5t45.5 57.5zM265 389q-54 0 -91 -34.5t-54 -89.5h239q1 7 1 19
q0 45 -24.5 75t-70.5 30zM253 510l-69 136h62l47 -88l77 88h68l-116 -136h-69z" />
    <glyph glyph-name="Gcircumflex" unicode="&#x11c;" horiz-adv-x="611" 
d="M440 791l71 -122h-65l-47 71l-70 -71h-72l114 122h69zM305 -9q-114 0 -184.5 75t-70.5 198q0 93 37.5 174.5t109.5 133t163 51.5q96 0 157.5 -51t71.5 -138h-76q-13 55 -52.5 86.5t-100.5 31.5q-103 0 -166.5 -84t-63.5 -204q0 -90 47 -146t128 -56q77 0 131 47.5
t68 125.5h-146l13 68h218l-10 -60q-19 -113 -92.5 -182.5t-181.5 -69.5z" />
    <glyph glyph-name="gcircumflex" unicode="&#x11d;" horiz-adv-x="503" 
d="M364 645l69 -136h-62l-47 88l-77 -88h-68l116 136h69zM326 28l8 39q-55 -64 -133 -64q-80 0 -123 52t-43 135q0 105 67 184t168 79q43 0 74.5 -18t45.5 -43l9 52h76l-74 -417q-17 -100 -74.5 -153.5t-145.5 -53.5q-79 0 -126 40t-49 107h74q2 -41 29 -62t72 -21
q119 0 145 144zM348 148l29 166q-11 33 -39 52.5t-66 19.5q-74 0 -117.5 -59t-43.5 -137q0 -54 28 -86.5t78 -32.5q75 0 131 77z" />
    <glyph glyph-name="Gbreve" unicode="&#x11e;" horiz-adv-x="611" 
d="M390 666q-50 0 -78.5 32t-18.5 88h57q-6 -31 7 -47.5t40 -16.5q58 0 70 64h57q-22 -120 -134 -120zM305 -9q-114 0 -184.5 75t-70.5 198q0 93 37.5 174.5t109.5 133t163 51.5q96 0 157.5 -51t71.5 -138h-76q-13 55 -52.5 86.5t-100.5 31.5q-103 0 -166.5 -84t-63.5 -204
q0 -90 47 -146t128 -56q77 0 131 47.5t68 125.5h-146l13 68h218l-10 -60q-19 -113 -92.5 -182.5t-181.5 -69.5z" />
    <glyph glyph-name="gbreve" unicode="&#x11f;" horiz-adv-x="503" 
d="M326 28l8 39q-55 -64 -133 -64q-80 0 -123 52t-43 135q0 105 67 184t168 79q43 0 74.5 -18t45.5 -43l9 52h76l-74 -417q-17 -100 -74.5 -153.5t-145.5 -53.5q-79 0 -126 40t-49 107h74q2 -41 29 -62t72 -21q119 0 145 144zM348 148l29 166q-11 33 -39 52.5t-66 19.5
q-74 0 -117.5 -59t-43.5 -137q0 -54 28 -86.5t78 -32.5q75 0 131 77zM310 500q-50 0 -78 34t-17 94h57q-6 -34 5.5 -53.5t38.5 -19.5q55 0 70 73h57q-11 -62 -46 -95t-87 -33z" />
    <glyph glyph-name="Gdotaccent" unicode="&#x120;" horiz-adv-x="611" 
d="M447 721q0 -19 -14.5 -33.5t-33.5 -14.5t-33.5 14.5t-14.5 33.5q0 20 14 34.5t34 14.5t34 -14.5t14 -34.5zM305 -9q-114 0 -184.5 75t-70.5 198q0 93 37.5 174.5t109.5 133t163 51.5q96 0 157.5 -51t71.5 -138h-76q-13 55 -52.5 86.5t-100.5 31.5q-103 0 -166.5 -84
t-63.5 -204q0 -90 47 -146t128 -56q77 0 131 47.5t68 125.5h-146l13 68h218l-10 -60q-19 -113 -92.5 -182.5t-181.5 -69.5z" />
    <glyph glyph-name="gdotaccent" unicode="&#x121;" horiz-adv-x="503" 
d="M369 578q0 -20 -14.5 -34t-33.5 -14t-33.5 14t-14.5 34t14 34t34 14t34 -14t14 -34zM326 28l8 39q-55 -64 -133 -64q-80 0 -123 52t-43 135q0 105 67 184t168 79q43 0 74.5 -18t45.5 -43l9 52h76l-74 -417q-17 -100 -74.5 -153.5t-145.5 -53.5q-79 0 -126 40t-49 107h74
q2 -41 29 -62t72 -21q119 0 145 144zM348 148l29 166q-11 33 -39 52.5t-66 19.5q-74 0 -117.5 -59t-43.5 -137q0 -54 28 -86.5t78 -32.5q75 0 131 77z" />
    <glyph glyph-name="Gcommaaccent" unicode="&#x122;" horiz-adv-x="611" 
d="M207 -201l46 62q-34 9 -34 44q0 22 14 36t35 14t35 -14t14 -38q0 -27 -25 -58l-34 -46h-51zM305 -9q-114 0 -184.5 75t-70.5 198q0 93 37.5 174.5t109.5 133t163 51.5q96 0 157.5 -51t71.5 -138h-76q-13 55 -52.5 86.5t-100.5 31.5q-103 0 -166.5 -84t-63.5 -204
q0 -90 47 -146t128 -56q77 0 131 47.5t68 125.5h-146l13 68h218l-10 -60q-19 -113 -92.5 -182.5t-181.5 -69.5z" />
    <glyph glyph-name="gcommaaccent" unicode="&#x123;" horiz-adv-x="503" 
d="M383 680l-49 -65q34 -9 34 -45q0 -21 -14 -35t-35 -14t-35 14t-14 38q0 26 25 57l37 50h51zM326 28l8 39q-55 -64 -133 -64q-80 0 -123 52t-43 135q0 105 67 184t168 79q43 0 74.5 -18t45.5 -43l9 52h76l-74 -417q-17 -100 -74.5 -153.5t-145.5 -53.5q-79 0 -126 40
t-49 107h74q2 -41 29 -62t72 -21q119 0 145 144zM348 148l29 166q-11 33 -39 52.5t-66 19.5q-74 0 -117.5 -59t-43.5 -137q0 -54 28 -86.5t78 -32.5q75 0 131 77z" />
    <glyph glyph-name="Hcircumflex" unicode="&#x124;" horiz-adv-x="651" 
d="M573 614h78l-108 -614h-78l49 280h-348l-49 -280h-78l108 614h78l-47 -263h348zM462 791l71 -122h-65l-47 71l-70 -71h-72l114 122h69z" />
    <glyph glyph-name="hcircumflex" unicode="&#x125;" horiz-adv-x="489" 
d="M314 453q62 0 96.5 -35t34.5 -93q0 -16 -3 -34l-51 -291h-76l49 279q3 16 3 29q0 76 -80 76q-39 0 -75 -24t-55 -60l-53 -300h-75l114 650h75l-46 -263q57 66 142 66zM351 798l71 -122h-65l-47 71l-70 -71h-72l114 122h69z" />
    <glyph glyph-name="Hbar" unicode="&#x126;" horiz-adv-x="679" 
d="M586 614h79l-21 -118h57l-12 -66h-57l-75 -430h-79l45 256h-348l-45 -256h-78l75 430h-56l11 66h57l21 118h78l-21 -118h348zM187 321h347l19 109h-347z" />
    <glyph glyph-name="hbar" unicode="&#x127;" horiz-adv-x="489" 
d="M62 511l9 54h57l15 85h75l-15 -85h108l-9 -54h-109l-21 -124q57 66 142 66q62 0 96.5 -35t34.5 -93q0 -16 -3 -34l-51 -291h-76l49 279q3 16 3 29q0 76 -80 76q-39 0 -75 -24t-55 -60l-53 -300h-75l89 511h-56z" />
    <glyph glyph-name="Itilde" unicode="&#x128;" horiz-adv-x="225" 
d="M225 614l-108 -614h-78l108 614h78zM297 785h50q-9 -54 -34 -86t-62 -32q-25 0 -51.5 29t-40.5 29q-33 0 -44 -55h-50q9 54 34 86t62 32q25 0 51.5 -29t40.5 -29q33 0 44 55z" />
    <glyph glyph-name="itilde" unicode="&#x129;" horiz-adv-x="209" 
d="M238 633h50q-9 -54 -32 -86t-53 -32q-17 0 -29 14t-21.5 28t-19.5 14q-25 0 -36 -53h-50q10 54 32.5 86t52.5 32q17 0 29.5 -14t22 -28t18.5 -14q25 0 36 53zM182 444l-78 -444h-75l78 444h75z" />
    <glyph glyph-name="Imacron" unicode="&#x12a;" horiz-adv-x="225" 
d="M225 614l-108 -614h-78l108 614h78zM89 671l11 61h214l-11 -61h-214z" />
    <glyph glyph-name="imacron" unicode="&#x12b;" horiz-adv-x="209" 
d="M70 530l11 61h178l-10 -61h-179zM182 444l-78 -444h-75l78 444h75z" />
    <glyph glyph-name="Ibreve" unicode="&#x12c;" horiz-adv-x="225" 
d="M225 614l-108 -614h-78l108 614h78zM198 666q-50 0 -78.5 32t-18.5 88h57q-6 -31 7 -47.5t40 -16.5q58 0 70 64h57q-22 -120 -134 -120z" />
    <glyph glyph-name="ibreve" unicode="&#x12d;" horiz-adv-x="209" 
d="M156 500q-47 0 -70 34t-11 94h54q-13 -73 33 -73q45 0 60 73h56q-11 -61 -43.5 -94.5t-78.5 -33.5zM182 444l-78 -444h-75l78 444h75z" />
    <glyph glyph-name="Iogonek" unicode="&#x12e;" horiz-adv-x="225" 
d="M225 614l-108 -614q-8 -11 -20 -27t-17.5 -23.5t-13 -18t-10 -17t-5 -13.5t-2.5 -14q0 -19 18 -19q15 0 40 15l-9 -50q-28 -19 -55 -19t-41.5 14t-14.5 38q0 11 3.5 23.5t6.5 20.5t13 22.5t14 20t18.5 24t18.5 23.5h-22l108 614h78z" />
    <glyph glyph-name="iogonek" unicode="&#x12f;" horiz-adv-x="209" 
d="M217 578q0 -20 -14.5 -34t-34.5 -14t-34 14t-14 34t14 34t34 14t34.5 -14t14.5 -34zM29 0l78 444h75l-78 -444q-8 -11 -20 -27t-17.5 -23.5t-13 -18t-10 -17t-5 -13.5t-2.5 -14q0 -19 18 -19q14 0 40 15l-9 -50q-28 -19 -54 -19q-27 0 -42 14t-15 38q0 14 3 26.5t12.5 28
t15 23t22 29t21.5 27.5h-19z" />
    <glyph glyph-name="Idotaccent" unicode="&#x130;" horiz-adv-x="225" 
d="M225 614l-108 -614h-78l108 614h78zM253 721q0 -19 -14.5 -33.5t-33.5 -14.5t-33.5 14.5t-14.5 33.5q0 20 14 34.5t34 14.5t34 -14.5t14 -34.5z" />
    <glyph glyph-name="dotlessi" unicode="&#x131;" horiz-adv-x="209" 
d="M182 444l-78 -444h-75l78 444h75z" />
    <glyph glyph-name="IJ" unicode="&#x132;" horiz-adv-x="712" 
d="M225 614l-108 -614h-78l108 614h78zM248 187h80q-1 -8 -1 -12q0 -51 27.5 -81.5t80.5 -30.5q113 0 138 147l71 404h79l-72 -413q-18 -99 -75 -154.5t-141 -55.5q-87 0 -137.5 48t-50.5 128z" />
    <glyph glyph-name="ij" unicode="&#x133;" horiz-adv-x="417" 
d="M182 444l-78 -444h-75l78 444h75zM217 578q0 -20 -14.5 -34t-34.5 -14t-34 14t-14 34t14 34t34 14t34.5 -14t14.5 -34zM116 -168l12 66q15 -12 38 -12q27 0 41.5 15.5t21.5 52.5l87 490h75l-87 -495q-23 -128 -136 -128q-32 0 -52 11zM426 578q0 -20 -14.5 -34t-34.5 -14
q-19 0 -33.5 14t-14.5 34t14 34t34 14t34.5 -14t14.5 -34z" />
    <glyph glyph-name="Jcircumflex" unicode="&#x134;" horiz-adv-x="487" 
d="M23 187h80q-1 -8 -1 -12q0 -51 27.5 -81.5t80.5 -30.5q113 0 138 147l71 404h79l-72 -413q-18 -99 -75 -154.5t-141 -55.5q-87 0 -137.5 48t-50.5 128zM519 791l71 -122h-65l-47 71l-70 -71h-72l114 122h69z" />
    <glyph glyph-name="jcircumflex" unicode="&#x135;" horiz-adv-x="209" 
d="M213 645l50 -136h-61l-31 85l-59 -85h-66l98 136h69zM-93 -168l12 66q15 -12 38 -12q27 0 41.5 15.5t21.5 52.5l87 490h75l-87 -495q-23 -128 -136 -128q-32 0 -52 11z" />
    <glyph glyph-name="Kcommaaccent" unicode="&#x136;" horiz-adv-x="559" 
d="M165 -201l46 62q-34 9 -34 44q0 22 14 36t35 14t35 -14t14 -38q0 -27 -25 -58l-34 -46h-51zM225 614l-54 -307l340 307h102l-314 -281l215 -333h-90l-185 283l-86 -74l-36 -209h-78l108 614h78z" />
    <glyph glyph-name="kcommaaccent" unicode="&#x137;" horiz-adv-x="455" 
d="M118 -201l46 62q-34 9 -34 44q0 22 14 36t35 14t35 -14t14 -38q0 -27 -25 -58l-34 -46h-51zM328 0l-139 206l-56 -46l-29 -160h-75l114 650h75l-70 -402l234 196h102l-237 -194l166 -250h-85z" />
    <glyph glyph-name="kgreenlandic" unicode="&#x138;" horiz-adv-x="462" 
d="M328 0l-139 206l-56 -46l-29 -160h-75l77 444h76l-34 -196l234 196h102l-237 -194l166 -250h-85z" />
    <glyph glyph-name="Lacute" unicode="&#x139;" horiz-adv-x="504" 
d="M242 668h-79l100 117h90zM39 0l108 614h78l-96 -543h314l-12 -71h-392z" />
    <glyph glyph-name="lacute" unicode="&#x13a;" horiz-adv-x="209" 
d="M228 683h-79l100 117h90zM218 650l-114 -650h-75l114 650h75z" />
    <glyph glyph-name="Lcommaaccent" unicode="&#x13b;" horiz-adv-x="504" 
d="M161 -201l46 62q-34 9 -34 44q0 22 14 36t35 14t35 -14t14 -38q0 -27 -25 -58l-34 -46h-51zM39 0l108 614h78l-96 -543h314l-12 -71h-392z" />
    <glyph glyph-name="lcommaaccent" unicode="&#x13c;" horiz-adv-x="209" 
d="M-12 -201l46 62q-34 9 -34 44q0 22 14 36t35 14t35 -14t14 -38q0 -27 -25 -58l-34 -46h-51zM218 650l-114 -650h-75l114 650h75z" />
    <glyph glyph-name="Lcaron" unicode="&#x13d;" horiz-adv-x="504" 
d="M391 450h-63l77 164h64zM39 0l108 614h78l-96 -543h314l-12 -71h-392z" />
    <glyph glyph-name="lcaron" unicode="&#x13e;" horiz-adv-x="209" 
d="M299 486h-63l77 164h64zM218 650l-114 -650h-75l114 650h75z" />
    <glyph glyph-name="Ldot" unicode="&#x13f;" horiz-adv-x="504" 
d="M39 0l108 614h78l-96 -543h314l-12 -71h-392zM435 309q0 -19 -14.5 -33.5t-33.5 -14.5t-33.5 14.5t-14.5 33.5q0 20 14 34t34 14t34 -14t14 -34z" />
    <glyph glyph-name="ldot" unicode="&#x140;" horiz-adv-x="337" 
d="M218 650l-114 -650h-75l114 650h75zM339 325q0 -19 -14.5 -33.5t-33.5 -14.5t-33.5 14.5t-14.5 33.5q0 20 14 34t34 14t34 -14t14 -34z" />
    <glyph glyph-name="Lslash" unicode="&#x141;" horiz-adv-x="517" 
d="M34 224l13 75l62 23l51 292h78l-47 -263l148 59l-14 -74l-147 -59l-36 -206h314l-12 -71h-392l44 249z" />
    <glyph glyph-name="lslash" unicode="&#x142;" horiz-adv-x="246" 
d="M237 650l-41 -235l70 38l-11 -67l-71 -38l-61 -348h-75l55 314l-64 -34l11 67l65 35l47 268h75z" />
    <glyph glyph-name="Nacute" unicode="&#x143;" horiz-adv-x="623" 
d="M429 668h-79l100 117h90zM624 614l-108 -614h-59l-256 498l-87 -498h-75l108 614h74l243 -477l84 477h76z" />
    <glyph glyph-name="nacute" unicode="&#x144;" horiz-adv-x="489" 
d="M332 516h-71l103 134h81zM29 0l78 444h75l-10 -57q57 66 142 66q62 0 96.5 -35t34.5 -93q0 -16 -3 -34l-51 -291h-76l49 279q3 16 3 29q0 76 -80 76q-39 0 -75 -24t-55 -60l-53 -300h-75z" />
    <glyph glyph-name="Ncommaaccent" unicode="&#x145;" horiz-adv-x="623" 
d="M199 -201l46 62q-34 9 -34 44q0 22 14 36t35 14t35 -14t14 -38q0 -27 -25 -58l-34 -46h-51zM624 614l-108 -614h-59l-256 498l-87 -498h-75l108 614h74l243 -477l84 477h76z" />
    <glyph glyph-name="ncommaaccent" unicode="&#x146;" horiz-adv-x="489" 
d="M133 -201l46 62q-34 9 -34 44q0 22 14 36t35 14t35 -14t14 -38q0 -27 -25 -58l-34 -46h-51zM29 0l78 444h75l-10 -57q57 66 142 66q62 0 96.5 -35t34.5 -93q0 -16 -3 -34l-51 -291h-76l49 279q3 16 3 29q0 76 -80 76q-39 0 -75 -24t-55 -60l-53 -300h-75z" />
    <glyph glyph-name="Ncaron" unicode="&#x147;" horiz-adv-x="623" 
d="M362 666l-71 121h65l47 -71l70 71h72l-114 -121h-69zM624 614l-108 -614h-59l-256 498l-87 -498h-75l108 614h74l243 -477l84 477h76z" />
    <glyph glyph-name="ncaron" unicode="&#x148;" horiz-adv-x="489" 
d="M268 510l-69 136h62l47 -88l77 88h68l-116 -136h-69zM29 0l78 444h75l-10 -57q57 66 142 66q62 0 96.5 -35t34.5 -93q0 -16 -3 -34l-51 -291h-76l49 279q3 16 3 29q0 76 -80 76q-39 0 -75 -24t-55 -60l-53 -300h-75z" />
    <glyph glyph-name="Eng" unicode="&#x14a;" horiz-adv-x="623" 
d="M442 29l-241 469l-87 -498h-75l108 614h74l243 -477l84 477h76l-104 -591q-19 -109 -71 -159.5t-137 -50.5q-52 0 -103 31l14 76q42 -34 93 -34q55 0 83.5 33.5t42.5 109.5z" />
    <glyph glyph-name="eng" unicode="&#x14b;" horiz-adv-x="489" 
d="M194 -168l11 66q15 -12 39 -12q27 0 41.5 15.5t21.5 52.5l57 325q3 16 3 29q0 76 -80 76q-39 0 -75 -24t-55 -60l-53 -300h-75l78 444h75l-10 -57q57 66 142 66q62 0 96.5 -35t34.5 -93q0 -16 -3 -34l-61 -342q-22 -128 -136 -128q-31 0 -51 11z" />
    <glyph glyph-name="Omacron" unicode="&#x14c;" horiz-adv-x="629" 
d="M284 671l11 61h214l-11 -61h-214zM299 62q101 0 166 83t65 204q0 88 -46 145.5t-123 57.5q-101 0 -166 -83t-65 -204q0 -88 46 -145.5t123 -57.5zM299 -9q-111 0 -180 76t-69 198q0 147 89 252.5t222 105.5q111 0 179.5 -76t68.5 -198q0 -147 -88.5 -252.5t-221.5 -105.5
z" />
    <glyph glyph-name="omacron" unicode="&#x14d;" horiz-adv-x="478" 
d="M184 530l11 61h214l-11 -61h-214zM217 57q66 0 108.5 57t42.5 146q0 58 -28.5 92.5t-78.5 34.5q-65 0 -108 -57t-43 -146q0 -58 28.5 -92.5t78.5 -34.5zM217 -9q-86 0 -134.5 52.5t-48.5 140.5q0 116 66 192.5t162 76.5q85 0 133.5 -52.5t48.5 -140.5q0 -116 -66 -192.5
t-161 -76.5z" />
    <glyph glyph-name="Obreve" unicode="&#x14e;" horiz-adv-x="629" 
d="M394 666q-50 0 -78.5 32t-18.5 88h57q-6 -31 7 -47.5t40 -16.5q58 0 70 64h57q-22 -120 -134 -120zM299 62q101 0 166 83t65 204q0 88 -46 145.5t-123 57.5q-101 0 -166 -83t-65 -204q0 -88 46 -145.5t123 -57.5zM299 -9q-111 0 -180 76t-69 198q0 147 89 252.5
t222 105.5q111 0 179.5 -76t68.5 -198q0 -147 -88.5 -252.5t-221.5 -105.5z" />
    <glyph glyph-name="obreve" unicode="&#x14f;" horiz-adv-x="478" 
d="M217 57q66 0 108.5 57t42.5 146q0 58 -28.5 92.5t-78.5 34.5q-65 0 -108 -57t-43 -146q0 -58 28.5 -92.5t78.5 -34.5zM217 -9q-86 0 -134.5 52.5t-48.5 140.5q0 116 66 192.5t162 76.5q85 0 133.5 -52.5t48.5 -140.5q0 -116 -66 -192.5t-161 -76.5zM288 500q-50 0 -78 34
t-17 94h57q-6 -34 5.5 -53.5t38.5 -19.5q55 0 70 73h57q-11 -62 -46 -95t-87 -33z" />
    <glyph glyph-name="Ohungarumlaut" unicode="&#x150;" horiz-adv-x="629" 
d="M299 62q101 0 166 83t65 204q0 88 -46 145.5t-123 57.5q-101 0 -166 -83t-65 -204q0 -88 46 -145.5t123 -57.5zM299 -9q-111 0 -180 76t-69 198q0 147 89 252.5t222 105.5q111 0 179.5 -76t68.5 -198q0 -147 -88.5 -252.5t-221.5 -105.5zM355 668h-68l87 117h70zM483 668
h-68l87 117h69z" />
    <glyph glyph-name="ohungarumlaut" unicode="&#x151;" horiz-adv-x="478" 
d="M251 516h-65l90 134h66zM374 516h-64l90 134h66zM217 57q66 0 108.5 57t42.5 146q0 58 -28.5 92.5t-78.5 34.5q-65 0 -108 -57t-43 -146q0 -58 28.5 -92.5t78.5 -34.5zM217 -9q-86 0 -134.5 52.5t-48.5 140.5q0 116 66 192.5t162 76.5q85 0 133.5 -52.5t48.5 -140.5
q0 -116 -66 -192.5t-161 -76.5z" />
    <glyph glyph-name="OE" unicode="&#x152;" horiz-adv-x="833" 
d="M856 614l-12 -70h-304l-35 -194h275l-12 -70h-275l-37 -209h304l-12 -71h-443q-123 0 -189 68.5t-66 189.5q0 153 98.5 254.5t253.5 101.5h454zM130 258q0 -89 47 -138.5t138 -49.5h64l83 473h-70q-118 0 -190 -79.5t-72 -205.5z" />
    <glyph glyph-name="oe" unicode="&#x153;" horiz-adv-x="785" 
d="M661 133h76q-20 -64 -72.5 -103t-124.5 -39q-111 0 -155 97q-29 -45 -73.5 -71t-94.5 -26q-86 0 -134.5 52.5t-48.5 140.5q0 116 66 192.5t162 76.5q54 0 94 -26t60 -71q68 97 175 97q80 0 122.5 -47.5t42.5 -129.5q0 -26 -8 -68h-315q-1 -5 -1 -22q0 -62 29.5 -96.5
t82.5 -34.5q40 0 71.5 20.5t45.5 57.5zM217 57q66 0 108.5 57t42.5 146q0 58 -28.5 92.5t-78.5 34.5q-65 0 -108 -57t-43 -146q0 -58 28.5 -92.5t78.5 -34.5zM588 389q-54 0 -91 -34.5t-53 -89.5h238q1 7 1 19q0 46 -24.5 75.5t-70.5 29.5z" />
    <glyph glyph-name="Racute" unicode="&#x154;" horiz-adv-x="550" 
d="M276 260h-114l-45 -260h-78l108 614h217q87 0 133.5 -40t46.5 -115q0 -83 -51.5 -134t-136.5 -62l135 -263h-84zM213 545l-39 -218h146q68 0 106.5 34t38.5 96q0 42 -28.5 65t-81.5 23h-142zM389 668h-79l100 117h90z" />
    <glyph glyph-name="racute" unicode="&#x155;" horiz-adv-x="321" 
d="M263 516h-71l103 134h81zM336 446l-14 -77q-16 12 -48 12q-36 0 -67.5 -22t-49.5 -61l-53 -298h-75l78 444h75l-10 -58q19 29 52.5 48t69.5 19q30 0 42 -7z" />
    <glyph glyph-name="Rcommaaccent" unicode="&#x156;" horiz-adv-x="550" 
d="M276 260h-114l-45 -260h-78l108 614h217q87 0 133.5 -40t46.5 -115q0 -83 -51.5 -134t-136.5 -62l135 -263h-84zM213 545l-39 -218h146q68 0 106.5 34t38.5 96q0 42 -28.5 65t-81.5 23h-142zM159 -201l46 62q-34 9 -34 44q0 22 14 36t35 14t35 -14t14 -38q0 -27 -25 -58
l-34 -46h-51z" />
    <glyph glyph-name="rcommaaccent" unicode="&#x157;" horiz-adv-x="321" 
d="M-10 -201l46 62q-34 9 -34 44q0 22 14 36t35 14t35 -14t14 -38q0 -27 -25 -58l-34 -46h-51zM336 446l-14 -77q-16 12 -48 12q-36 0 -67.5 -22t-49.5 -61l-53 -298h-75l78 444h75l-10 -58q19 29 52.5 48t69.5 19q30 0 42 -7z" />
    <glyph glyph-name="Rcaron" unicode="&#x158;" horiz-adv-x="550" 
d="M276 260h-114l-45 -260h-78l108 614h217q87 0 133.5 -40t46.5 -115q0 -83 -51.5 -134t-136.5 -62l135 -263h-84zM213 545l-39 -218h146q68 0 106.5 34t38.5 96q0 42 -28.5 65t-81.5 23h-142zM322 666l-71 121h65l47 -71l70 71h72l-114 -121h-69z" />
    <glyph glyph-name="rcaron" unicode="&#x159;" horiz-adv-x="321" 
d="M199 510l-69 136h62l47 -88l77 88h68l-116 -136h-69zM336 446l-14 -77q-16 12 -48 12q-36 0 -67.5 -22t-49.5 -61l-53 -298h-75l78 444h75l-10 -58q19 29 52.5 48t69.5 19q30 0 42 -7z" />
    <glyph glyph-name="Sacute" unicode="&#x15a;" horiz-adv-x="509" 
d="M506 453h-77q-6 46 -41.5 74.5t-94.5 28.5t-97.5 -30.5t-38.5 -82.5q0 -59 79 -82l103 -31q124 -38 124 -142q0 -89 -65 -143t-158 -54q-94 0 -155 46t-68 131h78q7 -54 47 -82t98 -28q64 0 105 32t41 90q0 59 -81 83l-104 31q-121 37 -121 140q0 83 60.5 136t152.5 53
q96 0 151 -46t62 -124zM356 668h-79l100 117h90z" />
    <glyph glyph-name="sacute" unicode="&#x15b;" horiz-adv-x="414" 
d="M289 516h-71l103 134h81zM14 124h74q6 -35 33 -52.5t68 -17.5q43 0 70.5 17.5t27.5 53.5q0 38 -56 57l-77 23q-46 14 -70 39t-24 70q0 61 48 100t118 39q75 0 116.5 -34.5t46.5 -93.5h-72q-13 65 -91 65q-39 0 -65.5 -18.5t-26.5 -50.5q0 -19 12 -30.5t39 -20.5l77 -24
q98 -31 98 -111q0 -66 -49 -105t-122 -39q-77 0 -123.5 36.5t-51.5 96.5z" />
    <glyph glyph-name="Scircumflex" unicode="&#x15c;" horiz-adv-x="509" 
d="M506 453h-77q-6 46 -41.5 74.5t-94.5 28.5t-97.5 -30.5t-38.5 -82.5q0 -59 79 -82l103 -31q124 -38 124 -142q0 -89 -65 -143t-158 -54q-94 0 -155 46t-68 131h78q7 -54 47 -82t98 -28q64 0 105 32t41 90q0 59 -81 83l-104 31q-121 37 -121 140q0 83 60.5 136t152.5 53
q96 0 151 -46t62 -124zM375 791l71 -122h-65l-47 71l-70 -71h-72l114 122h69z" />
    <glyph glyph-name="scircumflex" unicode="&#x15d;" horiz-adv-x="414" 
d="M312 645l69 -136h-62l-47 88l-77 -88h-68l116 136h69zM14 124h74q6 -35 33 -52.5t68 -17.5q43 0 70.5 17.5t27.5 53.5q0 38 -56 57l-77 23q-46 14 -70 39t-24 70q0 61 48 100t118 39q75 0 116.5 -34.5t46.5 -93.5h-72q-13 65 -91 65q-39 0 -65.5 -18.5t-26.5 -50.5
q0 -19 12 -30.5t39 -20.5l77 -24q98 -31 98 -111q0 -66 -49 -105t-122 -39q-77 0 -123.5 36.5t-51.5 96.5z" />
    <glyph glyph-name="Scedilla" unicode="&#x15e;" horiz-adv-x="509" 
d="M506 453h-77q-6 46 -41.5 74.5t-94.5 28.5t-97.5 -30.5t-38.5 -82.5q0 -59 79 -82l103 -31q124 -38 124 -142q0 -89 -65 -143t-158 -54q-94 0 -155 46t-68 131h78q7 -54 47 -82t98 -28q64 0 105 32t41 90q0 59 -81 83l-104 31q-121 37 -121 140q0 83 60.5 136t152.5 53
q96 0 151 -46t62 -124zM148 -183h-75l89 132h78z" />
    <glyph glyph-name="scedilla" unicode="&#x15f;" horiz-adv-x="414" 
d="M14 124h74q6 -35 33 -52.5t68 -17.5q43 0 70.5 17.5t27.5 53.5q0 38 -56 57l-77 23q-46 14 -70 39t-24 70q0 61 48 100t118 39q75 0 116.5 -34.5t46.5 -93.5h-72q-13 65 -91 65q-39 0 -65.5 -18.5t-26.5 -50.5q0 -19 12 -30.5t39 -20.5l77 -24q98 -31 98 -111
q0 -66 -49 -105t-122 -39q-77 0 -123.5 36.5t-51.5 96.5zM111 -183h-75l89 132h78z" />
    <glyph glyph-name="Scaron" unicode="&#x160;" horiz-adv-x="509" 
d="M289 666l-71 121h65l47 -71l70 71h72l-114 -121h-69zM506 453h-77q-6 46 -41.5 74.5t-94.5 28.5t-97.5 -30.5t-38.5 -82.5q0 -59 79 -82l103 -31q124 -38 124 -142q0 -89 -65 -143t-158 -54q-94 0 -155 46t-68 131h78q7 -54 47 -82t98 -28q64 0 105 32t41 90q0 59 -81 83
l-104 31q-121 37 -121 140q0 83 60.5 136t152.5 53q96 0 151 -46t62 -124z" />
    <glyph glyph-name="scaron" unicode="&#x161;" horiz-adv-x="414" 
d="M224 510l-69 136h62l47 -88l77 88h68l-116 -136h-69zM14 124h74q6 -35 33 -52.5t68 -17.5q43 0 70.5 17.5t27.5 53.5q0 38 -56 57l-77 23q-46 14 -70 39t-24 70q0 61 48 100t118 39q75 0 116.5 -34.5t46.5 -93.5h-72q-13 65 -91 65q-39 0 -65.5 -18.5t-26.5 -50.5
q0 -19 12 -30.5t39 -20.5l77 -24q98 -31 98 -111q0 -66 -49 -105t-122 -39q-77 0 -123.5 36.5t-51.5 96.5z" />
    <glyph glyph-name="Tcedilla" unicode="&#x162;" horiz-adv-x="567" 
d="M167 -201l46 62q-34 9 -34 44q0 22 14 36t35 14t35 -14t14 -38q0 -27 -25 -58l-34 -46h-51zM87 544l13 70h506l-12 -70h-214l-96 -544h-79l96 544h-214z" />
    <glyph glyph-name="tcedilla" unicode="&#x163;" horiz-adv-x="316" 
d="M67 -201l46 62q-34 9 -34 44q0 22 14 36t35 14t35 -14t14 -38q0 -27 -25 -58l-34 -46h-51zM70 114l49 266h-74l12 64h74l21 117h76l-22 -117h105l-11 -64h-105l-47 -254q-3 -14 -3 -25q0 -43 48 -43q31 0 63 18l-12 -70q-32 -15 -74 -15q-49 0 -76.5 23t-27.5 68
q0 15 4 32z" />
    <glyph glyph-name="Tcaron" unicode="&#x164;" horiz-adv-x="567" 
d="M331 666l-71 121h65l47 -71l70 71h72l-114 -121h-69zM87 544l13 70h506l-12 -70h-214l-96 -544h-79l96 544h-214z" />
    <glyph glyph-name="tcaron" unicode="&#x165;" horiz-adv-x="316" 
d="M327 496h-63l77 164h64zM70 114l49 266h-74l12 64h74l21 117h76l-22 -117h105l-11 -64h-105l-47 -254q-3 -14 -3 -25q0 -43 48 -43q31 0 63 18l-12 -70q-32 -15 -74 -15q-49 0 -76.5 23t-27.5 68q0 15 4 32z" />
    <glyph glyph-name="Tbar" unicode="&#x166;" horiz-adv-x="567" 
d="M87 544l13 70h506l-12 -70h-214l-34 -193h113l-11 -67h-114l-50 -284h-79l50 284h-113l12 67h113l34 193h-214z" />
    <glyph glyph-name="tbar" unicode="&#x167;" horiz-adv-x="316" 
d="M25 219l11 61h64l19 100h-74l12 64h74l21 117h76l-22 -117h105l-11 -64h-105l-19 -100h89l-11 -61h-89l-17 -93q-3 -14 -3 -25q0 -43 48 -43q31 0 63 18l-12 -70q-32 -15 -74 -15q-49 0 -76.5 23t-27.5 68q0 15 4 32l19 105h-64z" />
    <glyph glyph-name="Utilde" unicode="&#x168;" horiz-adv-x="607" 
d="M482 785h50q-9 -54 -34 -86t-62 -32q-25 0 -51.5 29t-40.5 29q-33 0 -44 -55h-50q9 54 34 86t62 32q25 0 51.5 -29t40.5 -29q33 0 44 55zM282 -9q-99 0 -158.5 51t-59.5 146q0 26 7 65l63 361h79l-64 -361q-5 -32 -5 -53q0 -67 36.5 -103t101.5 -36q158 0 192 192l63 361
h79l-65 -371q-22 -123 -92.5 -187.5t-176.5 -64.5z" />
    <glyph glyph-name="utilde" unicode="&#x169;" horiz-adv-x="487" 
d="M459 444l-78 -444h-76l10 56q-57 -65 -142 -65q-61 0 -94.5 34.5t-33.5 92.5q0 17 3 35l51 291h75l-49 -282q-3 -17 -3 -31q0 -74 78 -74q39 0 75 24.5t55 61.5l53 301h76zM393 633h50q-9 -54 -34 -86t-62 -32q-25 0 -51.5 29t-40.5 29q-33 0 -44 -55h-50q9 54 34 86
t62 32q25 0 51.5 -29t40.5 -29q33 0 44 55z" />
    <glyph glyph-name="Umacron" unicode="&#x16a;" horiz-adv-x="607" 
d="M274 671l11 61h214l-11 -61h-214zM282 -9q-99 0 -158.5 51t-59.5 146q0 26 7 65l63 361h79l-64 -361q-5 -32 -5 -53q0 -67 36.5 -103t101.5 -36q158 0 192 192l63 361h79l-65 -371q-22 -123 -92.5 -187.5t-176.5 -64.5z" />
    <glyph glyph-name="umacron" unicode="&#x16b;" horiz-adv-x="487" 
d="M459 444l-78 -444h-76l10 56q-57 -65 -142 -65q-61 0 -94.5 34.5t-33.5 92.5q0 17 3 35l51 291h75l-49 -282q-3 -17 -3 -31q0 -74 78 -74q39 0 75 24.5t55 61.5l53 301h76zM186 530l11 61h214l-11 -61h-214z" />
    <glyph glyph-name="Ubreve" unicode="&#x16c;" horiz-adv-x="607" 
d="M383 666q-50 0 -78.5 32t-18.5 88h57q-6 -31 7 -47.5t40 -16.5q58 0 70 64h57q-22 -120 -134 -120zM282 -9q-99 0 -158.5 51t-59.5 146q0 26 7 65l63 361h79l-64 -361q-5 -32 -5 -53q0 -67 36.5 -103t101.5 -36q158 0 192 192l63 361h79l-65 -371q-22 -123 -92.5 -187.5
t-176.5 -64.5z" />
    <glyph glyph-name="ubreve" unicode="&#x16d;" horiz-adv-x="487" 
d="M459 444l-78 -444h-76l10 56q-57 -65 -142 -65q-61 0 -94.5 34.5t-33.5 92.5q0 17 3 35l51 291h75l-49 -282q-3 -17 -3 -31q0 -74 78 -74q39 0 75 24.5t55 61.5l53 301h76zM291 500q-50 0 -78 34t-17 94h57q-6 -34 5.5 -53.5t38.5 -19.5q55 0 70 73h57q-11 -62 -46 -95
t-87 -33z" />
    <glyph glyph-name="Uring" unicode="&#x16e;" horiz-adv-x="607" 
d="M282 -9q-99 0 -158.5 51t-59.5 146q0 26 7 65l63 361h79l-64 -361q-5 -32 -5 -53q0 -67 36.5 -103t101.5 -36q158 0 192 192l63 361h79l-65 -371q-22 -123 -92.5 -187.5t-176.5 -64.5zM388 689q19 0 33 13.5t14 33.5q0 19 -12.5 31.5t-30.5 12.5q-19 0 -33.5 -13.5
t-14.5 -34.5q0 -18 13 -30.5t31 -12.5zM386 648q-36 0 -60 23.5t-24 58.5q0 37 26.5 64t64.5 27q36 0 60 -24t24 -59q0 -37 -26.5 -63.5t-64.5 -26.5z" />
    <glyph glyph-name="uring" unicode="&#x16f;" horiz-adv-x="487" 
d="M301 535q19 0 33 13.5t14 33.5q0 19 -12.5 31t-30.5 12q-19 0 -33 -13.5t-14 -33.5q0 -19 12.5 -31t30.5 -12zM299 494q-36 0 -59.5 23.5t-23.5 58.5q0 37 26.5 63.5t64.5 26.5q36 0 59.5 -23.5t23.5 -58.5q0 -37 -26.5 -63.5t-64.5 -26.5zM459 444l-78 -444h-76l10 56
q-57 -65 -142 -65q-61 0 -94.5 34.5t-33.5 92.5q0 17 3 35l51 291h75l-49 -282q-3 -17 -3 -31q0 -74 78 -74q39 0 75 24.5t55 61.5l53 301h76z" />
    <glyph glyph-name="Uhungarumlaut" unicode="&#x170;" horiz-adv-x="607" 
d="M282 -9q-99 0 -158.5 51t-59.5 146q0 26 7 65l63 361h79l-64 -361q-5 -32 -5 -53q0 -67 36.5 -103t101.5 -36q158 0 192 192l63 361h79l-65 -371q-22 -123 -92.5 -187.5t-176.5 -64.5zM342 668h-68l87 117h70zM470 668h-68l87 117h69z" />
    <glyph glyph-name="uhungarumlaut" unicode="&#x171;" horiz-adv-x="487" 
d="M459 444l-78 -444h-76l10 56q-57 -65 -142 -65q-61 0 -94.5 34.5t-33.5 92.5q0 17 3 35l51 291h75l-49 -282q-3 -17 -3 -31q0 -74 78 -74q39 0 75 24.5t55 61.5l53 301h76zM254 516h-65l90 134h66zM377 516h-64l90 134h66z" />
    <glyph glyph-name="Uogonek" unicode="&#x172;" horiz-adv-x="607" 
d="M282 -9q-99 0 -158.5 51t-59.5 146q0 26 7 65l63 361h79l-64 -361q-5 -32 -5 -53q0 -67 36.5 -103t101.5 -36q158 0 192 192l63 361h79l-65 -371q-14 -78 -46.5 -128.5t-85.5 -93.5q-46 -37 -71.5 -73t-25.5 -61q0 -19 18 -19q16 0 40 15l-9 -50q-28 -19 -54 -19
q-27 0 -41.5 14t-14.5 38q0 31 17 60t52 69q-20 -4 -48 -4z" />
    <glyph glyph-name="uogonek" unicode="&#x173;" horiz-adv-x="487" 
d="M305 0l10 56q-57 -65 -142 -65q-61 0 -94.5 34.5t-33.5 92.5q0 17 3 35l51 291h75l-49 -282q-3 -17 -3 -31q0 -74 78 -74q39 0 75 24.5t55 61.5l53 301h76l-78 -444q-7 -10 -17.5 -23.5t-16 -20.5t-12.5 -17t-10.5 -15.5t-6.5 -12.5t-4.5 -12.5t-1.5 -11.5q0 -19 18 -19
q16 0 40 15l-9 -50q-28 -19 -54 -19q-27 0 -41.5 14t-14.5 38q0 11 3.5 23.5t6.5 20.5t13 22.5t14 20t18.5 24t18.5 23.5h-20z" />
    <glyph glyph-name="Wcircumflex" unicode="&#x174;" horiz-adv-x="771" 
d="M427 614h63l34 -488l222 488h77l-282 -614h-72l-37 479l-223 -479h-72l-42 614h75l31 -488zM521 791l71 -122h-65l-47 71l-70 -71h-72l114 122h69z" />
    <glyph glyph-name="wcircumflex" unicode="&#x175;" horiz-adv-x="628" 
d="M418 645l69 -136h-62l-47 88l-77 -88h-68l116 136h69zM384 444l21 -339l167 339h77l-225 -444h-73l-22 337l-163 -337h-72l-38 444h72l27 -339l164 339h65z" />
    <glyph glyph-name="Ycircumflex" unicode="&#x176;" horiz-adv-x="557" 
d="M298 324l229 290h87l-287 -361l-45 -253h-78l45 253l-159 361h82zM415 791l71 -122h-65l-47 71l-70 -71h-72l114 122h69z" />
    <glyph glyph-name="ycircumflex" unicode="&#x177;" horiz-adv-x="455" 
d="M107 -170h-76l103 175l-76 439h74l60 -349l203 349h82zM323 645l69 -136h-62l-47 88l-77 -88h-68l116 136h69z" />
    <glyph glyph-name="Ydieresis" unicode="&#x178;" horiz-adv-x="557" 
d="M298 324l229 290h87l-287 -361l-45 -253h-78l45 253l-159 361h82zM254 722q0 19 13.5 32.5t33.5 13.5q19 0 32.5 -13.5t13.5 -32.5t-13.5 -32.5t-32.5 -13.5q-20 0 -33.5 13.5t-13.5 32.5zM395 722q0 19 13 32.5t32 13.5q20 0 33.5 -13.5t13.5 -32.5t-13.5 -32.5
t-33.5 -13.5q-19 0 -32 13.5t-13 32.5z" />
    <glyph glyph-name="Zacute" unicode="&#x179;" horiz-adv-x="534" 
d="M471 71l-12 -71h-451l9 57l432 487h-338l12 70h442l-11 -56l-430 -487h347zM381 668h-79l100 117h90z" />
    <glyph glyph-name="zacute" unicode="&#x17a;" horiz-adv-x="431" 
d="M302 516h-71l103 134h81zM363 64l-10 -64h-349l9 49l306 331h-241l12 64h337l-8 -49l-307 -331h251z" />
    <glyph glyph-name="Zdotaccent" unicode="&#x17b;" horiz-adv-x="534" 
d="M404 721q0 -19 -14 -33.5t-34 -14.5t-34 14.5t-14 33.5q0 20 14 34.5t34 14.5t34 -14.5t14 -34.5zM471 71l-12 -71h-451l9 57l432 487h-338l12 70h442l-11 -56l-430 -487h347z" />
    <glyph glyph-name="zdotaccent" unicode="&#x17c;" horiz-adv-x="431" 
d="M363 64l-10 -64h-349l9 49l306 331h-241l12 64h337l-8 -49l-307 -331h251zM331 578q0 -20 -14.5 -34t-33.5 -14t-33.5 14t-14.5 34t14 34t34 14t34 -14t14 -34z" />
    <glyph glyph-name="Zcaron" unicode="&#x17d;" horiz-adv-x="534" 
d="M314 666l-71 121h65l47 -71l70 71h72l-114 -121h-69zM471 71l-12 -71h-451l9 57l432 487h-338l12 70h442l-11 -56l-430 -487h347z" />
    <glyph glyph-name="zcaron" unicode="&#x17e;" horiz-adv-x="431" 
d="M238 510l-69 136h62l47 -88l77 88h68l-116 -136h-69zM363 64l-10 -64h-349l9 49l306 331h-241l12 64h337l-8 -49l-307 -331h251z" />
    <glyph glyph-name="florin" unicode="&#x192;" horiz-adv-x="402" 
d="M75 281l12 63h85l43 141q20 66 63.5 102t101.5 36q43 0 67 -12l-12 -68q-26 14 -55 14q-65 0 -89 -78l-41 -135h91l-11 -63h-99l-97 -320q-42 -138 -155 -138q-40 0 -67 12l12 68q25 -14 55 -14q32 0 49.5 18t30.5 60l94 314h-78z" />
    <glyph glyph-name="Aringacute" unicode="&#x1fa;" horiz-adv-x="596" 
d="M341 614h75l124 -614h-78l-36 186h-252l-106 -186h-82zM362 516l-150 -262h201zM391 636q-36 0 -60 20t-24 51t26.5 54t64.5 23q35 0 59 -20t24 -50q0 -32 -26 -55t-64 -23zM449 807h-73l73 86h85zM393 674q19 0 32.5 10.5t13.5 27.5q0 15 -12.5 25t-30.5 10
q-19 0 -33 -10.5t-14 -28.5q0 -15 12.5 -24.5t31.5 -9.5z" />
    <glyph glyph-name="aringacute" unicode="&#x1fb;" horiz-adv-x="453" 
d="M299 514q19 0 33 10t14 28q0 15 -12.5 24.5t-31.5 9.5t-33 -10t-14 -28q0 -15 12.5 -24.5t31.5 -9.5zM297 476q-36 0 -60 20t-24 51t26.5 54t64.5 23q36 0 60 -20t24 -51t-26.5 -54t-64.5 -23zM355 647h-73l74 86h84zM405 295l-51 -295h-73l5 33q-43 -41 -116 -41
q-64 0 -106.5 35t-42.5 92q0 68 56 111t133 43q75 0 111 -38l11 58q2 16 2 24q0 32 -20 51.5t-59 19.5q-71 0 -105 -61h-74q21 57 71.5 91.5t115.5 34.5q68 0 106.5 -35t38.5 -94q0 -12 -3 -29zM299 110l9 46q-6 24 -33.5 39.5t-64.5 15.5q-46 0 -81.5 -23t-35.5 -65
q0 -31 27.5 -49.5t65.5 -18.5q37 0 68.5 15t44.5 40z" />
    <glyph glyph-name="AEacute" unicode="&#x1fc;" horiz-adv-x="870" 
d="M461 614h432l-13 -70h-304l-34 -194h275l-13 -70h-274l-37 -209h304l-12 -71h-382l33 186h-221l-144 -186h-85zM501 554l-233 -300h180zM718 668h-79l100 117h90z" />
    <glyph glyph-name="aeacute" unicode="&#x1fd;" horiz-adv-x="738" 
d="M453 516h-71l103 134h81zM613 133h76q-20 -64 -72 -103t-125 -39q-114 0 -153 92q-31 -42 -79 -66.5t-103 -24.5q-60 0 -98 33t-38 89q0 69 56.5 110.5t140.5 41.5h110q6 34 6 49q0 34 -19.5 53.5t-59.5 19.5q-71 0 -105 -61h-74q22 57 72.5 91.5t114.5 34.5
q98 0 129 -78q26 35 65.5 56.5t85.5 21.5q80 0 122.5 -47.5t42.5 -129.5q0 -33 -7 -69h-315q-1 -5 -1 -23q0 -62 29 -95.5t82 -33.5q41 0 72 20.5t45 57.5zM305 136l12 71h-103q-51 0 -86 -21t-35 -66q0 -30 22.5 -47.5t56.5 -17.5q88 0 133 81zM540 389q-53 0 -89.5 -34.5
t-53.5 -88.5h237q1 6 1 19q0 45 -24 74.5t-71 29.5z" />
    <glyph glyph-name="Oslashacute" unicode="&#x1fe;" horiz-adv-x="639" 
d="M52 18l57 67q-54 73 -54 180q0 147 89 252.5t222 105.5q92 0 158 -55l47 55l45 -33l-54 -63q52 -74 52 -178q0 -147 -88.5 -252.5t-221.5 -105.5q-91 0 -156 53l-50 -59zM135 265q0 -69 27 -119l312 364q-45 42 -108 42q-101 0 -166 -83t-65 -204zM304 62q101 0 166 83
t65 204q0 66 -26 116l-312 -364q44 -39 107 -39zM427 668h-79l100 117h90z" />
    <glyph glyph-name="oslashacute" unicode="&#x1ff;" horiz-adv-x="488" 
d="M28 -5l50 60q-39 49 -39 129q0 116 66 192.5t162 76.5q67 0 112 -34l46 56l39 -29l-51 -62q36 -50 36 -124q0 -116 -66 -192.5t-161 -76.5q-65 0 -110 31l-46 -56zM112 184q0 -44 14 -71l209 253q-26 23 -69 23q-65 0 -109.5 -58.5t-44.5 -146.5zM222 55q66 0 110 58
t44 147q0 38 -12 66l-208 -251q26 -20 66 -20zM322 516h-71l103 134h81z" />
    <glyph glyph-name="Scommaaccent" unicode="&#x218;" horiz-adv-x="509" 
d="M139 -201l46 62q-34 9 -34 44q0 22 14 36t35 14t35 -14t14 -38q0 -27 -25 -58l-34 -46h-51zM506 453h-77q-6 46 -41.5 74.5t-94.5 28.5t-97.5 -30.5t-38.5 -82.5q0 -59 79 -82l103 -31q124 -38 124 -142q0 -89 -65 -143t-158 -54q-94 0 -155 46t-68 131h78q7 -54 47 -82
t98 -28q64 0 105 32t41 90q0 59 -81 83l-104 31q-121 37 -121 140q0 83 60.5 136t152.5 53q96 0 151 -46t62 -124z" />
    <glyph glyph-name="scommaaccent" unicode="&#x219;" horiz-adv-x="414" 
d="M89 -201l46 62q-34 9 -34 44q0 22 14 36t35 14t35 -14t14 -38q0 -27 -25 -58l-34 -46h-51zM14 124h74q6 -35 33 -52.5t68 -17.5q43 0 70.5 17.5t27.5 53.5q0 38 -56 57l-77 23q-46 14 -70 39t-24 70q0 61 48 100t118 39q75 0 116.5 -34.5t46.5 -93.5h-72q-13 65 -91 65
q-39 0 -65.5 -18.5t-26.5 -50.5q0 -19 12 -30.5t39 -20.5l77 -24q98 -31 98 -111q0 -66 -49 -105t-122 -39q-77 0 -123.5 36.5t-51.5 96.5z" />
    <glyph glyph-name="uni0237" unicode="&#x237;" horiz-adv-x="209" 
d="M-93 -168l12 66q15 -12 38 -12q27 0 41.5 15.5t21.5 52.5l87 490h75l-87 -495q-23 -128 -136 -128q-32 0 -52 11z" />
    <glyph glyph-name="circumflex" unicode="&#x2c6;" 
d="M308 645l69 -136h-62l-47 88l-77 -88h-68l116 136h69z" />
    <glyph glyph-name="caron" unicode="&#x2c7;" 
d="M192 510l-69 136h62l47 -88l77 88h68l-116 -136h-69z" />
    <glyph glyph-name="breve" unicode="&#x2d8;" 
d="M233 500q-50 0 -78 34t-17 94h57q-6 -34 5.5 -53.5t38.5 -19.5q55 0 70 73h57q-11 -62 -46 -95t-87 -33z" />
    <glyph glyph-name="dotaccent" unicode="&#x2d9;" 
d="M298 578q0 -20 -14 -34t-34 -14t-34 14t-14 34t14 34t34 14t34 -14t14 -34z" />
    <glyph glyph-name="ring" unicode="&#x2da;" 
d="M247 535q19 0 33 13.5t14 33.5q0 19 -12.5 31t-30.5 12q-19 0 -33 -13.5t-14 -33.5q0 -19 12.5 -31t30.5 -12zM245 494q-36 0 -59.5 23.5t-23.5 58.5q0 37 26.5 63.5t64.5 26.5q36 0 59.5 -23.5t23.5 -58.5q0 -37 -26.5 -63.5t-64.5 -26.5z" />
    <glyph glyph-name="ogonek" unicode="&#x2db;" 
d="M261 4h56q-10 -14 -25 -33.5t-21 -28t-13.5 -20t-10 -19.5t-2.5 -16q0 -19 18 -19q16 0 40 15l-9 -50q-28 -19 -54 -19q-27 0 -41.5 14t-14.5 38q0 14 3 26.5t13.5 29t15.5 24t23 30t22 28.5z" />
    <glyph glyph-name="tilde" unicode="&#x2dc;" 
d="M341 633h50q-9 -54 -34 -86t-62 -32q-25 0 -51.5 29t-40.5 29q-33 0 -44 -55h-50q9 54 34 86t62 32q25 0 51.5 -29t40.5 -29q33 0 44 55z" />
    <glyph glyph-name="hungarumlaut" unicode="&#x2dd;" 
d="M175 516h-65l90 134h66zM298 516h-64l90 134h66z" />
    <glyph glyph-name="Wgrave" unicode="&#x1e80;" horiz-adv-x="771" 
d="M504 668h-71l-71 117h82zM427 614h63l34 -488l222 488h77l-282 -614h-72l-37 479l-223 -479h-72l-42 614h75l31 -488z" />
    <glyph glyph-name="wgrave" unicode="&#x1e81;" horiz-adv-x="628" 
d="M384 444l21 -339l167 339h77l-225 -444h-73l-22 337l-163 -337h-72l-38 444h72l27 -339l164 339h65zM396 516h-65l-65 134h73z" />
    <glyph glyph-name="Wacute" unicode="&#x1e82;" horiz-adv-x="771" 
d="M502 668h-79l100 117h90zM427 614h63l34 -488l222 488h77l-282 -614h-72l-37 479l-223 -479h-72l-42 614h75l31 -488z" />
    <glyph glyph-name="wacute" unicode="&#x1e83;" horiz-adv-x="628" 
d="M394 516h-71l103 134h81zM384 444l21 -339l167 339h77l-225 -444h-73l-22 337l-163 -337h-72l-38 444h72l27 -339l164 339h65z" />
    <glyph glyph-name="Wdieresis" unicode="&#x1e84;" horiz-adv-x="771" 
d="M361 722q0 19 13.5 32.5t33.5 13.5q19 0 32.5 -13.5t13.5 -32.5t-13.5 -32.5t-32.5 -13.5q-20 0 -33.5 13.5t-13.5 32.5zM502 722q0 19 13 32.5t32 13.5q20 0 33.5 -13.5t13.5 -32.5t-13.5 -32.5t-33.5 -13.5q-19 0 -32 13.5t-13 32.5zM427 614h63l34 -488l222 488h77
l-282 -614h-72l-37 479l-223 -479h-72l-42 614h75l31 -488z" />
    <glyph glyph-name="wdieresis" unicode="&#x1e85;" horiz-adv-x="628" 
d="M258 571q0 20 13.5 33.5t33.5 13.5q19 0 32.5 -13.5t13.5 -33.5q0 -19 -13.5 -32.5t-32.5 -13.5t-33 13.5t-14 32.5zM399 571q0 20 13 33.5t32 13.5q20 0 33.5 -13.5t13.5 -33.5q0 -19 -14 -32.5t-33 -13.5t-32 13.5t-13 32.5zM384 444l21 -339l167 339h77l-225 -444h-73
l-22 337l-163 -337h-72l-38 444h72l27 -339l164 339h65z" />
    <glyph glyph-name="Ygrave" unicode="&#x1ef2;" horiz-adv-x="557" 
d="M298 324l229 290h87l-287 -361l-45 -253h-78l45 253l-159 361h82zM397 668h-71l-71 117h82z" />
    <glyph glyph-name="ygrave" unicode="&#x1ef3;" horiz-adv-x="455" 
d="M107 -170h-76l103 175l-76 439h74l60 -349l203 349h82zM302 516h-65l-65 134h73z" />
    <glyph glyph-name="endash" unicode="&#x2013;" horiz-adv-x="475" 
d="M43 231l10 61h395l-10 -61h-395z" />
    <glyph glyph-name="emdash" unicode="&#x2014;" horiz-adv-x="846" 
d="M43 231l10 61h766l-10 -61h-766z" />
    <glyph glyph-name="quoteleft" unicode="&#x2018;" horiz-adv-x="168" 
d="M220 614l-80 -104q37 -10 37 -49q0 -23 -15 -38t-38 -15t-38.5 15t-15.5 41q0 28 27 63l68 87h55z" />
    <glyph glyph-name="quoteright" unicode="&#x2019;" horiz-adv-x="168" 
d="M52 417l80 104q-37 10 -37 49q0 23 15 38t38 15t38.5 -15t15.5 -41q0 -28 -27 -63l-68 -87h-55z" />
    <glyph glyph-name="quotesinglbase" unicode="&#x201a;" horiz-adv-x="161" 
d="M-32 -103l80 104q-37 10 -37 49q0 23 15 38t38 15t38.5 -15t15.5 -41q0 -28 -27 -63l-68 -87h-55z" />
    <glyph glyph-name="quotedblleft" unicode="&#x201c;" horiz-adv-x="321" 
d="M220 614l-80 -104q37 -10 37 -49q0 -23 -15 -38t-38 -15t-38.5 15t-15.5 41q0 28 27 63l68 87h55zM373 614l-80 -104q37 -10 37 -49q0 -23 -15 -38t-38 -15t-38.5 15t-15.5 41q0 28 27 63l68 87h55z" />
    <glyph glyph-name="quotedblright" unicode="&#x201d;" horiz-adv-x="321" 
d="M52 417l80 104q-37 10 -37 49q0 23 15 38t38 15t38.5 -15t15.5 -41q0 -28 -27 -63l-68 -87h-55zM205 417l80 104q-37 10 -37 49q0 23 15 38t38 15t38.5 -15t15.5 -41q0 -28 -27 -63l-68 -87h-55z" />
    <glyph glyph-name="quotedblbase" unicode="&#x201e;" horiz-adv-x="321" 
d="M-32 -103l80 104q-37 10 -37 49q0 23 15 38t38 15t38.5 -15t15.5 -41q0 -28 -27 -63l-68 -87h-55zM121 -103l80 104q-37 10 -37 49q0 23 15 38t38 15t38.5 -15t15.5 -41q0 -28 -27 -63l-68 -87h-55z" />
    <glyph glyph-name="dagger" unicode="&#x2020;" horiz-adv-x="317" 
d="M79 502l10 56h99l16 92h58l-16 -92h99l-10 -56h-99l-36 -207h-58l36 207h-99z" />
    <glyph glyph-name="daggerdbl" unicode="&#x2021;" horiz-adv-x="325" 
d="M82 512l10 53h99l15 85h58l-15 -85h101l-10 -53h-100l-14 -80h100l-9 -52h-100l-15 -85h-58l15 85h-100l9 52h100l14 80h-100z" />
    <glyph glyph-name="bullet" unicode="&#x2022;" horiz-adv-x="343" 
d="M314 261q0 -59 -39.5 -97.5t-97.5 -38.5t-97 38.5t-39 97.5t39 97.5t97 38.5t97.5 -38.5t39.5 -97.5z" />
    <glyph glyph-name="ellipsis" unicode="&#x2026;" horiz-adv-x="554" 
d="M7 49q0 23 15.5 39t37.5 16t37.5 -16t15.5 -39t-15 -38.5t-38 -15.5t-38 15.5t-15 38.5zM198 49q0 23 15.5 39t37.5 16q23 0 38.5 -16t15.5 -39t-15.5 -38.5t-38.5 -15.5q-22 0 -37.5 15.5t-15.5 38.5zM390 49q0 23 15.5 39t37.5 16t37.5 -16t15.5 -39t-15 -38.5
t-38 -15.5t-38 15.5t-15 38.5z" />
    <glyph glyph-name="perthousand" unicode="&#x2030;" horiz-adv-x="929" 
d="M205 623q54 0 90.5 -36.5t36.5 -89.5q0 -56 -40 -98t-98 -42q-53 0 -90 37t-37 90q0 56 39.5 97.5t98.5 41.5zM197 417q31 0 53.5 22.5t22.5 55.5q0 28 -21 48.5t-50 20.5q-30 0 -52.5 -22.5t-22.5 -55.5q0 -29 20.5 -49t49.5 -20zM54 0l487 614h67l-487 -614h-67z
M457 -9q-54 0 -90.5 36.5t-36.5 89.5q0 56 40 98t98 42q54 0 90.5 -37t36.5 -90q0 -56 -39.5 -97.5t-98.5 -41.5zM465 197q-31 0 -53.5 -22.5t-22.5 -55.5q0 -28 21 -48.5t50 -20.5q30 0 52.5 22.5t22.5 55.5q0 29 -20.5 49t-49.5 20zM750 -9q-53 0 -89.5 36.5t-36.5 89.5
q0 56 40 98t98 42q53 0 90 -37t37 -90q0 -55 -40 -97t-99 -42zM759 197q-31 0 -53.5 -22.5t-22.5 -55.5q0 -28 20.5 -48.5t49.5 -20.5q31 0 53.5 22.5t22.5 55.5q0 29 -20.5 49t-49.5 20z" />
    <glyph glyph-name="guilsinglleft" unicode="&#x2039;" horiz-adv-x="215" 
d="M164 74h-72l-66 148l118 148h78l-122 -152z" />
    <glyph glyph-name="guilsinglright" unicode="&#x203a;" horiz-adv-x="215" 
d="M63 370h72l66 -148l-118 -148h-78l122 152z" />
    <glyph glyph-name="fraction" unicode="&#x2044;" horiz-adv-x="210" 
d="M416 614l-535 -614h-69l535 614h69z" />
    <glyph glyph-name="Euro" unicode="&#x20ac;" horiz-adv-x="530" 
d="M46 339l10 60h55q32 98 99 161t159 63q78 0 125.5 -45t55.5 -123h-71q-8 46 -37 72.5t-75 26.5q-63 0 -109 -42.5t-71 -112.5h212l-23 -60h-206q-6 -35 -9 -69h193l-23 -60h-169q7 -70 41.5 -110t91.5 -40q92 0 134 99h73q-30 -80 -85 -124t-129 -44q-84 0 -138.5 59
t-62.5 160h-64l11 60h52q3 34 9 69h-49z" />
    <glyph glyph-name="uni2117" unicode="&#x2117;" horiz-adv-x="706" 
d="M687 307q0 -136 -92 -226t-224 -90t-224.5 90t-92.5 226t92.5 226t224.5 90t224 -90t92 -226zM647 307q0 119 -80.5 198t-195.5 79q-116 0 -196.5 -79t-80.5 -198t80.5 -198t196.5 -79q115 0 195.5 79t80.5 198zM406 254h-82v-130h-70v369h152q59 0 93.5 -31t34.5 -88
q0 -58 -34.5 -89t-93.5 -31zM466 374q0 58 -64 58h-78v-116h78q64 0 64 58z" />
    <glyph glyph-name="trademark" unicode="&#x2122;" horiz-adv-x="586" 
d="M74 568l8 46h217l-8 -46h-82l-37 -208h-53l37 208h-82zM446 360h-37l-35 168l-29 -168h-51l45 254h64l37 -180l101 180h65l-45 -254h-51l30 168z" />
    <glyph glyph-name="uni2153" unicode="&#x2153;" horiz-adv-x="685" 
d="M637 614l-535 -614h-70l536 614h69zM478 145l9 48h21q26 0 43 13.5t17 39.5q0 16 -10.5 26.5t-29.5 10.5q-44 0 -59 -48h-65q12 46 46.5 74.5t82.5 28.5q45 0 70.5 -23.5t25.5 -62.5q0 -30 -17.5 -53t-42.5 -31q40 -18 40 -65q0 -46 -34.5 -77t-85.5 -31
q-52 0 -82.5 26.5t-30.5 70.5l1 8h64v-2q0 -49 49 -49q25 0 42 15.5t17 39.5q0 19 -13 30t-35 11h-23zM257 615l-59 -333h-60l45 259l-95 -44l11 64l118 54h40z" />
    <glyph glyph-name="uni2154" unicode="&#x2154;" horiz-adv-x="745" 
d="M697 614l-535 -614h-69l535 614h69zM66 327l137 122q19 17 28 25.5t20 25t11 30.5q0 17 -10.5 26.5t-28.5 9.5q-22 0 -38 -15t-21 -38h-66q13 49 47.5 79t83.5 30q45 0 70.5 -22.5t25.5 -60.5q0 -24 -13 -48t-27 -38t-42 -39l-86 -75h138l-10 -55h-226zM538 145l9 48h21
q26 0 43 13.5t17 39.5q0 16 -10.5 26.5t-29.5 10.5q-44 0 -59 -48h-65q12 46 46.5 74.5t82.5 28.5q46 0 71 -23.5t25 -62.5q0 -30 -17.5 -53t-41.5 -31q39 -19 39 -65t-34.5 -77t-85.5 -31q-52 0 -82 26.5t-30 70.5v8h64v-2q0 -49 49 -49q25 0 42 15.5t17 39.5q0 19 -13 30
t-35 11h-23z" />
    <glyph glyph-name="uni215B" unicode="&#x215b;" horiz-adv-x="691" 
d="M637 614l-535 -614h-70l536 614h69zM257 615l-59 -333h-60l45 259l-95 -44l11 64l118 54h40zM439 92q0 -21 15 -34t38 -13q27 0 45.5 15.5t18.5 40.5q0 21 -15 33.5t-39 12.5q-27 0 -45 -15.5t-18 -39.5zM491 -4q-46 0 -80 23.5t-34 66.5q0 34 21 58.5t52 31.5
q-36 20 -36 63q0 44 33.5 71.5t81.5 27.5q44 0 73.5 -23t29.5 -62q0 -29 -17.5 -52t-44.5 -33q47 -21 47 -69t-37 -75.5t-89 -27.5zM573 248q0 18 -13 29.5t-33 11.5q-24 0 -39.5 -14t-15.5 -36q0 -18 13 -29t32 -11q24 0 40 13.5t16 35.5z" />
    <glyph glyph-name="uni215C" unicode="&#x215c;" horiz-adv-x="734" 
d="M535 -4q-46 0 -80 23.5t-34 66.5q0 34 21 58.5t52 31.5q-36 20 -36 63q0 44 33.5 71.5t81.5 27.5q44 0 73.5 -23t29.5 -62q0 -29 -17.5 -52t-44.5 -33q47 -21 47 -69t-37 -75.5t-89 -27.5zM680 614l-535 -614h-69l535 614h69zM170 427l8 48h21q26 0 43.5 13.5t17.5 39.5
q0 16 -11 26.5t-30 10.5q-44 0 -59 -48h-65q12 45 46.5 73.5t82.5 28.5q46 0 71.5 -23.5t25.5 -61.5q0 -30 -18 -53.5t-42 -31.5q40 -18 40 -64t-34.5 -77t-86.5 -31q-51 0 -81.5 26.5t-30.5 70.5l1 8h64v-2q0 -49 48 -49q25 0 42.5 15.5t17.5 39.5q0 19 -13 30t-35 11h-23z
M482 92q0 -21 15.5 -34t38.5 -13q27 0 45.5 15.5t18.5 40.5q0 21 -15 33.5t-39 12.5q-27 0 -45.5 -15.5t-18.5 -39.5zM617 248q0 18 -13 29.5t-33 11.5q-24 0 -39.5 -14t-15.5 -36q0 -18 13 -29t32 -11q24 0 40 13.5t16 35.5z" />
    <glyph glyph-name="uni215D" unicode="&#x215d;" horiz-adv-x="733" 
d="M535 -4q-46 0 -80.5 23.5t-34.5 66.5q0 34 21.5 58.5t52.5 31.5q-36 19 -36 63q0 45 33 72t81 27q44 0 73.5 -23t29.5 -62q0 -29 -17 -52t-44 -33q46 -21 46 -69t-37 -75.5t-88 -27.5zM181 277q-51 0 -81 27t-30 70l1 8h62v-3q0 -22 13.5 -35t37.5 -13q27 0 45 19t18 47
q0 23 -12.5 36.5t-35.5 13.5q-26 0 -50 -24h-53l33 191h194l-10 -55h-141l-13 -77q23 17 54 17q43 0 68.5 -26.5t25.5 -69.5q0 -53 -35.5 -89.5t-90.5 -36.5zM680 614l-536 -614h-69l535 614h70zM482 92q0 -21 15 -34t38 -13q28 0 46.5 15.5t18.5 40.5q0 21 -15.5 33.5
t-39.5 12.5q-26 0 -44.5 -15.5t-18.5 -39.5zM616 248q0 18 -13 29.5t-33 11.5q-24 0 -39.5 -14t-15.5 -36q0 -18 13.5 -29t32.5 -11q24 0 39.5 13.5t15.5 35.5z" />
    <glyph glyph-name="uni215E" unicode="&#x215e;" horiz-adv-x="673" 
d="M619 614l-535 -614h-69l535 614h69zM330 568l-160 -287h-64l155 277h-157l10 56h224zM422 92q0 -21 15 -34t38 -13q28 0 46 15.5t18 40.5q0 21 -15 33.5t-39 12.5q-26 0 -44.5 -15.5t-18.5 -39.5zM475 -4q-46 0 -80.5 23.5t-34.5 66.5q0 34 21.5 58.5t52.5 31.5
q-36 19 -36 63q0 45 33 72t81 27q44 0 73.5 -23t29.5 -62q0 -29 -17 -52t-44 -33q46 -21 46 -69t-37 -75.5t-88 -27.5zM556 248q0 18 -13 29.5t-33 11.5q-24 0 -39.5 -14t-15.5 -36q0 -18 13.5 -29t32.5 -11q24 0 39.5 13.5t15.5 35.5z" />
    <glyph glyph-name="minus" unicode="&#x2212;" horiz-adv-x="540" 
d="M79 266l11 62h395l-11 -62h-395z" />
    <glyph glyph-name="approxequal" unicode="&#x2248;" horiz-adv-x="551" 
d="M93 308l10 62q59 40 113 40q34 0 87 -20.5t85 -20.5q53 0 117 43l-11 -62q-60 -41 -116 -41q-34 0 -86.5 21t-85.5 21q-53 0 -113 -43zM70 184l11 62q59 40 114 40q34 0 86.5 -21t85.5 -21q54 0 116 43l-11 -62q-59 -40 -116 -40q-34 0 -86.5 20.5t-85.5 20.5
q-50 0 -114 -42z" />
    <glyph glyph-name="notequal" unicode="&#x2260;" horiz-adv-x="551" 
d="M98 338l10 57h238l84 93h60l-84 -93h96l-10 -57h-138l-74 -82h198l-10 -57h-240l-83 -92h-59l83 92h-96l10 57h137l74 82h-196z" />
    <glyph glyph-name="lessequal" unicode="&#x2264;" horiz-adv-x="427" 
d="M77 308l13 74l318 121l-13 -71l-245 -90l214 -90l-11 -65zM39 91l10 62h297l-11 -62h-296z" />
    <glyph glyph-name="greaterequal" unicode="&#x2265;" horiz-adv-x="427" 
d="M350 153l-10 -62h-297l11 62h296zM391 383l-13 -75l-319 -121l14 71l245 90l-214 91l11 64z" />
    <glyph glyph-name="fi" unicode="&#xfb01;" horiz-adv-x="498" 
d="M471 444l-78 -444h-75l78 444h75zM506 578q0 -20 -14.5 -34t-34.5 -14q-19 0 -33.5 14t-14.5 34t14 34t34 14t34.5 -14t14.5 -34zM365 649l-12 -67q-19 11 -43 11q-74 0 -89 -81l-12 -68h101l-12 -64h-100l-67 -380h-74l66 380h-74l11 64h75l13 74q12 66 55.5 103.5
t103.5 37.5q37 0 58 -10z" />
    <glyph glyph-name="fl" unicode="&#xfb02;" horiz-adv-x="498" 
d="M507 650l-114 -650h-75l114 650h75zM365 649l-12 -67q-19 11 -43 11q-74 0 -89 -81l-12 -68h101l-12 -64h-100l-67 -380h-74l66 380h-74l11 64h75l13 74q12 66 55.5 103.5t103.5 37.5q37 0 58 -10z" />
    <glyph glyph-name="i.dot" horiz-adv-x="209" 
d="M182 444l-78 -444h-75l78 444h75zM217 578q0 -20 -14.5 -34t-33.5 -14t-33.5 14t-14.5 34t14 34t34 14t34 -14t14 -34z" />
    <glyph glyph-name="space_uni0326" 
d="M197 -201l46 62q-34 9 -34 44q0 22 14 36t35 14t35 -14t14 -38q0 -27 -25 -58l-34 -46h-51z" />
    <glyph glyph-name="space_uni0326.alt" 
d="M307 680l-49 -65q34 -9 34 -45q0 -21 -14 -35t-35 -14t-35 14t-14 38q0 26 25 57l37 50h51z" />
    <glyph glyph-name="space_dotbelowcomb" 
d="M298 -108q0 -20 -14 -34t-34 -14t-34 14t-14 34t14 34t34 14t34 -14t14 -34z" />
    <glyph glyph-name="caron.Slovak" 
d="M245 486h-63l77 164h64z" />
    <glyph glyph-name="cedilla.alt" 
d="M239 -183h-75l89 132h78z" />
    <glyph glyph-name="grave.cap" 
d="M323 668h-71l-71 117h82z" />
    <glyph glyph-name="acute.cap" 
d="M235 668h-79l100 117h90z" />
    <glyph glyph-name="circumflex.cap" 
d="M306 791l71 -122h-65l-47 71l-70 -71h-72l114 122h69z" />
    <glyph glyph-name="caron.cap" 
d="M194 666l-71 121h65l47 -71l70 71h72l-114 -121h-69z" />
    <glyph glyph-name="tilde.cap" 
d="M341 785h50q-9 -54 -34 -86t-62 -32q-25 0 -51.5 29t-40.5 29q-33 0 -44 -55h-50q9 54 34 86t62 32q25 0 51.5 -29t40.5 -29q33 0 44 55z" />
    <glyph glyph-name="macron.cap" 
d="M137 671l11 61h214l-11 -61h-214z" />
    <glyph glyph-name="breve.cap" 
d="M233 666q-50 0 -78.5 32t-18.5 88h57q-6 -31 7 -47.5t40 -16.5q58 0 70 64h57q-22 -120 -134 -120z" />
    <glyph glyph-name="dotaccent.cap" 
d="M298 721q0 -19 -14 -33.5t-34 -14.5t-34 14.5t-14 33.5q0 20 14 34.5t34 14.5t34 -14.5t14 -34.5z" />
    <glyph glyph-name="dieresis.cap" 
d="M133 722q0 19 13.5 32.5t33.5 13.5q19 0 32.5 -13.5t13.5 -32.5t-13.5 -32.5t-32.5 -13.5q-20 0 -33.5 13.5t-13.5 32.5zM274 722q0 19 13 32.5t32 13.5q20 0 33.5 -13.5t13.5 -32.5t-13.5 -32.5t-33.5 -13.5q-19 0 -32 13.5t-13 32.5z" />
    <glyph glyph-name="ring.cap" 
d="M248 689q19 0 33 13.5t14 33.5q0 19 -12.5 31.5t-30.5 12.5q-19 0 -33.5 -13.5t-14.5 -34.5q0 -18 13 -30.5t31 -12.5zM246 648q-36 0 -60 23.5t-24 58.5q0 37 26.5 64t64.5 27q36 0 60 -24t24 -59q0 -37 -26.5 -63.5t-64.5 -26.5z" />
    <glyph glyph-name="hungarumlaut.cap" 
d="M176 668h-68l87 117h70zM304 668h-68l87 117h69z" />
    <glyph glyph-name="exclamdown.cap" horiz-adv-x="203" 
d="M168 421l-58 -421h-90l94 421h54zM217 565q0 -23 -15.5 -39t-37.5 -16q-23 0 -38.5 16t-15.5 39t15.5 38.5t38.5 15.5q22 0 37.5 -15.5t15.5 -38.5z" />
    <glyph glyph-name="questiondown.cap" horiz-adv-x="432" 
d="M183 60q55 0 93 32t53 88h78q-25 -88 -84.5 -139t-143.5 -51q-77 0 -119.5 38.5t-42.5 107.5q0 38 20.5 75.5t39 56t60.5 55.5q8 7 12 11q52 46 61 86h74q-14 -66 -79 -126q-6 -6 -27 -24.5t-31.5 -29t-24.5 -28.5t-20.5 -36t-6.5 -37q0 -36 23.5 -57.5t64.5 -21.5z
M322 564q0 -23 -15.5 -39t-37.5 -16t-37.5 16t-15.5 39t15 38.5t38 15.5t38 -15.5t15 -38.5z" />
    <glyph glyph-name="guilsinglleft.cap" horiz-adv-x="215" 
d="M186 158h-71l-66 147l118 148h77l-121 -152z" />
    <glyph glyph-name="guilsinglright.cap" horiz-adv-x="215" 
d="M78 453h72l65 -148l-118 -147h-77l121 152z" />
    <glyph glyph-name="guillemotleft.cap" horiz-adv-x="357" 
d="M183 158h-68l-66 147l118 148h74l-121 -152zM328 158h-68l-66 147l118 148h74l-121 -152z" />
    <glyph glyph-name="guillemotright.cap" horiz-adv-x="357" 
d="M223 453h69l65 -148l-118 -147h-74l121 152zM78 453h68l66 -148l-118 -147h-74l121 152z" />
    <glyph glyph-name="slash.cap" horiz-adv-x="333" 
d="M-43 -64l376 734h82l-377 -734h-81z" />
    <glyph glyph-name="backslash.cap" horiz-adv-x="333" 
d="M170 670l119 -734h-72l-119 734h72z" />
    <glyph glyph-name="bar.cap" horiz-adv-x="219" 
d="M27 -64l129 734h73l-129 -734h-73z" />
    <glyph glyph-name="periodcentered.cap" horiz-adv-x="176" 
d="M49 302q0 23 15.5 39t37.5 16t37.5 -16t15.5 -39t-15 -38.5t-38 -15.5t-38 15.5t-15 38.5z" />
    <glyph glyph-name="bullet.cap" horiz-adv-x="343" 
d="M321 301q0 -59 -39.5 -97.5t-97.5 -38.5t-97.5 38.5t-39.5 97.5t39.5 97.5t97.5 38.5t97.5 -38.5t39.5 -97.5z" />
    <glyph glyph-name="hyphen.cap" horiz-adv-x="321" 
d="M49 266l13 70h241l-13 -70h-241z" />
    <glyph glyph-name="endash.cap" horiz-adv-x="475" 
d="M49 271l11 61h395l-11 -61h-395z" />
    <glyph glyph-name="emdash.cap" horiz-adv-x="846" 
d="M49 271l11 61h766l-11 -61h-766z" />
    <glyph glyph-name="parenleft.cap" horiz-adv-x="321" 
d="M37 234q0 157 91 274t249 160l-14 -80q-110 -32 -180 -128.5t-70 -225.5q0 -86 39.5 -143t109.5 -77l-14 -80q-99 31 -155 108.5t-56 191.5z" />
    <glyph glyph-name="parenright.cap" horiz-adv-x="321" 
d="M317 368q0 -157 -91 -274t-249 -160l14 81q109 31 179.5 127.5t70.5 225.5q0 86 -40 143.5t-110 76.5l15 80q99 -30 155 -107.5t56 -192.5z" />
    <glyph glyph-name="bracketleft.cap" horiz-adv-x="313" 
d="M212 600l-105 -597h146l-13 -69h-216l129 734h216l-12 -68h-145z" />
    <glyph glyph-name="bracketright.cap" horiz-adv-x="313" 
d="M134 3l104 597h-145l12 68h217l-129 -734h-217l12 69h146z" />
    <glyph glyph-name="braceleft.cap" horiz-adv-x="339" 
d="M177 225l-32 -186q-6 -36 29 -36h104l-12 -69h-103q-50 0 -74.5 31t-16.5 82l32 183q6 36 -29 36h-46l13 70h46q35 0 41 37l32 183q9 50 45.5 81t85.5 31h103l-12 -68h-105q-35 0 -41 -37l-33 -185q-9 -51 -57 -77q39 -27 30 -76z" />
    <glyph glyph-name="braceright.cap" horiz-adv-x="339" 
d="M194 378l33 185q6 37 -29 37h-105l12 68h104q51 0 75 -30.5t16 -81.5l-32 -183q-6 -37 29 -37h46l-13 -70h-46q-36 0 -42 -36l-32 -183q-9 -50 -45 -81.5t-85 -31.5h-104l12 69h105q36 0 42 36l33 186q8 51 57 77q-40 26 -31 76z" />
    <glyph glyph-name="at.cap" horiz-adv-x="774" 
d="M585 473l-57 -243q-11 -54 38 -54q56 0 95 54.5t39 147.5q0 101 -71 162.5t-186 61.5q-145 0 -240 -98.5t-95 -248.5q0 -69 26.5 -121.5t71 -82t95.5 -43.5t107 -14q119 0 226 47l-10 -59q-92 -44 -217 -44q-72 0 -135.5 19t-114.5 56t-81 99.5t-30 142.5
q0 168 112.5 285.5t285.5 117.5q142 0 229.5 -78.5t87.5 -201.5q0 -121 -62.5 -188.5t-145.5 -67.5q-36 0 -62 15.5t-35 42.5q-17 -25 -46.5 -41t-58.5 -16q-58 0 -91 37.5t-33 96.5q0 89 55.5 157t137.5 68q63 0 89 -46l10 37h66zM463 243l29 124q-16 53 -71 53
q-54 0 -89.5 -48.5t-35.5 -108.5q0 -36 19.5 -57t52.5 -21q53 0 95 58z" />
    <glyph glyph-name="Euro.lt" horiz-adv-x="520" 
d="M45 339l10 60h53q31 98 94.5 161t150.5 63q75 0 119.5 -45t52.5 -123h-69q-8 46 -34.5 72.5t-70.5 26.5q-60 0 -102.5 -42.5t-66.5 -112.5h199l-23 -60h-193q-7 -38 -8 -69h180l-24 -60h-156q5 -71 37 -110.5t88 -39.5q86 0 125 99h72q-28 -80 -80.5 -124t-123.5 -44
q-81 0 -132.5 58.5t-58.5 160.5h-61l10 60h51q2 34 9 69h-48z" />
    <glyph glyph-name="dollar.lt" horiz-adv-x="520" 
d="M24 174h74q7 -50 44.5 -75t91.5 -25q61 0 99 30t38 84t-76 76l-98 30q-117 34 -117 133q0 78 58 128.5t146 50.5l17 93h68l-17 -101q59 -15 92 -54.5t38 -97.5h-72q-5 42 -38.5 68.5t-87.5 26.5q-56 0 -93.5 -28.5t-37.5 -77.5q0 -53 77 -77l97 -28q118 -36 118 -135
q0 -81 -57 -131.5t-140 -55.5l-18 -97h-68l18 101q-67 12 -109 54t-47 108z" />
    <glyph glyph-name="cent.lt" horiz-adv-x="520" 
d="M61 196q0 103 59.5 181t155.5 85l16 91h68l-17 -97q51 -13 79.5 -50t30.5 -91h-75q-3 38 -26 60t-62 22q-70 0 -111 -59t-41 -142q0 -59 28 -94t77 -35q85 0 114 82h74q-17 -63 -61 -101.5t-107 -45.5l-15 -89h-69l16 92q-62 14 -98 64.5t-36 126.5z" />
    <glyph glyph-name="sterling.lt" horiz-adv-x="520" 
d="M243 425l-17 -91h154l-11 -63h-154l-20 -115q-10 -60 -38 -91h294l-11 -65h-429l11 65h61q28 38 38 91l20 115h-83l11 63h83l16 91q16 90 68 144t132 54q77 0 116.5 -39.5t40.5 -105.5h-72q-3 79 -85 79q-51 0 -82.5 -35t-42.5 -97z" />
    <glyph glyph-name="yen.lt" horiz-adv-x="520" 
d="M37 134l10 60h158l12 70h-157l10 59h129l-117 291h77l108 -278l204 278h82l-220 -291h129l-10 -59h-159l-12 -70h158l-10 -60h-159l-23 -134h-75l23 134h-158z" />
    <glyph glyph-name="florin.lt" horiz-adv-x="520" 
d="M156 281l11 63h85l43 141q20 66 63.5 102t101.5 36q43 0 67 -12l-12 -68q-26 14 -55 14q-65 0 -89 -78l-41 -135h91l-11 -63h-99l-97 -320q-42 -138 -155 -138q-40 0 -67 12l12 68q25 -14 55 -14q32 0 49.5 17.5t30.5 60.5l94 314h-77z" />
    <glyph glyph-name="zero.lt" horiz-adv-x="520" 
d="M231 62q58 0 104 48.5t68.5 121t22.5 153.5q0 77 -30 122t-87 45q-58 0 -104 -48.5t-68.5 -121t-22.5 -153.5q0 -77 30 -122t87 -45zM232 -9q-92 0 -143.5 64.5t-51.5 173.5q0 162 78 278t193 116q92 0 143.5 -64.5t51.5 -173.5q0 -161 -78 -277.5t-193 -116.5z" />
    <glyph glyph-name="one.lt" horiz-adv-x="520" 
d="M34 0l12 70h175l79 450l-188 -89l15 81l220 103h46l-95 -545h154l-12 -70h-406z" />
    <glyph glyph-name="two.lt" horiz-adv-x="520" 
d="M34 52l251 231q79 72 102 104q32 44 32 83t-24.5 61t-69.5 22q-54 0 -89.5 -33.5t-51.5 -89.5h-82q25 88 85.5 140.5t145.5 52.5q77 0 120.5 -38.5t43.5 -105.5q0 -43 -21.5 -83.5t-48.5 -68.5t-74 -71q-11 -10 -17 -15l-187 -171h287l-13 -70h-397z" />
    <glyph glyph-name="three.lt" horiz-adv-x="520" 
d="M219 281l11 67h44q56 0 96.5 31.5t40.5 88.5q0 39 -26.5 63t-72.5 24q-50 0 -87.5 -30t-53.5 -79h-81q24 79 85.5 128t142.5 49t125 -40.5t44 -108.5q0 -58 -37.5 -103t-90.5 -59q42 -14 65 -46t23 -77q0 -83 -63 -140.5t-156 -57.5q-91 0 -143 46t-52 124l1 15h76v-5
q0 -53 30.5 -82.5t87.5 -29.5q61 0 102.5 36t41.5 94q0 42 -31 67t-80 25h-42z" />
    <glyph glyph-name="four.lt" horiz-adv-x="520" 
d="M421 614l-296 -409h189l27 148h73l-27 -148h108l-11 -66h-108l-24 -139h-73l24 139h-282l10 56l305 419h85z" />
    <glyph glyph-name="five.lt" horiz-adv-x="520" 
d="M231 -9q-87 0 -139.5 47t-52.5 123l1 15h77v-6q0 -51 31 -81t85 -30q65 0 108.5 45.5t43.5 111.5q0 51 -30 82.5t-81 31.5q-65 0 -116 -53h-66l61 337h344l-13 -70h-278l-33 -186q50 40 117 40q79 0 124.5 -48t45.5 -128q0 -94 -64.5 -162.5t-164.5 -68.5z" />
    <glyph glyph-name="six.lt" horiz-adv-x="520" 
d="M503 464h-77q-5 40 -29.5 65.5t-69.5 25.5q-76 0 -131 -71.5t-69 -173.5h2q23 41 66 66t91 25q81 0 131 -52t50 -128q0 -93 -64.5 -161.5t-158.5 -68.5q-97 0 -146.5 64.5t-49.5 168.5q0 100 33.5 190t99 149.5t147.5 59.5q76 0 121.5 -42t53.5 -117zM127 180
q0 -51 30.5 -86t88.5 -35q59 0 102.5 45t43.5 111q0 51 -31.5 85.5t-87.5 34.5q-60 0 -103 -44.5t-43 -110.5z" />
    <glyph glyph-name="seven.lt" horiz-adv-x="520" 
d="M497 553l-316 -553h-82l313 544h-333l12 70h417z" />
    <glyph glyph-name="eight.lt" horiz-adv-x="520" 
d="M114 160q0 -47 35 -76t88 -29q62 0 104.5 36t42.5 94q0 48 -35.5 77t-89.5 29q-61 0 -103 -36.5t-42 -94.5zM234 -9q-79 0 -138.5 43t-59.5 120q0 67 44.5 115.5t106.5 59.5q-75 36 -75 120q0 75 57.5 124.5t141.5 49.5q76 0 127.5 -40t51.5 -109q0 -57 -36 -99.5
t-89 -57.5q44 -18 69.5 -53t25.5 -83q0 -87 -67 -138.5t-159 -51.5zM413 470q0 40 -29.5 64.5t-72.5 24.5q-53 0 -88.5 -32t-35.5 -82q0 -40 29.5 -65t72.5 -25q53 0 88.5 32.5t35.5 82.5z" />
    <glyph glyph-name="nine.lt" horiz-adv-x="520" 
d="M31 150h77q5 -40 29.5 -65.5t69.5 -25.5q76 0 131 71.5t69 173.5h-2q-23 -41 -66 -66t-91 -25q-81 0 -131 52t-50 128q0 93 64.5 161.5t158.5 68.5q97 0 146.5 -64.5t49.5 -168.5q0 -100 -33.5 -190t-99 -149.5t-147.5 -59.5q-76 0 -121.5 42t-53.5 117zM407 434
q0 51 -30.5 86t-88.5 35q-59 0 -102.5 -45t-43.5 -111q0 -51 31.5 -85.5t87.5 -34.5q60 0 103 44.5t43 110.5z" />
    <glyph glyph-name="period.tab" horiz-adv-x="260" 
d="M43 49q0 23 15.5 39t37.5 16t37.5 -16t15.5 -39t-15 -38.5t-38 -15.5t-38 15.5t-15 38.5z" />
    <glyph glyph-name="comma.tab" horiz-adv-x="260" 
d="M11 -107l83 107q-37 10 -37 49q0 23 15 38t38 15t38.5 -15t15.5 -41t-27 -63l-70 -90h-56z" />
    <glyph glyph-name="colon.tab" horiz-adv-x="260" 
d="M43 49q0 23 15.5 39t37.5 16t37.5 -16t15.5 -39t-15 -38.5t-38 -15.5t-38 15.5t-15 38.5zM98 363q0 23 15.5 39t37.5 16t37.5 -16t15.5 -39t-15 -38.5t-38 -15.5t-38 15.5t-15 38.5z" />
    <glyph glyph-name="semicolon.tab" horiz-adv-x="260" 
d="M11 -107l83 107q-37 10 -37 49q0 23 15 38t38 15t38.5 -15t15.5 -41t-27 -63l-70 -90h-56zM98 363q0 23 15.5 39t37.5 16t37.5 -16t15.5 -39t-15 -38.5t-38 -15.5t-38 15.5t-15 38.5z" />
    <glyph glyph-name="space.tab" horiz-adv-x="260" 
 />
    <glyph glyph-name="percent.lt" horiz-adv-x="520" 
d="M176 623q49 0 82.5 -33.5t33.5 -82.5q0 -51 -36.5 -89t-89.5 -38q-49 0 -82.5 33.5t-33.5 82.5q0 51 36.5 89t89.5 38zM168 433q28 0 49.5 21t21.5 51q0 27 -19 46t-46 19q-28 0 -49.5 -21t-21.5 -51q0 -27 19 -46t46 -19zM355 -9q-49 0 -82.5 33.5t-33.5 82.5
q0 51 36.5 89t89.5 38q49 0 83 -33.5t34 -82.5q0 -51 -36.5 -89t-90.5 -38zM363 181q-28 0 -49.5 -21t-21.5 -51q0 -27 19 -46t47 -19t49 21t21 51q0 27 -19 46t-46 19zM535 614l-471 -614h-67l470 614h68z" />
    <glyph glyph-name="perthousand.lt" horiz-adv-x="800" 
d="M190 623q49 0 82.5 -33.5t33.5 -82.5q0 -51 -36.5 -89t-89.5 -38q-49 0 -82.5 33.5t-33.5 82.5q0 51 36.5 89t89.5 38zM182 433q28 0 49.5 21t21.5 51q0 27 -19 46t-46 19q-28 0 -49.5 -21t-21.5 -51q0 -27 19 -46t46 -19zM369 -9q-49 0 -82.5 33.5t-33.5 82.5
q0 51 36.5 89t89.5 38q49 0 82.5 -33.5t33.5 -82.5q0 -51 -36.5 -89t-89.5 -38zM377 181q-28 0 -49.5 -21t-21.5 -51q0 -27 19 -46t46 -19q28 0 49.5 21t21.5 51q0 27 -19 46t-46 19zM549 614l-471 -614h-68l471 614h68zM643 -9q-49 0 -83 33.5t-34 82.5q0 51 36.5 89
t90.5 38q49 0 82.5 -33.5t33.5 -82.5q0 -51 -36.5 -89t-89.5 -38zM650 181q-28 0 -49 -21t-21 -51q0 -27 19 -46t46 -19q28 0 49 21t21 51q0 27 -18.5 46t-46.5 19z" />
    <glyph glyph-name="plus.lt" horiz-adv-x="520" 
d="M270 494h62l-29 -166h166l-11 -62h-166l-29 -166h-62l29 166h-166l11 62h166z" />
    <glyph glyph-name="minus.lt" horiz-adv-x="520" 
d="M64 266l11 62h394l-11 -62h-394z" />
    <glyph glyph-name="multiply.lt" horiz-adv-x="520" 
d="M226 296l-101 121l47 40l99 -122l144 123l36 -42l-144 -123l100 -121l-47 -41l-100 122l-143 -123l-36 44z" />
    <glyph glyph-name="divide.lt" horiz-adv-x="520" 
d="M64 266l11 62h394l-11 -62h-394zM245 458q0 21 14.5 36t35.5 15t36 -15t15 -36t-15 -36t-36 -15t-35.5 15t-14.5 36zM188 136q0 21 15 36t36 15q20 0 35 -15t15 -36t-15 -36t-35 -15q-21 0 -36 15t-15 36z" />
    <glyph glyph-name="equal.lt" horiz-adv-x="520" 
d="M52 199l10 58h395l-10 -58h-395zM76 337l11 60h394l-10 -60h-395z" />
    <glyph glyph-name="less.lt" horiz-adv-x="520" 
d="M98 256l13 78l323 151l-13 -74l-258 -119l216 -118l-12 -69z" />
    <glyph glyph-name="greater.lt" horiz-adv-x="520" 
d="M434 334l-13 -78l-323 -151l13 73l258 120l-216 118l12 69z" />
    <glyph glyph-name="plusminus.lt" horiz-adv-x="520" 
d="M285 518h62l-23 -129h163l-11 -62h-163l-23 -129h-61l22 129h-163l10 62h164zM45 88l11 62h389l-11 -62h-389z" />
    <glyph glyph-name="lessequal.lt" horiz-adv-x="520" 
d="M120 308l12 74l319 121l-13 -71l-245 -90l213 -90l-11 -65zM81 91l11 62h297l-11 -62h-297z" />
    <glyph glyph-name="greaterequal.lt" horiz-adv-x="520" 
d="M400 153l-11 -62h-297l11 62h297zM440 383l-12 -75l-319 -121l13 71l245 90l-213 91l11 64z" />
    <glyph glyph-name="notequal.lt" horiz-adv-x="520" 
d="M76 338l11 57h237l85 93h59l-84 -93h97l-10 -57h-139l-74 -82h199l-10 -57h-240l-83 -92h-60l83 92h-95l10 57h137l74 82h-197z" />
    <glyph glyph-name="approxequal.lt" horiz-adv-x="520" 
d="M72 308l10 62q59 40 113 40q34 0 86.5 -20.5t85.5 -20.5q53 0 117 43l-11 -62q-60 -41 -116 -41q-34 0 -86.5 21t-85.5 21q-53 0 -113 -43zM49 184l11 62q59 40 113 40q34 0 87 -21t86 -21q54 0 116 43l-11 -62q-60 -40 -117 -40q-33 0 -85.5 20.5t-85.5 20.5
q-52 0 -114 -42z" />
    </font>
</defs>
</svg>
