<?xml version="1.0" standalone="no"?>
<!DOCTYPE svg PUBLIC "-//W3C//DTD SVG 1.1//EN" "http://www.w3.org/Graphics/SVG/1.1/DTD/svg11.dtd" >
<svg>
<metadata>
Created by FontForge 20110222 at Wed Aug 13 21:23:46 2014
 By Orthosie Webhosting
(c) 2011 Klim Type Foundry. All rights reserved.
</metadata>
<defs>
<font id="CalibreLightItalic" horiz-adv-x="500" >
  <font-face 
    font-family="CalibreLightItalic"
    font-weight="300"
    font-style="italic"
    font-stretch="normal"
    units-per-em="1000"
    panose-1="2 11 3 3 3 2 2 13 2 3"
    ascent="650"
    descent="-350"
    x-height="444"
    cap-height="614"
    bbox="-180 -183 885 893"
    underline-thickness="30"
    underline-position="-40"
    slope="-10"
    unicode-range="U+0020-FB02"
  />
<missing-glyph horiz-adv-x="608" 
 />
    <glyph glyph-name="f_f" unicode="ff" horiz-adv-x="494" 
d="M580 650l-8 -45q-18 9 -42 9q-38 0 -64.5 -24.5t-34.5 -70.5l-13 -75h104l-8 -43h-104l-70 -401h-49l70 401h-186l-70 -401h-49l70 401h-72l8 43h72l13 74q11 61 50.5 98t94.5 37q31 0 52 -9l-8 -45q-20 9 -42 9q-38 0 -64.5 -24.5t-34.5 -70.5l-12 -69h186l14 80
q11 61 50.5 98t95.5 37q30 0 51 -9z" />
    <glyph glyph-name=".notdef" horiz-adv-x="608" 
 />
    <glyph glyph-name=".null" horiz-adv-x="0" 
 />
    <glyph glyph-name="nonmarkingreturn" horiz-adv-x="333" 
 />
    <glyph glyph-name="space" unicode=" " horiz-adv-x="221" 
 />
    <glyph glyph-name="exclam" unicode="!" horiz-adv-x="206" 
d="M83 192l66 422h56l-85 -422h-37zM36 35q0 16 11 27.5t27 11.5q15 0 26 -11.5t11 -27.5t-11 -27t-26 -11q-16 0 -27 11t-11 27z" />
    <glyph glyph-name="quotedbl" unicode="&#x22;" horiz-adv-x="221" 
d="M73 418l35 196h45l-35 -196h-45zM169 418l35 196h45l-35 -196h-45z" />
    <glyph glyph-name="numbersign" unicode="#" horiz-adv-x="554" 
d="M500 231l-8 -40h-119l-58 -191h-44l58 191h-143l-58 -191h-43l58 191h-97l8 40h101l46 152h-115l8 40h119l58 191h44l-58 -191h142l59 191h43l-58 -191h97l-9 -40h-100l-46 -152h115zM245 383l-47 -152h143l46 152h-142z" />
    <glyph glyph-name="dollar" unicode="$" horiz-adv-x="459" 
d="M20 164h48q9 -53 50 -80t102 -27q68 0 111 34.5t43 96.5t-82 88l-103 32q-112 35 -112 124q0 76 56 122.5t139 46.5h7l18 94h45l-18 -99q62 -12 97.5 -50.5t41.5 -94.5h-47q-8 49 -45.5 78t-98.5 29q-62 0 -104.5 -32.5t-42.5 -89.5q0 -33 22.5 -53t66.5 -34l96 -30
q112 -35 112 -128q0 -80 -58.5 -129t-142.5 -49l-17 -98h-45l17 101q-66 9 -108 47.5t-48 100.5z" />
    <glyph glyph-name="percent" unicode="%" horiz-adv-x="620" 
d="M196 623q52 0 87 -35.5t35 -86.5q0 -52 -37.5 -92t-92.5 -40q-52 0 -87.5 35t-35.5 86q0 52 38 92.5t93 40.5zM189 411q35 0 61 26t26 63q0 33 -24 56.5t-58 23.5q-35 0 -60.5 -26t-25.5 -63q0 -33 23.5 -56.5t57.5 -23.5zM43 0l495 614h47l-495 -614h-47zM433 -9
q-52 0 -87.5 35.5t-35.5 86.5q0 52 38 92t93 40q52 0 87 -35t35 -86q0 -53 -37.5 -93t-92.5 -40zM439 203q-35 0 -60.5 -26t-25.5 -63q0 -33 23.5 -56.5t57.5 -23.5q35 0 61 26t26 63q0 33 -24 56.5t-58 23.5z" />
    <glyph glyph-name="ampersand" unicode="&#x26;" horiz-adv-x="554" 
d="M309 580q-52 0 -86 -32.5t-34 -89.5q0 -30 13.5 -55.5t41.5 -60.5l160 -203q47 65 64 157l47 -1q-19 -110 -84 -190l84 -105h-59l-57 71q-83 -80 -192 -80q-80 0 -129 45.5t-49 119.5q0 67 41.5 119t107.5 74q-38 55 -38 107q0 75 49 121t120 46q72 0 113 -41.5
t43 -109.5h-49q-1 50 -29.5 79t-77.5 29zM207 34q96 0 167 69l-169 211q-56 -14 -91.5 -57.5t-35.5 -100.5q0 -54 36.5 -88t92.5 -34z" />
    <glyph glyph-name="quotesingle" unicode="'" horiz-adv-x="126" 
d="M73 418l35 196h46l-35 -196h-46z" />
    <glyph glyph-name="parenleft" unicode="(" horiz-adv-x="325" 
d="M36 212q0 159 91.5 276.5t248.5 161.5l-9 -51q-129 -42 -205.5 -144t-76.5 -243q0 -95 45 -158.5t126 -87.5l-9 -50q-100 29 -155.5 106t-55.5 190z" />
    <glyph glyph-name="parenright" unicode=")" horiz-adv-x="325" 
d="M312 354q0 -159 -91.5 -276.5t-248.5 -161.5l9 51q129 42 205.5 144t76.5 243q0 95 -45 158.5t-126 87.5l9 50q100 -29 155.5 -106t55.5 -190z" />
    <glyph glyph-name="asterisk" unicode="*" horiz-adv-x="315" 
d="M203 376l-32 6l18 106l-100 -37l-11 30l101 37l-83 70l21 23l82 -68l18 106l33 -6l-19 -106l101 37l11 -30l-101 -37l83 -70l-21 -24l-82 69z" />
    <glyph glyph-name="plus" unicode="+" horiz-adv-x="514" 
d="M279 480h43l-29 -164h165l-7 -43h-166l-28 -164h-43l28 164h-163l7 43h164z" />
    <glyph glyph-name="comma" unicode="," horiz-adv-x="141" 
d="M-43 -101l73 102q-26 5 -26 34q0 16 10.5 27t26.5 11q17 0 27.5 -11t10.5 -28q0 -19 -18 -43l-66 -92h-38z" />
    <glyph glyph-name="hyphen" unicode="-" horiz-adv-x="321" 
d="M43 237l8 46h241l-8 -46h-241z" />
    <glyph glyph-name="period" unicode="." horiz-adv-x="141" 
d="M4 35q0 16 11 27.5t26 11.5q16 0 27 -11.5t11 -27.5t-11 -27t-27 -11q-15 0 -26 11t-11 27z" />
    <glyph glyph-name="slash" unicode="/" horiz-adv-x="306" 
d="M-48 -84l376 734h51l-377 -734h-50z" />
    <glyph glyph-name="zero" unicode="0" horiz-adv-x="535" 
d="M244 38q63 0 114 49.5t78.5 128t27.5 168.5q0 88 -36.5 140t-102.5 52q-63 0 -114 -49.5t-78.5 -128t-27.5 -168.5q0 -88 36.5 -140t102.5 -52zM245 -9q-88 0 -139 64.5t-51 174.5q0 160 77.5 276.5t192.5 116.5q87 0 138 -64.5t51 -174.5q0 -161 -77 -277t-192 -116z
" />
    <glyph glyph-name="one" unicode="1" horiz-adv-x="321" 
d="M305 615l-108 -615h-51l97 552l-175 -82l9 54l196 91h32z" />
    <glyph glyph-name="two" unicode="2" horiz-adv-x="437" 
d="M-9 35l264 241q76 70 98 98q41 53 41 103q0 46 -29.5 72.5t-80.5 26.5q-64 0 -107 -39.5t-62 -107.5h-53q24 88 83 141t142 53q74 0 115.5 -38.5t41.5 -103.5q0 -35 -10.5 -64.5t-39.5 -64t-45 -50t-63 -58.5l-219 -197h311l-8 -47h-385z" />
    <glyph glyph-name="three" unicode="3" horiz-adv-x="455" 
d="M200 293l7 45h47q61 0 105 37t44 99q0 46 -30 74.5t-83 28.5q-55 0 -96.5 -33t-62.5 -89h-52q24 76 82 122t132 46q77 0 119 -39.5t42 -106.5q0 -61 -41 -107t-98 -56q46 -9 74 -42.5t28 -84.5q0 -81 -60 -138.5t-151 -57.5q-84 0 -134 45t-50 120v11h51v-4q0 -60 35 -93
t98 -33q69 0 115 42.5t46 107.5q0 49 -33.5 77.5t-87.5 28.5h-46z" />
    <glyph glyph-name="four" unicode="4" 
d="M393 614l-310 -418h229l27 152h48l-26 -152h115l-8 -46h-115l-27 -150h-48l27 150h-290l7 40l315 424h56z" />
    <glyph glyph-name="five" unicode="5" horiz-adv-x="460" 
d="M205 -9q-83 0 -133 45.5t-50 120.5v10h51v-5q0 -59 36 -92t97 -33q74 0 122.5 52.5t48.5 125.5q0 56 -33.5 92.5t-88.5 36.5q-72 0 -128 -58h-44l58 328h326l-9 -47h-280l-40 -223q54 46 124 46q76 0 120.5 -48.5t44.5 -124.5q0 -91 -63.5 -158.5t-158.5 -67.5z" />
    <glyph glyph-name="six" unicode="6" horiz-adv-x="495" 
d="M497 468h-49q-11 109 -117 109q-87 0 -150 -87t-74 -207h1q25 54 72 85.5t102 31.5q80 0 132 -52t52 -131q0 -94 -63.5 -160t-154.5 -66q-93 0 -143 64t-50 167q0 163 80 282t197 119q74 0 117 -42t48 -113zM109 181q0 -59 37 -101.5t103 -42.5q68 0 117.5 50t49.5 127
q0 60 -37.5 100.5t-101.5 40.5q-67 0 -117.5 -50t-50.5 -124z" />
    <glyph glyph-name="seven" unicode="7" horiz-adv-x="429" 
d="M466 573l-327 -573h-54l325 567h-334l8 47h389z" />
    <glyph glyph-name="eight" unicode="8" horiz-adv-x="481" 
d="M78 156q0 -53 42 -87t102 -34q74 0 124 42t50 105q0 56 -42.5 89.5t-106.5 33.5q-71 0 -120 -43t-49 -106zM221 -9q-79 0 -136.5 42.5t-57.5 119.5q0 66 45.5 116t113.5 64q-36 16 -57.5 47.5t-21.5 72.5q0 71 56 120.5t139 49.5q72 0 121.5 -39t49.5 -106
q0 -55 -36.5 -98t-93.5 -59q47 -18 75 -55t28 -86q0 -82 -66.5 -135.5t-158.5 -53.5zM423 476q0 47 -35 75t-86 28q-62 0 -104 -37.5t-42 -90.5q0 -46 36 -74.5t86 -28.5q62 0 103.5 37.5t41.5 90.5z" />
    <glyph glyph-name="nine" unicode="9" horiz-adv-x="495" 
d="M33 146h49q11 -109 117 -109q87 0 150 87t74 207h-1q-25 -54 -72 -85.5t-102 -31.5q-80 0 -132 52t-52 131q0 94 63.5 160t154.5 66q93 0 143 -64t50 -167q0 -163 -80 -282t-197 -119q-74 0 -117 42t-48 113zM421 433q0 59 -37 101.5t-103 42.5q-68 0 -117.5 -50
t-49.5 -127q0 -60 37.5 -100.5t101.5 -40.5q67 0 117.5 50t50.5 124z" />
    <glyph glyph-name="colon" unicode=":" horiz-adv-x="141" 
d="M4 35q0 16 11 27.5t26 11.5q16 0 27 -11.5t11 -27.5t-11 -27t-27 -11q-15 0 -26 11t-11 27zM62 364q0 16 11 27.5t26 11.5q16 0 27 -11.5t11 -27.5t-11 -27t-27 -11q-15 0 -26 11t-11 27z" />
    <glyph glyph-name="semicolon" unicode=";" horiz-adv-x="141" 
d="M-43 -101l73 102q-26 5 -26 34q0 16 10.5 27t26.5 11q17 0 27.5 -11t10.5 -28q0 -19 -18 -43l-66 -92h-38zM62 364q0 16 11 27.5t26 11.5q16 0 27 -11.5t11 -27.5t-11 -27t-27 -11q-15 0 -26 11t-11 27z" />
    <glyph glyph-name="less" unicode="&#x3c;" horiz-adv-x="397" 
d="M65 269l8 47l301 150l-9 -51l-254 -125l210 -124l-8 -47z" />
    <glyph glyph-name="equal" unicode="=" horiz-adv-x="521" 
d="M71 210l8 42h372l-7 -42h-373zM94 338l7 42h372l-7 -42h-372z" />
    <glyph glyph-name="greater" unicode="&#x3e;" horiz-adv-x="397" 
d="M355 316l-8 -47l-301 -150l9 51l254 125l-210 125l8 46z" />
    <glyph glyph-name="question" unicode="?" horiz-adv-x="422" 
d="M276 576q-65 0 -108.5 -36.5t-61.5 -102.5h-51q24 87 82 136.5t141 49.5q73 0 114 -37.5t41 -102.5q0 -27 -6.5 -49.5t-25.5 -47t-28.5 -35.5t-40.5 -39t-37 -34q-27 -26 -39.5 -43.5t-18.5 -41.5h-48q14 58 73 114q6 6 30 28t34.5 33t26.5 31t22.5 40.5t6.5 42.5
q0 43 -28 68.5t-78 25.5zM146 35q0 16 11 27.5t26 11.5q16 0 27 -11.5t11 -27.5t-11 -27t-27 -11q-15 0 -26 11t-11 27z" />
    <glyph glyph-name="at" unicode="@" horiz-adv-x="774" 
d="M561 380l-61 -255q-13 -60 45 -60q65 0 110.5 58.5t45.5 161.5q0 105 -74.5 170.5t-194.5 65.5q-153 0 -252.5 -104.5t-99.5 -257.5q0 -70 26.5 -124t71.5 -86t99.5 -48t115.5 -16q117 0 215 45l-5 -41q-95 -43 -211 -43q-71 0 -133.5 18.5t-113 55.5t-79.5 98.5
t-29 140.5q0 167 112 285t283 118q140 0 225.5 -78t85.5 -199q0 -122 -61.5 -190.5t-143.5 -68.5q-36 0 -59.5 16.5t-27.5 45.5q-20 -25 -51 -42t-62 -17q-58 0 -89 36.5t-31 95.5q0 88 55.5 157.5t137.5 69.5q34 0 58.5 -16.5t35.5 -40.5l12 49h44zM459 140l33 139
q-9 30 -30.5 48.5t-50.5 18.5q-65 0 -106.5 -57.5t-41.5 -125.5q0 -43 22.5 -68t61.5 -25q58 0 112 70z" />
    <glyph glyph-name="A" unicode="A" horiz-adv-x="579" 
d="M350 614h48l124 -614h-50l-41 203h-270l-119 -203h-54zM363 548l-176 -300h235z" />
    <glyph glyph-name="B" unicode="B" horiz-adv-x="523" 
d="M384 316q45 -9 72 -42.5t27 -80.5q0 -90 -65 -141.5t-167 -51.5h-206l108 614h188q84 0 127 -35t43 -101t-37.5 -107t-89.5 -55zM154 338h138q78 0 123.5 34.5t45.5 101.5q0 94 -129 94h-138zM146 294l-43 -248h160q77 0 123 40.5t46 106.5q0 47 -32 74t-94 27h-160z" />
    <glyph glyph-name="C" unicode="C" horiz-adv-x="576" 
d="M52 260q0 96 37.5 178t108.5 133.5t161 51.5q86 0 142.5 -48t67.5 -128h-49q-13 59 -55.5 93.5t-105.5 34.5q-111 0 -183 -91.5t-72 -223.5q0 -99 51.5 -160t135.5 -61q135 0 191 128h51q-28 -81 -91.5 -128.5t-150.5 -47.5q-106 0 -172.5 74t-66.5 195z" />
    <glyph glyph-name="D" unicode="D" horiz-adv-x="606" 
d="M104 47h134q127 0 210.5 87.5t83.5 224.5q0 97 -53 152.5t-152 55.5h-132zM45 0l108 614h180q119 0 185 -68.5t66 -186.5q0 -157 -101.5 -258t-252.5 -101h-185z" />
    <glyph glyph-name="E" unicode="E" horiz-adv-x="515" 
d="M153 614h380l-8 -47h-331l-40 -228h300l-8 -46h-300l-43 -246h330l-8 -47h-380z" />
    <glyph glyph-name="F" unicode="F" horiz-adv-x="473" 
d="M96 0h-51l108 614h355l-8 -47h-305l-41 -234h289l-9 -46h-288z" />
    <glyph glyph-name="G" unicode="G" horiz-adv-x="599" 
d="M295 -9q-108 0 -175.5 74t-67.5 195q0 148 87 255.5t222 107.5q88 0 146 -48t69 -128h-49q-14 59 -57.5 93.5t-108.5 34.5q-112 0 -184.5 -91.5t-72.5 -223.5q0 -99 52 -160t139 -61q90 0 148 54t75 150h-159l8 45h208l-7 -43q-21 -116 -93 -185t-180 -69z" />
    <glyph glyph-name="H" unicode="H" horiz-adv-x="649" 
d="M593 614h51l-108 -614h-51l52 293h-390l-51 -293h-51l108 614h51l-49 -274h390z" />
    <glyph glyph-name="I" unicode="I" horiz-adv-x="209" 
d="M204 614l-108 -614h-51l108 614h51z" />
    <glyph glyph-name="J" unicode="J" horiz-adv-x="477" 
d="M19 185h52q-1 -10 -1 -14q0 -59 34 -95.5t93 -36.5q133 0 160 159l74 416h51l-74 -420q-18 -99 -73.5 -151t-137.5 -52q-80 0 -129.5 48t-49.5 127z" />
    <glyph glyph-name="K" unicode="K" horiz-adv-x="544" 
d="M204 614l-57 -320l375 320h68l-330 -281l232 -333h-59l-212 301l-86 -72l-39 -229h-51l108 614h51z" />
    <glyph glyph-name="L" unicode="L" horiz-adv-x="503" 
d="M45 0l108 614h51l-100 -567h333l-8 -47h-384z" />
    <glyph glyph-name="M" unicode="M" horiz-adv-x="729" 
d="M347 0h-32l-132 511l-89 -511h-49l108 614h51l138 -541l328 541h54l-108 -614h-49l90 511z" />
    <glyph glyph-name="N" unicode="N" horiz-adv-x="616" 
d="M611 614l-108 -614h-34l-281 540l-94 -540h-49l108 614h48l269 -519l92 519h49z" />
    <glyph glyph-name="O" unicode="O" horiz-adv-x="620" 
d="M290 39q114 0 185.5 93t71.5 221q0 97 -51 159.5t-136 62.5q-114 0 -185 -93t-71 -221q0 -97 50.5 -159.5t135.5 -62.5zM290 -9q-105 0 -171.5 74.5t-66.5 195.5q0 144 86.5 253t221.5 109q105 0 172 -74.5t67 -195.5q0 -92 -37 -174t-109 -135t-163 -53z" />
    <glyph glyph-name="P" unicode="P" horiz-adv-x="529" 
d="M313 265h-171l-46 -265h-51l108 614h220q79 0 122.5 -38t43.5 -110q0 -96 -62.5 -148.5t-163.5 -52.5zM196 568l-46 -256h170q78 0 123 40t45 112q0 50 -32 77t-93 27h-167z" />
    <glyph glyph-name="Q" unicode="Q" horiz-adv-x="620" 
d="M293 -9q-105 0 -172.5 75.5t-67.5 197.5q0 92 36.5 173.5t107.5 133.5t161 52q106 0 173.5 -75.5t67.5 -197.5q0 -88 -34.5 -167t-96.5 -130l36 -60l-38 -24l-35 58q-63 -36 -138 -36zM293 39q64 0 114 29l-43 73l38 23l41 -70q50 44 77 111.5t27 144.5q0 99 -52 162
t-137 63q-114 0 -183.5 -92.5t-69.5 -218.5q0 -98 52 -161.5t136 -63.5z" />
    <glyph glyph-name="R" unicode="R" horiz-adv-x="545" 
d="M293 271h-150l-47 -271h-51l108 614h208q81 0 126.5 -38t45.5 -109q0 -83 -51.5 -134t-136.5 -60l137 -273h-54zM195 568l-44 -252h164q78 0 122.5 39.5t44.5 110.5q0 49 -33.5 75.5t-95.5 26.5h-158z" />
    <glyph glyph-name="S" unicode="S" horiz-adv-x="499" 
d="M494 460h-50q-8 53 -48 85t-107 32t-112.5 -35t-45.5 -97q0 -36 23.5 -57t71.5 -36l104 -33q61 -20 89.5 -52.5t28.5 -83.5q0 -87 -62.5 -139.5t-153.5 -52.5q-89 0 -148.5 44.5t-66.5 123.5h51q8 -60 53 -91t111 -31q73 0 120 38t47 105q0 66 -89 94l-110 35
q-58 17 -88 49t-30 84q0 81 59.5 131t147.5 50q90 0 143.5 -45t61.5 -118z" />
    <glyph glyph-name="T" unicode="T" horiz-adv-x="562" 
d="M92 567l8 47h501l-9 -47h-225l-99 -567h-51l99 567h-224z" />
    <glyph glyph-name="U" unicode="U" horiz-adv-x="605" 
d="M279 -9q-94 0 -152.5 51.5t-58.5 145.5q0 20 5 58l65 368h51l-64 -365q-5 -32 -5 -54q0 -77 43.5 -117t115.5 -40q177 0 214 211l64 365h51l-65 -372q-22 -124 -91.5 -187.5t-172.5 -63.5z" />
    <glyph glyph-name="V" unicode="V" horiz-adv-x="577" 
d="M262 0h-46l-119 614h51l103 -543l323 543h54z" />
    <glyph glyph-name="W" unicode="W" horiz-adv-x="760" 
d="M433 614h42l41 -528l245 528h51l-287 -614h-46l-43 523l-245 -523h-46l-48 614h49l40 -528z" />
    <glyph glyph-name="X" unicode="X" horiz-adv-x="545" 
d="M589 614l-272 -304l157 -310h-54l-137 272l-243 -272h-60l282 315l-152 299h53l133 -261l233 261h60z" />
    <glyph glyph-name="Y" unicode="Y" horiz-adv-x="535" 
d="M283 309l247 305h57l-285 -352l-46 -262h-51l46 262l-162 352h54z" />
    <glyph glyph-name="Z" unicode="Z" horiz-adv-x="519" 
d="M456 47l-8 -47h-443l6 39l466 528h-367l9 47h433l-7 -39l-465 -528h376z" />
    <glyph glyph-name="bracketleft" unicode="[" horiz-adv-x="311" 
d="M194 605l-113 -644h158l-8 -45h-205l129 734h205l-8 -45h-158z" />
    <glyph glyph-name="backslash" unicode="\" horiz-adv-x="306" 
d="M139 650l119 -734h-47l-119 734h47z" />
    <glyph glyph-name="bracketright" unicode="]" horiz-adv-x="311" 
d="M138 -39l113 644h-158l8 45h205l-129 -734h-205l8 45h158z" />
    <glyph glyph-name="asciicircum" unicode="^" horiz-adv-x="321" 
d="M200 614h42l83 -181h-51l-59 129l-106 -129h-56z" />
    <glyph glyph-name="underscore" unicode="_" horiz-adv-x="352" 
d="M-24 -87l8 45h312l-8 -45h-312z" />
    <glyph glyph-name="grave" unicode="`" 
d="M306 520h-44l-64 130h48z" />
    <glyph glyph-name="a" unicode="a" horiz-adv-x="441" 
d="M388 300l-52 -300h-48l7 42q-21 -21 -55 -35t-71 -14q-64 0 -105.5 35t-41.5 90q0 66 53 107t126 41q41 0 74.5 -15.5t49.5 -35.5l15 82q2 18 2 28q0 38 -23.5 61t-67.5 23q-85 0 -124 -76h-49q22 56 69.5 88t106.5 32q65 0 101 -34t36 -91q0 -13 -3 -28zM305 101l11 57
q-8 28 -40 47t-75 19q-51 0 -91 -27.5t-40 -77.5q0 -38 31 -61t75 -23q42 0 78 18.5t51 47.5z" />
    <glyph glyph-name="b" unicode="b" horiz-adv-x="493" 
d="M94 68l-12 -68h-49l114 650h49l-48 -274q26 33 65 55t81 22q80 0 120.5 -51.5t40.5 -134.5q0 -111 -64.5 -193.5t-166.5 -82.5q-46 0 -80.5 22.5t-49.5 54.5zM138 317l-34 -192q31 -88 119 -88q85 0 133.5 69.5t48.5 160.5q0 64 -30 102t-88 38q-86 0 -149 -90z" />
    <glyph glyph-name="c" unicode="c" horiz-adv-x="442" 
d="M341 129h50q-21 -64 -68.5 -101t-114.5 -37q-79 0 -124.5 52.5t-45.5 139.5q0 110 61.5 190t163.5 80q69 0 109 -37.5t45 -100.5h-50q-5 43 -32 68t-72 25q-79 0 -127 -65t-48 -160q0 -68 33 -107.5t90 -39.5q96 0 130 93z" />
    <glyph glyph-name="d" unicode="d" horiz-adv-x="493" 
d="M399 376l48 274h49l-114 -650h-49l12 68q-26 -33 -65 -55t-81 -22q-80 0 -120.5 51.5t-40.5 134.5q0 109 65 192.5t166 83.5q46 0 80.5 -22.5t49.5 -54.5zM355 127l34 192q-31 88 -119 88q-85 0 -133.5 -70.5t-48.5 -159.5q0 -64 30 -102t88 -38q86 0 149 90z" />
    <glyph glyph-name="e" unicode="e" horiz-adv-x="454" 
d="M349 129h50q-21 -63 -71 -100.5t-117 -37.5q-81 0 -127 52t-46 141q0 106 61 187.5t165 81.5q77 0 117.5 -47t40.5 -128q0 -21 -6 -60h-326q-2 -24 -2 -34q0 -71 33.5 -110t91.5 -39q47 0 83.5 25t52.5 69zM263 409q-64 0 -107 -42.5t-60 -109.5h276q2 18 2 25
q0 55 -27.5 91t-83.5 36z" />
    <glyph glyph-name="f" unicode="f" horiz-adv-x="258" 
d="M345 650l-8 -45q-20 9 -42 9q-38 0 -64.5 -24.5t-34.5 -70.5l-13 -75h104l-8 -43h-104l-70 -401h-49l70 401h-72l8 43h72l14 80q11 61 50.5 98t94.5 37q31 0 52 -9z" />
    <glyph glyph-name="g" unicode="g" horiz-adv-x="492" 
d="M338 28l9 50q-60 -75 -145 -75q-80 0 -121.5 50t-41.5 131q0 107 64.5 188t165.5 81q47 0 81 -22.5t49 -54.5l12 68h49l-73 -415q-18 -101 -72.5 -154.5t-137.5 -53.5q-75 0 -118.5 36t-45.5 99h49q3 -45 33.5 -68.5t81.5 -23.5q130 0 161 164zM357 138l32 182
q-14 41 -45.5 64t-73.5 23q-85 0 -133.5 -68t-48.5 -155q0 -62 31.5 -99t89.5 -37q83 0 148 90z" />
    <glyph glyph-name="h" unicode="h" horiz-adv-x="483" 
d="M303 453q62 0 96 -34t34 -91q0 -16 -3 -34l-51 -294h-49l49 287q3 17 3 31q0 41 -22.5 65t-68.5 24q-47 0 -88.5 -27.5t-65.5 -68.5l-55 -311h-49l114 650h49l-49 -278q28 35 69 58t87 23z" />
    <glyph glyph-name="i" unicode="i" horiz-adv-x="192" 
d="M160 444l-78 -444h-49l78 444h49zM193 579q0 -14 -10 -24t-24 -10t-24 10t-10 24t10 24t24 10t24 -10t10 -24z" />
    <glyph glyph-name="j" unicode="j" horiz-adv-x="192" 
d="M-86 -173l8 45q10 -7 26 -7q31 0 48.5 17t25.5 59l89 503h49l-89 -508q-21 -115 -123 -115q-20 0 -34 6zM193 579q0 -14 -10 -24t-24 -10t-24 10t-10 24t10 24t24 10t24 -10t10 -24z" />
    <glyph glyph-name="k" unicode="k" horiz-adv-x="445" 
d="M334 0l-158 223l-63 -50l-31 -173h-49l114 650h49l-74 -419l271 213h68l-247 -193l176 -251h-56z" />
    <glyph glyph-name="l" unicode="l" horiz-adv-x="192" 
d="M196 650l-114 -650h-49l114 650h49z" />
    <glyph glyph-name="m" unicode="m" horiz-adv-x="713" 
d="M397 369q68 84 150 84q57 0 86.5 -32.5t29.5 -86.5q0 -13 -4 -39l-51 -295h-49l49 286q4 19 4 38q0 83 -76 83q-84 0 -136 -96l-55 -311h-49l49 286q4 19 4 38q0 83 -76 83q-82 0 -136 -96l-55 -311h-49l78 444h49l-12 -70q58 79 140 79q45 0 73 -23t36 -61z" />
    <glyph glyph-name="n" unicode="n" horiz-adv-x="483" 
d="M33 0l78 444h49l-12 -72q64 81 155 81q62 0 96 -34t34 -91q0 -16 -3 -34l-51 -294h-49l49 287q3 17 3 31q0 41 -22.5 65t-68.5 24q-47 0 -88.5 -27.5t-65.5 -68.5l-55 -311h-49z" />
    <glyph glyph-name="o" unicode="o" horiz-adv-x="471" 
d="M211 35q74 0 123 63.5t49 164.5q0 66 -33 106t-90 40q-74 0 -123 -63.5t-49 -164.5q0 -66 33 -106t90 -40zM211 -9q-80 0 -126.5 52t-46.5 138q0 118 64 195t158 77q80 0 126.5 -52t46.5 -138q0 -118 -64 -195t-158 -77z" />
    <glyph glyph-name="p" unicode="p" horiz-adv-x="493" 
d="M94 68l-42 -238h-49l108 614h49l-12 -68q26 33 65 55t81 22q80 0 120.5 -51.5t40.5 -134.5q0 -111 -64.5 -193.5t-166.5 -82.5q-46 0 -80.5 22.5t-49.5 54.5zM138 317l-34 -192q31 -88 119 -88q85 0 133.5 69.5t48.5 160.5q0 64 -30 102t-88 38q-86 0 -149 -90z" />
    <glyph glyph-name="q" unicode="q" horiz-adv-x="492" 
d="M399 376l12 68h49l-108 -614h-49l42 238q-26 -33 -65 -55t-81 -22q-80 0 -120.5 51.5t-40.5 134.5q0 109 65 192.5t166 83.5q46 0 80.5 -22.5t49.5 -54.5zM355 127l34 192q-31 88 -119 88q-85 0 -133.5 -70.5t-48.5 -159.5q0 -64 30 -102t88 -38q86 0 149 90z" />
    <glyph glyph-name="r" unicode="r" horiz-adv-x="301" 
d="M319 447l-8 -49q-18 8 -40 8q-40 0 -75.5 -26t-58.5 -70l-55 -310h-49l78 444h49l-12 -71q22 35 58 57.5t76 22.5q21 0 37 -6z" />
    <glyph glyph-name="s" unicode="s" horiz-adv-x="398" 
d="M14 116h49q7 -40 38 -61t80 -21q48 0 81 22.5t33 67.5q0 46 -69 71l-75 25q-44 15 -66.5 37.5t-22.5 63.5q0 60 46 96t111 36q70 0 110 -33t46 -89h-48q-16 79 -108 79q-45 0 -77 -22.5t-32 -63.5q0 -25 16 -38.5t52 -25.5l71 -24q94 -30 94 -108q0 -63 -46.5 -100
t-115.5 -37q-72 0 -117.5 34t-49.5 91z" />
    <glyph glyph-name="t" unicode="t" horiz-adv-x="297" 
d="M70 107l54 294h-75l7 43h77l20 114h49l-20 -114h112l-7 -43h-114l-52 -288q0 -3 -1 -9.5t-1.5 -11t-0.5 -8.5q0 -48 53 -48q32 0 64 17l-8 -47q-32 -15 -68 -15q-43 0 -67.5 21t-24.5 62q0 10 3 33z" />
    <glyph glyph-name="u" unicode="u" horiz-adv-x="481" 
d="M447 444l-78 -444h-49l12 71q-65 -80 -155 -80q-61 0 -94.5 33.5t-33.5 90.5q0 17 3 35l51 294h50l-51 -288q-3 -16 -3 -33q0 -87 89 -87q47 0 89 28t66 69l55 311h49z" />
    <glyph glyph-name="v" unicode="v" horiz-adv-x="432" 
d="M186 0h-43l-86 444h50l70 -376l224 376h53z" />
    <glyph glyph-name="w" unicode="w" horiz-adv-x="604" 
d="M360 444l30 -366l185 366h50l-227 -444h-42l-32 367l-183 -367h-43l-41 444h46l35 -366l182 366h40z" />
    <glyph glyph-name="x" unicode="x" horiz-adv-x="431" 
d="M445 444l-201 -219l120 -225h-51l-101 191l-174 -191h-57l210 228l-114 216h51l96 -182l165 182h56z" />
    <glyph glyph-name="y" unicode="y" horiz-adv-x="432" 
d="M84 -170h-51l108 180l-84 434h50l70 -375l223 375h54z" />
    <glyph glyph-name="z" unicode="z" horiz-adv-x="415" 
d="M347 43l-7 -43h-336l6 35l335 366h-266l8 43h329l-6 -35l-336 -366h273z" />
    <glyph glyph-name="braceleft" unicode="{" horiz-adv-x="334" 
d="M151 213l-36 -207q-7 -45 34 -45h113l-8 -45h-112q-40 0 -61 26t-13 67l36 206q8 45 -34 45h-42l8 46h42q42 0 50 45l36 206q7 41 37 67t70 26h112l-8 -45h-113q-43 0 -50 -45l-36 -207q-9 -48 -53 -71q37 -23 28 -69z" />
    <glyph glyph-name="bar" unicode="|" horiz-adv-x="205" 
d="M29 -84l129 734h47l-129 -734h-47z" />
    <glyph glyph-name="braceright" unicode="}" horiz-adv-x="334" 
d="M203 353l36 207q7 45 -34 45h-113l8 45h112q40 0 61 -26t13 -67l-36 -206q-8 -45 34 -45h42l-8 -46h-42q-42 0 -50 -45l-36 -206q-7 -41 -37 -67t-70 -26h-112l8 45h113q43 0 50 45l36 207q9 48 53 71q-37 23 -28 69z" />
    <glyph glyph-name="asciitilde" unicode="~" horiz-adv-x="406" 
d="M339 329h45q-10 -53 -38.5 -83.5t-70.5 -30.5q-34 0 -71.5 36t-58.5 36q-24 0 -40 -18.5t-22 -49.5h-45q10 53 38.5 83t70.5 30q21 0 40.5 -11t31 -24.5t27.5 -24.5t32 -11q48 0 61 68z" />
    <glyph glyph-name="exclamdown" unicode="&#xa1;" horiz-adv-x="209" 
d="M148 326l-66 -422h-56l85 422h37zM195 483q0 -16 -11 -27.5t-27 -11.5q-15 0 -26 11.5t-11 27.5t11 27t26 11q16 0 27 -11t11 -27z" />
    <glyph glyph-name="cent" unicode="&#xa2;" horiz-adv-x="436" 
d="M40 193q0 108 60 188t160 82l16 90h45l-17 -94q51 -10 80.5 -46.5t34.5 -89.5h-50q-4 44 -31.5 69.5t-73.5 25.5q-79 0 -126.5 -65t-47.5 -160q0 -68 32.5 -107.5t89.5 -39.5q48 0 82 25.5t50 69.5h49q-19 -61 -63.5 -98.5t-106.5 -41.5l-15 -85h-45l16 87
q-65 10 -102 61t-37 129z" />
    <glyph glyph-name="sterling" unicode="&#xa3;" horiz-adv-x="483" 
d="M205 423l-18 -100h169l-7 -42h-169l-25 -145q-10 -58 -40 -91h306l-7 -45h-421l8 45h65q31 39 40 91l26 145h-90l7 42h90l18 100q17 94 67 147t127 53q71 0 109.5 -36t40.5 -97h-48q-2 42 -28.5 65t-73.5 23q-118 0 -146 -155z" />
    <glyph glyph-name="yen" unicode="&#xa5;" horiz-adv-x="516" 
d="M62 144l7 41h158l13 77h-157l7 41h145l-136 311h52l123 -288l226 288h57l-248 -311h146l-7 -41h-159l-13 -77h158l-7 -41h-158l-24 -144h-50l25 144h-158z" />
    <glyph glyph-name="section" unicode="&#xa7;" horiz-adv-x="448" 
d="M317 281l-152 118q-29 -10 -51 -33t-22 -55q0 -22 13 -37.5t42 -37.5l152 -118q29 10 51 33t22 55q0 22 -13 37.5t-42 37.5zM324 85q12 -24 12 -48q0 -65 -49 -104t-114 -39q-71 0 -108.5 33t-39.5 91h46q12 -82 103 -82q49 0 81 25.5t32 71.5q0 21 -11 36t-38 36
l-121 93q-37 28 -54.5 51.5t-17.5 57.5q0 42 26.5 75.5t68.5 49.5q-12 22 -12 48q0 65 49 104t114 39q71 0 108 -33t40 -92h-47q-11 82 -102 82q-50 0 -81.5 -25t-31.5 -72q0 -20 11 -35t38 -36l121 -94q36 -27 54 -51t18 -57q0 -42 -26.5 -75.5t-68.5 -49.5z" />
    <glyph glyph-name="dieresis" unicode="&#xa8;" 
d="M155 571q0 14 9.5 23t23.5 9t23 -9.5t9 -22.5q0 -14 -9 -23.5t-23 -9.5t-23.5 9.5t-9.5 23.5zM280 571q0 13 9 22.5t23 9.5t23.5 -9.5t9.5 -22.5q0 -14 -9.5 -23.5t-23.5 -9.5t-23 9.5t-9 23.5z" />
    <glyph glyph-name="copyright" unicode="&#xa9;" horiz-adv-x="708" 
d="M688 307q0 -136 -92 -226t-223 -90q-132 0 -224 90t-92 226t92 226t224 90q131 0 223 -90t92 -226zM656 307q0 122 -82.5 203t-200.5 81q-119 0 -201.5 -81t-82.5 -203t82.5 -203t201.5 -81q118 0 200.5 81t82.5 203zM202 309q0 89 49.5 144t125.5 55q59 0 99 -32t52 -86
h-50q-24 73 -101 73q-56 0 -91 -42.5t-35 -111.5t35 -111.5t91 -42.5q77 0 101 73h50q-12 -54 -52 -86t-99 -32q-76 0 -125.5 55t-49.5 144z" />
    <glyph glyph-name="ordfeminine" unicode="&#xaa;" horiz-adv-x="292" 
d="M305 517l-35 -196h-44l4 25q-30 -30 -80 -30q-43 0 -70.5 23t-27.5 61q0 44 35.5 72t84.5 28q52 0 79 -31l9 48q1 5 1 17q0 22 -14 36t-41 14q-50 0 -74 -45h-44q14 38 47 60.5t76 22.5q45 0 70.5 -23t25.5 -62q0 -4 -2 -20zM238 391l6 34q-5 16 -24 27.5t-45 11.5
q-31 0 -55 -16t-24 -46q0 -23 18.5 -36.5t45.5 -13.5q56 0 78 39z" />
    <glyph glyph-name="guillemotleft" unicode="&#xab;" horiz-adv-x="314" 
d="M145 86h-47l-67 136l115 136h53l-119 -140zM268 86h-46l-68 136l116 136h52l-119 -140z" />
    <glyph glyph-name="registered" unicode="&#xae;" horiz-adv-x="418" 
d="M423 440q0 -78 -53 -130.5t-128 -52.5t-128 52.5t-53 130.5t53 130.5t128 52.5t128 -52.5t53 -130.5zM395 440q0 67 -44.5 111t-108.5 44t-108.5 -44t-44.5 -111t44.5 -111.5t108.5 -44.5t108.5 44.5t44.5 111.5zM238 420h-29v-74h-34v192h78q31 0 49 -15.5t18 -43.5
q0 -47 -46 -57l53 -76h-38zM287 479q0 12 -8.5 20.5t-23.5 8.5h-46v-58h46q15 0 23.5 8.5t8.5 20.5z" />
    <glyph glyph-name="macron" unicode="&#xaf;" 
d="M145 537l8 41h201l-7 -41h-202z" />
    <glyph glyph-name="degree" unicode="&#xb0;" horiz-adv-x="316" 
d="M203 623q44 0 74.5 -30t30.5 -75q0 -51 -35 -87.5t-85 -36.5q-45 0 -75 30t-30 75q0 51 34.5 87.5t85.5 36.5zM199 583q-30 0 -53 -23.5t-23 -59.5q0 -28 19.5 -47t48.5 -19q30 0 53 23.5t23 59.5q0 28 -19.5 47t-48.5 19z" />
    <glyph glyph-name="plusminus" unicode="&#xb1;" horiz-adv-x="516" 
d="M284 495h42l-22 -126h163l-7 -42h-164l-22 -126h-43l22 126h-163l8 42h163zM51 104l8 43h369l-8 -43h-369z" />
    <glyph glyph-name="twosuperior" unicode="&#xb2;" horiz-adv-x="283" 
d="M42 314l138 126q22 20 32.5 30.5t22 29t11.5 34.5q0 21 -13 33.5t-36 12.5q-28 0 -47 -18t-27 -48h-45q12 48 45 77t79 29q42 0 65.5 -21.5t23.5 -57.5q0 -25 -13 -48.5t-26.5 -37.5t-43.5 -40l-101 -91h151l-7 -39h-214z" />
    <glyph glyph-name="threesuperior" unicode="&#xb3;" horiz-adv-x="290" 
d="M154 436l6 35h22q30 0 51 17t21 47q0 21 -14 33.5t-38 12.5q-53 0 -73 -57h-44q12 43 45 69.5t76 26.5q42 0 66 -22.5t24 -58.5q0 -31 -20 -55.5t-47 -31.5q21 -6 34 -23.5t13 -42.5q0 -44 -33 -75t-83 -31q-49 0 -77 25t-28 67l1 7h44v-2q0 -59 60 -59q32 0 53 19t21 49
q0 24 -15.5 37t-41.5 13h-23z" />
    <glyph glyph-name="acute" unicode="&#xb4;" 
d="M221 520h-50l106 130h53z" />
    <glyph glyph-name="paragraph" unicode="&#xb6;" horiz-adv-x="446" 
d="M274 -90l124 704h43l-124 -704h-43zM163 -90l75 429q-70 0 -121.5 32t-51.5 89q0 53 36.5 89t85.5 50.5t104 14.5h39l-124 -704h-43z" />
    <glyph glyph-name="periodcentered" unicode="&#xb7;" horiz-adv-x="151" 
d="M38 261q0 16 11 27.5t26 11.5q16 0 27 -11.5t11 -27.5t-11 -27t-27 -11q-15 0 -26 11t-11 27z" />
    <glyph glyph-name="cedilla" unicode="&#xb8;" 
d="M231 -175h-49l82 127h50z" />
    <glyph glyph-name="onesuperior" unicode="&#xb9;" horiz-adv-x="221" 
d="M215 615l-58 -330h-44l49 278l-90 -42l8 45l107 49h28z" />
    <glyph glyph-name="ordmasculine" unicode="&#xba;" horiz-adv-x="311" 
d="M183 355q44 0 73.5 39t29.5 101q0 40 -20 64t-54 24q-45 0 -74 -39t-29 -101q0 -40 19.5 -64t54.5 -24zM181 315q-54 0 -86.5 35t-32.5 93q0 78 43.5 128.5t107.5 50.5q55 0 87 -34.5t32 -92.5q0 -79 -43.5 -129.5t-107.5 -50.5z" />
    <glyph glyph-name="guillemotright" unicode="&#xbb;" horiz-adv-x="314" 
d="M180 358h47l67 -136l-115 -136h-53l119 140zM57 358h46l68 -136l-116 -136h-52l119 140z" />
    <glyph glyph-name="onequarter" unicode="&#xbc;" horiz-adv-x="643" 
d="M607 614l-524 -614h-48l525 614h47zM244 615l-59 -330h-42l49 279l-94 -44l8 45l111 50h27zM528 330l-156 -218h104l13 75h40l-13 -75h57l-7 -37h-57l-13 -75h-39l12 75h-152l6 33l161 222h44z" />
    <glyph glyph-name="onehalf" unicode="&#xbd;" horiz-adv-x="653" 
d="M607 614l-524 -614h-48l525 614h47zM244 615l-59 -330h-42l49 279l-94 -44l8 45l111 50h27zM349 30l138 125q22 20 32.5 30.5t22.5 29.5t12 35q0 21 -13 33.5t-36 12.5q-58 0 -76 -67h-45q13 48 45.5 77t79.5 29q42 0 65.5 -21.5t23.5 -57.5q0 -24 -13.5 -48t-27 -37.5
t-43.5 -40.5l-101 -91h152l-7 -39h-214z" />
    <glyph glyph-name="threequarters" unicode="&#xbe;" horiz-adv-x="685" 
d="M167 435l6 35h23q30 0 50.5 17t20.5 47q0 21 -13.5 33.5t-37.5 12.5q-53 0 -73 -57h-45q12 43 45 69.5t76 26.5t67 -22t24 -59q0 -31 -20 -55.5t-48 -31.5q48 -13 48 -66q0 -44 -33.5 -75t-83.5 -31q-48 0 -76 25.5t-28 67.5v6h45v-2q0 -58 60 -58q32 0 53 19t21 49
q0 23 -15.5 36t-41.5 13h-24zM649 614l-525 -614h-48l525 614h48zM570 330l-157 -218h104l13 75h40l-13 -75h58l-7 -37h-58l-12 -75h-40l12 75h-152l6 33l162 222h44z" />
    <glyph glyph-name="questiondown" unicode="&#xbf;" horiz-adv-x="422" 
d="M163 -58q65 0 108.5 36.5t61.5 102.5h51q-24 -87 -82 -136.5t-141 -49.5q-73 0 -114 37.5t-41 102.5q0 27 6.5 49.5t25.5 47t28.5 35.5t40.5 39t37 34q27 26 39.5 43.5t18.5 41.5h48q-14 -58 -73 -114q-6 -6 -30 -28t-34.5 -33t-26.5 -31t-22.5 -40.5t-6.5 -42.5
q0 -43 28 -68.5t78 -25.5zM293 483q0 -16 -11 -27.5t-26 -11.5q-16 0 -27 11.5t-11 27.5t11 27t27 11q15 0 26 -11t11 -27z" />
    <glyph glyph-name="Agrave" unicode="&#xc0;" horiz-adv-x="579" 
d="M350 614h48l124 -614h-50l-41 203h-270l-119 -203h-54zM363 548l-176 -300h235zM407 665h-47l-67 117h52z" />
    <glyph glyph-name="Aacute" unicode="&#xc1;" horiz-adv-x="579" 
d="M350 614h48l124 -614h-50l-41 203h-270l-119 -203h-54zM363 548l-176 -300h235zM406 665h-53l103 117h59z" />
    <glyph glyph-name="Acircumflex" unicode="&#xc2;" horiz-adv-x="579" 
d="M350 614h48l124 -614h-50l-41 203h-270l-119 -203h-54zM363 548l-176 -300h235zM423 786l71 -119h-44l-53 84l-81 -84h-50l113 119h44z" />
    <glyph glyph-name="Atilde" unicode="&#xc3;" horiz-adv-x="579" 
d="M350 614h48l124 -614h-50l-41 203h-270l-119 -203h-54zM363 548l-176 -300h235zM489 770h36q-9 -49 -31.5 -77t-54.5 -28q-20 0 -37 16.5t-31 32.5t-28 16q-37 0 -48 -62h-36q8 48 31 76.5t55 28.5q26 0 53 -32.5t43 -32.5q37 0 48 62z" />
    <glyph glyph-name="Adieresis" unicode="&#xc4;" horiz-adv-x="579" 
d="M350 614h48l124 -614h-50l-41 203h-270l-119 -203h-54zM363 548l-176 -300h235zM296 715q0 14 9.5 23.5t23.5 9.5t23 -9.5t9 -23.5t-9.5 -23.5t-22.5 -9.5q-14 0 -23.5 9.5t-9.5 23.5zM421 715q0 14 9 23.5t23 9.5t23.5 -9.5t9.5 -23.5q0 -13 -10 -23t-23 -10t-22.5 9.5
t-9.5 23.5z" />
    <glyph glyph-name="Aring" unicode="&#xc5;" horiz-adv-x="579" 
d="M350 614h48l124 -614h-50l-41 203h-270l-119 -203h-54zM363 548l-176 -300h235zM388 648q-33 0 -55.5 22t-22.5 54q0 35 24.5 60t60.5 25q33 0 55.5 -22t22.5 -55q0 -34 -24.5 -59t-60.5 -25zM389 679q21 0 36.5 14.5t15.5 36.5q0 20 -14 34t-34 14t-35.5 -15t-15.5 -37
q0 -20 14 -33.5t33 -13.5z" />
    <glyph glyph-name="AE" unicode="&#xc6;" horiz-adv-x="867" 
d="M481 614h404l-9 -47h-320l-40 -228h289l-8 -46h-289l-43 -246h320l-8 -47h-371l36 203h-234l-163 -203h-57zM507 573l-262 -325h205z" />
    <glyph glyph-name="Ccedilla" unicode="&#xc7;" horiz-adv-x="576" 
d="M52 260q0 96 37.5 178t108.5 133.5t161 51.5q86 0 142.5 -48t67.5 -128h-49q-13 59 -55.5 93.5t-105.5 34.5q-111 0 -183 -91.5t-72 -223.5q0 -99 51.5 -160t135.5 -61q135 0 191 128h51q-28 -81 -91.5 -128.5t-150.5 -47.5q-106 0 -172.5 74t-66.5 195zM204 -175h-49
l82 127h50z" />
    <glyph glyph-name="Egrave" unicode="&#xc8;" horiz-adv-x="515" 
d="M382 665h-47l-67 117h52zM153 614h380l-8 -47h-331l-40 -228h300l-8 -46h-300l-43 -246h330l-8 -47h-380z" />
    <glyph glyph-name="Eacute" unicode="&#xc9;" horiz-adv-x="515" 
d="M380 665h-53l103 117h59zM153 614h380l-8 -47h-331l-40 -228h300l-8 -46h-300l-43 -246h330l-8 -47h-380z" />
    <glyph glyph-name="Ecircumflex" unicode="&#xca;" horiz-adv-x="515" 
d="M153 614h380l-8 -47h-331l-40 -228h300l-8 -46h-300l-43 -246h330l-8 -47h-380zM398 786l71 -119h-44l-53 84l-81 -84h-50l113 119h44z" />
    <glyph glyph-name="Edieresis" unicode="&#xcb;" horiz-adv-x="515" 
d="M271 715q0 14 9.5 23.5t23.5 9.5t23 -9.5t9 -23.5t-9.5 -23.5t-22.5 -9.5q-14 0 -23.5 9.5t-9.5 23.5zM396 715q0 14 9 23.5t23 9.5t23.5 -9.5t9.5 -23.5q0 -13 -9.5 -23t-23.5 -10q-13 0 -22.5 9.5t-9.5 23.5zM153 614h380l-8 -47h-331l-40 -228h300l-8 -46h-300
l-43 -246h330l-8 -47h-380z" />
    <glyph glyph-name="Igrave" unicode="&#xcc;" horiz-adv-x="209" 
d="M204 614l-108 -614h-51l108 614h51zM211 665h-47l-67 117h52z" />
    <glyph glyph-name="Iacute" unicode="&#xcd;" horiz-adv-x="209" 
d="M204 614l-108 -614h-51l108 614h51zM210 665h-53l103 117h59z" />
    <glyph glyph-name="Icircumflex" unicode="&#xce;" horiz-adv-x="209" 
d="M204 614l-108 -614h-51l108 614h51zM228 786l71 -119h-44l-53 84l-81 -84h-50l113 119h44z" />
    <glyph glyph-name="Idieresis" unicode="&#xcf;" horiz-adv-x="209" 
d="M204 614l-108 -614h-51l108 614h51zM101 715q0 14 9.5 23.5t23.5 9.5t23 -9.5t9 -23.5t-9.5 -23.5t-22.5 -9.5q-14 0 -23.5 9.5t-9.5 23.5zM226 715q0 14 9 23.5t23 9.5t23.5 -9.5t9.5 -23.5q0 -13 -9.5 -23t-23.5 -10q-13 0 -22.5 9.5t-9.5 23.5z" />
    <glyph glyph-name="Eth" unicode="&#xd0;" horiz-adv-x="618" 
d="M50 295l8 45h60l48 274h180q119 0 185 -68.5t66 -186.5q0 -157 -101.5 -258t-252.5 -101h-185l52 295h-60zM117 47h134q127 0 210.5 87.5t83.5 224.5q0 97 -53 152.5t-152 55.5h-132l-40 -227h129l-7 -45h-130z" />
    <glyph glyph-name="Ntilde" unicode="&#xd1;" horiz-adv-x="616" 
d="M498 770h36q-9 -49 -31.5 -77t-54.5 -28q-20 0 -37 16.5t-31 32.5t-28 16q-37 0 -48 -62h-36q8 48 31 76.5t55 28.5q26 0 53 -32.5t43 -32.5q37 0 48 62zM611 614l-108 -614h-34l-281 540l-94 -540h-49l108 614h48l269 -519l92 519h49z" />
    <glyph glyph-name="Ograve" unicode="&#xd2;" horiz-adv-x="620" 
d="M412 665h-47l-67 117h52zM290 39q114 0 185.5 93t71.5 221q0 97 -51 159.5t-136 62.5q-114 0 -185 -93t-71 -221q0 -97 50.5 -159.5t135.5 -62.5zM290 -9q-105 0 -171.5 74.5t-66.5 195.5q0 144 86.5 253t221.5 109q105 0 172 -74.5t67 -195.5q0 -92 -37 -174t-109 -135
t-163 -53z" />
    <glyph glyph-name="Oacute" unicode="&#xd3;" horiz-adv-x="620" 
d="M410 665h-53l103 117h59zM290 39q114 0 185.5 93t71.5 221q0 97 -51 159.5t-136 62.5q-114 0 -185 -93t-71 -221q0 -97 50.5 -159.5t135.5 -62.5zM290 -9q-105 0 -171.5 74.5t-66.5 195.5q0 144 86.5 253t221.5 109q105 0 172 -74.5t67 -195.5q0 -92 -37 -174t-109 -135
t-163 -53z" />
    <glyph glyph-name="Ocircumflex" unicode="&#xd4;" horiz-adv-x="620" 
d="M290 39q114 0 185.5 93t71.5 221q0 97 -51 159.5t-136 62.5q-114 0 -185 -93t-71 -221q0 -97 50.5 -159.5t135.5 -62.5zM290 -9q-105 0 -171.5 74.5t-66.5 195.5q0 144 86.5 253t221.5 109q105 0 172 -74.5t67 -195.5q0 -92 -37 -174t-109 -135t-163 -53zM428 786
l71 -119h-44l-53 84l-81 -84h-50l113 119h44z" />
    <glyph glyph-name="Otilde" unicode="&#xd5;" horiz-adv-x="620" 
d="M494 770h36q-9 -49 -31.5 -77t-54.5 -28q-20 0 -37 16.5t-31 32.5t-28 16q-37 0 -48 -62h-36q8 48 31 76.5t55 28.5q26 0 53 -32.5t43 -32.5q37 0 48 62zM290 39q114 0 185.5 93t71.5 221q0 97 -51 159.5t-136 62.5q-114 0 -185 -93t-71 -221q0 -97 50.5 -159.5
t135.5 -62.5zM290 -9q-105 0 -171.5 74.5t-66.5 195.5q0 144 86.5 253t221.5 109q105 0 172 -74.5t67 -195.5q0 -92 -37 -174t-109 -135t-163 -53z" />
    <glyph glyph-name="Odieresis" unicode="&#xd6;" horiz-adv-x="620" 
d="M301 715q0 14 9.5 23.5t23.5 9.5t23 -9.5t9 -23.5t-9.5 -23.5t-22.5 -9.5q-14 0 -23.5 9.5t-9.5 23.5zM426 715q0 14 9 23.5t23 9.5t23.5 -9.5t9.5 -23.5q0 -13 -9.5 -23t-23.5 -10q-13 0 -22.5 9.5t-9.5 23.5zM290 39q114 0 185.5 93t71.5 221q0 97 -51 159.5t-136 62.5
q-114 0 -185 -93t-71 -221q0 -97 50.5 -159.5t135.5 -62.5zM290 -9q-105 0 -171.5 74.5t-66.5 195.5q0 144 86.5 253t221.5 109q105 0 172 -74.5t67 -195.5q0 -92 -37 -174t-109 -135t-163 -53z" />
    <glyph glyph-name="multiply" unicode="&#xd7;" horiz-adv-x="442" 
d="M206 293l-101 122l32 27l99 -122l143 123l24 -29l-142 -123l99 -121l-32 -28l-99 121l-142 -121l-25 29z" />
    <glyph glyph-name="Oslash" unicode="&#xd8;" horiz-adv-x="630" 
d="M49 7l63 73q-55 72 -55 181q0 144 86.5 253t221.5 109q99 0 162 -65l52 60l31 -24l-57 -66q51 -73 51 -175q0 -92 -37 -174t-109 -135t-163 -53q-92 0 -156 59l-58 -67zM109 261q0 -85 37 -142l349 402q-51 54 -130 54q-114 0 -185 -93t-71 -221zM295 39q114 0 185.5 93
t71.5 221q0 78 -33 136l-348 -402q50 -48 124 -48z" />
    <glyph glyph-name="Ugrave" unicode="&#xd9;" horiz-adv-x="605" 
d="M404 665h-47l-67 117h52zM279 -9q-94 0 -152.5 51.5t-58.5 145.5q0 20 5 58l65 368h51l-64 -365q-5 -32 -5 -54q0 -77 43.5 -117t115.5 -40q177 0 214 211l64 365h51l-65 -372q-22 -124 -91.5 -187.5t-172.5 -63.5z" />
    <glyph glyph-name="Uacute" unicode="&#xda;" horiz-adv-x="605" 
d="M402 665h-53l103 117h59zM279 -9q-94 0 -152.5 51.5t-58.5 145.5q0 20 5 58l65 368h51l-64 -365q-5 -32 -5 -54q0 -77 43.5 -117t115.5 -40q177 0 214 211l64 365h51l-65 -372q-22 -124 -91.5 -187.5t-172.5 -63.5z" />
    <glyph glyph-name="Ucircumflex" unicode="&#xdb;" horiz-adv-x="605" 
d="M279 -9q-94 0 -152.5 51.5t-58.5 145.5q0 20 5 58l65 368h51l-64 -365q-5 -32 -5 -54q0 -77 43.5 -117t115.5 -40q177 0 214 211l64 365h51l-65 -372q-22 -124 -91.5 -187.5t-172.5 -63.5zM420 786l71 -119h-44l-53 84l-81 -84h-50l113 119h44z" />
    <glyph glyph-name="Udieresis" unicode="&#xdc;" horiz-adv-x="605" 
d="M293 715q0 14 9.5 23.5t23.5 9.5t23 -9.5t9 -23.5t-9.5 -23.5t-22.5 -9.5q-14 0 -23.5 9.5t-9.5 23.5zM418 715q0 14 9 23.5t23 9.5t23.5 -9.5t9.5 -23.5q0 -13 -9.5 -23t-23.5 -10q-13 0 -22.5 9.5t-9.5 23.5zM279 -9q-94 0 -152.5 51.5t-58.5 145.5q0 20 5 58l65 368
h51l-64 -365q-5 -32 -5 -54q0 -77 43.5 -117t115.5 -40q177 0 214 211l64 365h51l-65 -372q-22 -124 -91.5 -187.5t-172.5 -63.5z" />
    <glyph glyph-name="Yacute" unicode="&#xdd;" horiz-adv-x="535" 
d="M286 309l247 305h57l-285 -352l-46 -262h-51l46 262l-162 352h54zM374 665h-53l103 117h59z" />
    <glyph glyph-name="Thorn" unicode="&#xde;" horiz-adv-x="529" 
d="M291 140h-171l-24 -140h-51l108 614h50l-21 -125h169q79 0 122.5 -38t43.5 -110q0 -96 -62.5 -148.5t-163.5 -52.5zM174 443l-46 -256h170q78 0 123 40t45 112q0 50 -31.5 77t-93.5 27h-167z" />
    <glyph glyph-name="germandbls" unicode="&#xdf;" horiz-adv-x="501" 
d="M336 369q53 -9 86.5 -49t33.5 -106q0 -99 -64 -160t-151 -61q-58 0 -97 23l9 48q32 -26 88 -26q71 0 119 48t48 129q0 62 -38.5 96t-108.5 34h-43l8 44h43q58 0 100 38.5t42 94.5q0 42 -25 67.5t-73 25.5q-61 0 -99.5 -40.5t-50.5 -107.5l-81 -467h-49l81 467
q15 85 68 138.5t132 53.5q70 0 108 -37t38 -95q0 -59 -36.5 -100.5t-87.5 -57.5z" />
    <glyph glyph-name="agrave" unicode="&#xe0;" horiz-adv-x="441" 
d="M388 300l-52 -300h-48l7 42q-21 -21 -55 -35t-71 -14q-64 0 -105.5 35t-41.5 90q0 66 53 107t126 41q41 0 74.5 -15.5t49.5 -35.5l15 82q2 18 2 28q0 38 -23.5 61t-67.5 23q-85 0 -124 -76h-49q22 56 69.5 88t106.5 32q65 0 101 -34t36 -91q0 -13 -3 -28zM305 101l11 57
q-8 28 -40 47t-75 19q-51 0 -91 -27.5t-40 -77.5q0 -38 31 -61t75 -23q42 0 78 18.5t51 47.5zM304 520h-44l-64 130h48z" />
    <glyph glyph-name="aacute" unicode="&#xe1;" horiz-adv-x="441" 
d="M388 300l-52 -300h-48l7 42q-21 -21 -55 -35t-71 -14q-64 0 -105.5 35t-41.5 90q0 66 53 107t126 41q41 0 74.5 -15.5t49.5 -35.5l15 82q2 18 2 28q0 38 -23.5 61t-67.5 23q-85 0 -124 -76h-49q22 56 69.5 88t106.5 32q65 0 101 -34t36 -91q0 -13 -3 -28zM305 101l11 57
q-8 28 -40 47t-75 19q-51 0 -91 -27.5t-40 -77.5q0 -38 31 -61t75 -23q42 0 78 18.5t51 47.5zM303 520h-50l106 130h53z" />
    <glyph glyph-name="acircumflex" unicode="&#xe2;" horiz-adv-x="441" 
d="M319 644l69 -131h-43l-51 97l-86 -97h-48l115 131h44zM388 300l-52 -300h-48l7 42q-21 -21 -55 -35t-71 -14q-64 0 -105.5 35t-41.5 90q0 66 53 107t126 41q41 0 74.5 -15.5t49.5 -35.5l15 82q2 18 2 28q0 38 -23.5 61t-67.5 23q-85 0 -124 -76h-49q22 56 69.5 88
t106.5 32q65 0 101 -34t36 -91q0 -13 -3 -28zM305 101l11 57q-8 28 -40 47t-75 19q-51 0 -91 -27.5t-40 -77.5q0 -38 31 -61t75 -23q42 0 78 18.5t51 47.5z" />
    <glyph glyph-name="atilde" unicode="&#xe3;" horiz-adv-x="441" 
d="M388 300l-52 -300h-48l7 42q-21 -21 -55 -35t-71 -14q-64 0 -105.5 35t-41.5 90q0 66 53 107t126 41q41 0 74.5 -15.5t49.5 -35.5l15 82q2 18 2 28q0 38 -23.5 61t-67.5 23q-85 0 -124 -76h-49q22 56 69.5 88t106.5 32q65 0 101 -34t36 -91q0 -13 -3 -28zM305 101l11 57
q-8 28 -40 47t-75 19q-51 0 -91 -27.5t-40 -77.5q0 -38 31 -61t75 -23q42 0 78 18.5t51 47.5zM384 625h36q-9 -49 -31.5 -77t-54.5 -28q-20 0 -37 16t-31 32.5t-28 16.5q-37 0 -48 -62h-36q8 48 31 76.5t55 28.5q26 0 53 -32.5t43 -32.5q36 0 48 62z" />
    <glyph glyph-name="adieresis" unicode="&#xe4;" horiz-adv-x="441" 
d="M195 571q0 14 9.5 23t23.5 9t23 -9.5t9 -22.5q0 -14 -9 -23.5t-23 -9.5t-23.5 9.5t-9.5 23.5zM320 571q0 13 9 22.5t23 9.5t23.5 -9.5t9.5 -22.5q0 -14 -9.5 -23.5t-23.5 -9.5t-23 9.5t-9 23.5zM388 300l-52 -300h-48l7 42q-21 -21 -55 -35t-71 -14q-64 0 -105.5 35
t-41.5 90q0 66 53 107t126 41q41 0 74.5 -15.5t49.5 -35.5l15 82q2 18 2 28q0 38 -23.5 61t-67.5 23q-85 0 -124 -76h-49q22 56 69.5 88t106.5 32q65 0 101 -34t36 -91q0 -13 -3 -28zM305 101l11 57q-8 28 -40 47t-75 19q-51 0 -91 -27.5t-40 -77.5q0 -38 31 -61t75 -23
q42 0 78 18.5t51 47.5z" />
    <glyph glyph-name="aring" unicode="&#xe5;" horiz-adv-x="441" 
d="M388 300l-52 -300h-48l7 42q-21 -21 -55 -35t-71 -14q-64 0 -105.5 35t-41.5 90q0 66 53 107t126 41q41 0 74.5 -15.5t49.5 -35.5l15 82q2 18 2 28q0 38 -23.5 61t-67.5 23q-85 0 -124 -76h-49q22 56 69.5 88t106.5 32q65 0 101 -34t36 -91q0 -13 -3 -28zM305 101l11 57
q-8 28 -40 47t-75 19q-51 0 -91 -27.5t-40 -77.5q0 -38 31 -61t75 -23q42 0 78 18.5t51 47.5zM290 531q21 0 36 14.5t15 36.5q0 20 -13.5 33.5t-33.5 13.5q-21 0 -36 -14.5t-15 -36.5q0 -20 13.5 -33.5t33.5 -13.5zM289 499q-33 0 -55.5 22.5t-22.5 54.5q0 34 24.5 59.5
t59.5 25.5q33 0 55.5 -22.5t22.5 -54.5q0 -34 -24.5 -59.5t-59.5 -25.5z" />
    <glyph glyph-name="ae" unicode="&#xe6;" horiz-adv-x="736" 
d="M631 129h50q-21 -63 -71 -100.5t-117 -37.5q-59 0 -99 30t-56 83q-29 -48 -78 -79.5t-109 -31.5q-58 0 -93.5 32.5t-35.5 86.5q0 68 54 107t137 39h121q9 46 9 66q0 38 -23.5 61.5t-67.5 23.5q-85 0 -123 -76h-49q22 56 69 88t106 32q51 0 83.5 -24.5t44.5 -66.5
q64 91 162 91q78 0 118.5 -47t40.5 -128q0 -25 -7 -61h-326q-2 -22 -2 -36q0 -70 33 -108t92 -38q48 0 84.5 25t52.5 69zM313 138l14 79h-115q-62 0 -102.5 -24.5t-40.5 -78.5q0 -36 25 -57.5t64 -21.5q52 0 92 29t63 74zM544 409q-63 0 -105.5 -42.5t-59.5 -108.5h275
q1 8 1 25q0 55 -27 90.5t-84 35.5z" />
    <glyph glyph-name="ccedilla" unicode="&#xe7;" horiz-adv-x="442" 
d="M341 129h50q-21 -64 -68.5 -101t-114.5 -37q-79 0 -124.5 52.5t-45.5 139.5q0 110 61.5 190t163.5 80q69 0 109 -37.5t45 -100.5h-50q-5 43 -32 68t-72 25q-79 0 -127 -65t-48 -160q0 -68 33 -107.5t90 -39.5q96 0 130 93zM131 -175h-49l82 127h50z" />
    <glyph glyph-name="egrave" unicode="&#xe8;" horiz-adv-x="454" 
d="M349 129h50q-21 -63 -71 -100.5t-117 -37.5q-81 0 -127 52t-46 141q0 106 61 187.5t165 81.5q77 0 117.5 -47t40.5 -128q0 -21 -6 -60h-326q-2 -24 -2 -34q0 -71 33.5 -110t91.5 -39q47 0 83.5 25t52.5 69zM263 409q-64 0 -107 -42.5t-60 -109.5h276q2 18 2 25
q0 55 -27.5 91t-83.5 36zM312 520h-44l-64 130h48z" />
    <glyph glyph-name="eacute" unicode="&#xe9;" horiz-adv-x="454" 
d="M349 129h50q-21 -63 -71 -100.5t-117 -37.5q-81 0 -127 52t-46 141q0 106 61 187.5t165 81.5q77 0 117.5 -47t40.5 -128q0 -21 -6 -60h-326q-2 -24 -2 -34q0 -71 33.5 -110t91.5 -39q47 0 83.5 25t52.5 69zM263 409q-64 0 -107 -42.5t-60 -109.5h276q2 18 2 25
q0 55 -27.5 91t-83.5 36zM310 520h-50l106 130h53z" />
    <glyph glyph-name="ecircumflex" unicode="&#xea;" horiz-adv-x="454" 
d="M349 129h50q-21 -63 -71 -100.5t-117 -37.5q-81 0 -127 52t-46 141q0 106 61 187.5t165 81.5q77 0 117.5 -47t40.5 -128q0 -21 -6 -60h-326q-2 -24 -2 -34q0 -71 33.5 -110t91.5 -39q47 0 83.5 25t52.5 69zM263 409q-64 0 -107 -42.5t-60 -109.5h276q2 18 2 25
q0 55 -27.5 91t-83.5 36zM329 644l69 -131h-43l-51 97l-86 -97h-48l115 131h44z" />
    <glyph glyph-name="edieresis" unicode="&#xeb;" horiz-adv-x="454" 
d="M349 129h50q-21 -63 -71 -100.5t-117 -37.5q-81 0 -127 52t-46 141q0 106 61 187.5t165 81.5q77 0 117.5 -47t40.5 -128q0 -21 -6 -60h-326q-2 -24 -2 -34q0 -71 33.5 -110t91.5 -39q47 0 83.5 25t52.5 69zM263 409q-64 0 -107 -42.5t-60 -109.5h276q2 18 2 25
q0 55 -27.5 91t-83.5 36zM203 571q0 14 9.5 23t23.5 9t23 -9.5t9 -22.5q0 -14 -9 -23.5t-23 -9.5t-23.5 9.5t-9.5 23.5zM328 571q0 13 9 22.5t23 9.5t23.5 -9.5t9.5 -22.5q0 -14 -9.5 -23.5t-23.5 -9.5t-23 9.5t-9 23.5z" />
    <glyph glyph-name="igrave" unicode="&#xec;" horiz-adv-x="192" 
d="M160 444l-78 -444h-49l78 444h49zM172 520h-44l-64 130h48z" />
    <glyph glyph-name="iacute" unicode="&#xed;" horiz-adv-x="192" 
d="M171 520h-50l106 130h53zM160 444l-78 -444h-49l78 444h49z" />
    <glyph glyph-name="icircumflex" unicode="&#xee;" horiz-adv-x="192" 
d="M191 644l49 -131h-42l-34 94l-67 -94h-46l96 131h44zM160 444l-78 -444h-49l78 444h49z" />
    <glyph glyph-name="idieresis" unicode="&#xef;" horiz-adv-x="192" 
d="M71 571q0 13 9.5 22.5t23.5 9.5t23.5 -9t9.5 -23t-9.5 -23.5t-23.5 -9.5t-23.5 9.5t-9.5 23.5zM178 571q0 13 9.5 22.5t23.5 9.5t23.5 -9.5t9.5 -22.5q0 -14 -9.5 -23.5t-23.5 -9.5t-23.5 9.5t-9.5 23.5zM160 444l-78 -444h-49l78 444h49z" />
    <glyph glyph-name="eth" unicode="&#xf0;" horiz-adv-x="471" 
d="M185 502l-12 33l97 32q-33 38 -86 79v4h58q39 -29 73 -69l84 28l11 -33l-71 -24q94 -127 94 -280q0 -124 -63.5 -202.5t-158.5 -78.5q-80 0 -126.5 52t-46.5 138q0 118 63.5 195t156.5 77q79 0 110 -52h2q-23 69 -76 137zM211 35q74 0 123 63.5t49 164.5q0 66 -33 106
t-90 40q-74 0 -123 -63.5t-49 -164.5q0 -66 33 -106t90 -40z" />
    <glyph glyph-name="ntilde" unicode="&#xf1;" horiz-adv-x="483" 
d="M33 0l78 444h49l-12 -72q64 81 155 81q62 0 96 -34t34 -91q0 -16 -3 -34l-51 -294h-49l49 287q3 17 3 31q0 41 -22.5 65t-68.5 24q-47 0 -88.5 -27.5t-65.5 -68.5l-55 -311h-49zM404 625h36q-9 -49 -31.5 -77t-54.5 -28q-20 0 -37 16t-31 32.5t-28 16.5q-37 0 -48 -62
h-36q8 48 31 76.5t55 28.5q26 0 53 -32.5t43 -32.5q36 0 48 62z" />
    <glyph glyph-name="ograve" unicode="&#xf2;" horiz-adv-x="471" 
d="M211 35q74 0 123 63.5t49 164.5q0 66 -33 106t-90 40q-74 0 -123 -63.5t-49 -164.5q0 -66 33 -106t90 -40zM211 -9q-80 0 -126.5 52t-46.5 138q0 118 64 195t158 77q80 0 126.5 -52t46.5 -138q0 -118 -64 -195t-158 -77zM310 520h-44l-64 130h48z" />
    <glyph glyph-name="oacute" unicode="&#xf3;" horiz-adv-x="471" 
d="M309 520h-50l106 130h53zM211 35q74 0 123 63.5t49 164.5q0 66 -33 106t-90 40q-74 0 -123 -63.5t-49 -164.5q0 -66 33 -106t90 -40zM211 -9q-80 0 -126.5 52t-46.5 138q0 118 64 195t158 77q80 0 126.5 -52t46.5 -138q0 -118 -64 -195t-158 -77z" />
    <glyph glyph-name="ocircumflex" unicode="&#xf4;" horiz-adv-x="471" 
d="M327 644l69 -131h-43l-51 97l-86 -97h-48l115 131h44zM211 35q74 0 123 63.5t49 164.5q0 66 -33 106t-90 40q-74 0 -123 -63.5t-49 -164.5q0 -66 33 -106t90 -40zM211 -9q-80 0 -126.5 52t-46.5 138q0 118 64 195t158 77q80 0 126.5 -52t46.5 -138q0 -118 -64 -195
t-158 -77z" />
    <glyph glyph-name="otilde" unicode="&#xf5;" horiz-adv-x="471" 
d="M211 35q74 0 123 63.5t49 164.5q0 66 -33 106t-90 40q-74 0 -123 -63.5t-49 -164.5q0 -66 33 -106t90 -40zM211 -9q-80 0 -126.5 52t-46.5 138q0 118 64 195t158 77q80 0 126.5 -52t46.5 -138q0 -118 -64 -195t-158 -77zM394 625h36q-9 -49 -31.5 -77t-54.5 -28
q-20 0 -37 16t-31 32.5t-28 16.5q-37 0 -48 -62h-36q8 48 31 76.5t55 28.5q26 0 53 -32.5t43 -32.5q36 0 48 62z" />
    <glyph glyph-name="odieresis" unicode="&#xf6;" horiz-adv-x="471" 
d="M201 571q0 14 9.5 23t23.5 9t23 -9.5t9 -22.5q0 -14 -9 -23.5t-23 -9.5t-23.5 9.5t-9.5 23.5zM326 571q0 13 9 22.5t23 9.5t23.5 -9.5t9.5 -22.5q0 -14 -9.5 -23.5t-23.5 -9.5t-23 9.5t-9 23.5zM211 35q74 0 123 63.5t49 164.5q0 66 -33 106t-90 40q-74 0 -123 -63.5
t-49 -164.5q0 -66 33 -106t90 -40zM211 -9q-80 0 -126.5 52t-46.5 138q0 118 64 195t158 77q80 0 126.5 -52t46.5 -138q0 -118 -64 -195t-158 -77z" />
    <glyph glyph-name="divide" unicode="&#xf7;" horiz-adv-x="514" 
d="M79 273l7 43h372l-7 -43h-372zM258 447q0 16 11 27t26 11q14 0 25 -11t11 -27q0 -15 -11 -25.5t-25 -10.5q-15 0 -26 10.5t-11 25.5zM206 142q0 15 10.5 26t25.5 11t25.5 -11t10.5 -26q0 -16 -10.5 -26.5t-25.5 -10.5t-25.5 10.5t-10.5 26.5z" />
    <glyph glyph-name="oslash" unicode="&#xf8;" horiz-adv-x="481" 
d="M30 -9l51 61q-38 50 -38 129q0 118 64 195t158 77q69 0 115 -41l49 58l28 -20l-54 -64q35 -49 35 -123q0 -118 -64 -195t-158 -77q-66 0 -111 36l-47 -57zM92 181q0 -55 21 -91l238 286q-33 33 -86 33q-74 0 -123.5 -63.5t-49.5 -164.5zM216 35q74 0 123.5 63.5
t49.5 164.5q0 49 -18 84l-236 -284q31 -28 81 -28z" />
    <glyph glyph-name="ugrave" unicode="&#xf9;" horiz-adv-x="481" 
d="M447 444l-78 -444h-49l12 71q-65 -80 -155 -80q-61 0 -94.5 33.5t-33.5 90.5q0 17 3 35l51 294h50l-51 -288q-3 -16 -3 -33q0 -87 89 -87q47 0 89 28t66 69l55 311h49zM311 520h-44l-64 130h48z" />
    <glyph glyph-name="uacute" unicode="&#xfa;" horiz-adv-x="481" 
d="M309 520h-50l106 130h53zM447 444l-78 -444h-49l12 71q-65 -80 -155 -80q-61 0 -94.5 33.5t-33.5 90.5q0 17 3 35l51 294h50l-51 -288q-3 -16 -3 -33q0 -87 89 -87q47 0 89 28t66 69l55 311h49z" />
    <glyph glyph-name="ucircumflex" unicode="&#xfb;" horiz-adv-x="481" 
d="M328 644l69 -131h-43l-51 97l-86 -97h-48l115 131h44zM447 444l-78 -444h-49l12 71q-65 -80 -155 -80q-61 0 -94.5 33.5t-33.5 90.5q0 17 3 35l51 294h50l-51 -288q-3 -16 -3 -33q0 -87 89 -87q47 0 89 28t66 69l55 311h49z" />
    <glyph glyph-name="udieresis" unicode="&#xfc;" horiz-adv-x="481" 
d="M202 571q0 14 9.5 23t23.5 9q13 0 22.5 -9.5t9.5 -22.5q0 -14 -9 -23.5t-23 -9.5t-23.5 9.5t-9.5 23.5zM327 571q0 13 9.5 22.5t22.5 9.5q14 0 23.5 -9.5t9.5 -22.5q0 -14 -9.5 -23.5t-23.5 -9.5t-23 9.5t-9 23.5zM447 444l-78 -444h-49l12 71q-65 -80 -155 -80
q-61 0 -94.5 33.5t-33.5 90.5q0 17 3 35l51 294h50l-51 -288q-3 -16 -3 -33q0 -87 89 -87q47 0 89 28t66 69l55 311h49z" />
    <glyph glyph-name="yacute" unicode="&#xfd;" horiz-adv-x="432" 
d="M84 -170h-51l108 180l-84 434h50l70 -375l223 375h54zM283 520h-50l106 130h53z" />
    <glyph glyph-name="thorn" unicode="&#xfe;" horiz-adv-x="493" 
d="M94 68l-42 -238h-49l144 820h49l-48 -274q26 33 65 55t81 22q80 0 120.5 -51.5t40.5 -134.5q0 -111 -64.5 -193.5t-166.5 -82.5q-46 0 -80.5 22.5t-49.5 54.5zM138 317l-34 -192q31 -88 119 -88q85 0 133.5 69.5t48.5 160.5q0 64 -30 102t-88 38q-86 0 -149 -90z" />
    <glyph glyph-name="ydieresis" unicode="&#xff;" horiz-adv-x="432" 
d="M84 -170h-51l108 180l-84 434h50l70 -375l223 375h54zM176 571q0 14 9.5 23t23.5 9q13 0 22.5 -9.5t9.5 -22.5q0 -14 -9 -23.5t-23 -9.5t-23.5 9.5t-9.5 23.5zM301 571q0 13 9.5 22.5t22.5 9.5q14 0 23.5 -9.5t9.5 -22.5q0 -14 -9.5 -23.5t-23.5 -9.5t-23 9.5t-9 23.5z
" />
    <glyph glyph-name="Amacron" unicode="&#x100;" horiz-adv-x="579" 
d="M350 614h48l124 -614h-50l-41 203h-270l-119 -203h-54zM363 548l-176 -300h235zM279 670l7 42h202l-7 -42h-202z" />
    <glyph glyph-name="amacron" unicode="&#x101;" horiz-adv-x="441" 
d="M388 300l-52 -300h-48l7 42q-21 -21 -55 -35t-71 -14q-64 0 -105.5 35t-41.5 90q0 66 53 107t126 41q41 0 74.5 -15.5t49.5 -35.5l15 82q2 18 2 28q0 38 -23.5 61t-67.5 23q-85 0 -124 -76h-49q22 56 69.5 88t106.5 32q65 0 101 -34t36 -91q0 -13 -3 -28zM305 101l11 57
q-8 28 -40 47t-75 19q-51 0 -91 -27.5t-40 -77.5q0 -38 31 -61t75 -23q42 0 78 18.5t51 47.5zM180 537l8 41h201l-7 -41h-202z" />
    <glyph glyph-name="Abreve" unicode="&#x102;" horiz-adv-x="579" 
d="M350 614h48l124 -614h-50l-41 203h-270l-119 -203h-54zM363 548l-176 -300h235zM385 664q-44 0 -69.5 31.5t-15.5 85.5h40q-7 -37 6.5 -58t42.5 -21q28 0 49 21t28 58h39q-10 -56 -42 -86.5t-78 -30.5z" />
    <glyph glyph-name="abreve" unicode="&#x103;" horiz-adv-x="441" 
d="M388 300l-52 -300h-48l7 42q-21 -21 -55 -35t-71 -14q-64 0 -105.5 35t-41.5 90q0 66 53 107t126 41q41 0 74.5 -15.5t49.5 -35.5l15 82q2 18 2 28q0 38 -23.5 61t-67.5 23q-85 0 -124 -76h-49q22 56 69.5 88t106.5 32q65 0 101 -34t36 -91q0 -13 -3 -28zM305 101l11 57
q-8 28 -40 47t-75 19q-51 0 -91 -27.5t-40 -77.5q0 -38 31 -61t75 -23q42 0 78 18.5t51 47.5zM281 506q-44 0 -69 32t-15 88h40q-7 -38 6 -60.5t41 -22.5q29 0 49.5 22t27.5 61h40q-11 -58 -43 -89t-77 -31z" />
    <glyph glyph-name="Aogonek" unicode="&#x104;" horiz-adv-x="579" 
d="M350 614h48l124 -614q-59 -83 -66 -102q-5 -12 -5 -24q0 -19 19 -19q17 0 40 14l-6 -36q-25 -15 -46 -15q-48 0 -48 48q0 9 1.5 17t6 18t7.5 16.5t11.5 19t12.5 18.5t16 22t17 23h-10l-40 203h-271l-119 -203h-54zM363 548l-176 -300h236z" />
    <glyph glyph-name="aogonek" unicode="&#x105;" horiz-adv-x="441" 
d="M305 101l11 57q-8 28 -40 47t-75 19q-51 0 -91 -27.5t-40 -77.5q0 -38 31 -61t75 -23q42 0 78 18.5t51 47.5zM288 0l7 42q-21 -21 -55 -35t-71 -14q-64 0 -105.5 35t-41.5 90q0 66 53 107t126 41q41 0 74.5 -15.5t49.5 -35.5l15 82q2 18 2 28q0 38 -23.5 61t-67.5 23
q-85 0 -124 -76h-49q22 56 69.5 88t106.5 32q65 0 101 -34t36 -91q0 -13 -3 -28l-52 -300q-59 -83 -66 -102q-5 -12 -5 -24q0 -19 19 -19q17 0 40 14l-7 -36q-23 -15 -45 -15t-35.5 12.5t-13.5 35.5q0 10 3 21t6 18.5t12 21.5t14 21t18.5 25.5t19.5 26.5h-8z" />
    <glyph glyph-name="Cacute" unicode="&#x106;" horiz-adv-x="576" 
d="M52 260q0 96 37.5 178t108.5 133.5t161 51.5q86 0 142.5 -48t67.5 -128h-49q-13 59 -55.5 93.5t-105.5 34.5q-111 0 -183 -91.5t-72 -223.5q0 -99 51.5 -160t135.5 -61q135 0 191 128h51q-28 -81 -91.5 -128.5t-150.5 -47.5q-106 0 -172.5 74t-66.5 195zM400 665h-53
l103 117h59z" />
    <glyph glyph-name="cacute" unicode="&#x107;" horiz-adv-x="442" 
d="M307 520h-50l106 130h53zM341 129h50q-21 -64 -68.5 -101t-114.5 -37q-79 0 -124.5 52.5t-45.5 139.5q0 110 61.5 190t163.5 80q69 0 109 -37.5t45 -100.5h-50q-5 43 -32 68t-72 25q-79 0 -127 -65t-48 -160q0 -68 33 -107.5t90 -39.5q96 0 130 93z" />
    <glyph glyph-name="Ccircumflex" unicode="&#x108;" horiz-adv-x="576" 
d="M52 260q0 96 37.5 178t108.5 133.5t161 51.5q86 0 142.5 -48t67.5 -128h-49q-13 59 -55.5 93.5t-105.5 34.5q-111 0 -183 -91.5t-72 -223.5q0 -99 51.5 -160t135.5 -61q135 0 191 128h51q-28 -81 -91.5 -128.5t-150.5 -47.5q-106 0 -172.5 74t-66.5 195zM425 786l71 -119
h-44l-53 84l-81 -84h-50l113 119h44z" />
    <glyph glyph-name="ccircumflex" unicode="&#x109;" horiz-adv-x="442" 
d="M325 644l69 -131h-43l-51 97l-86 -97h-48l115 131h44zM341 129h50q-21 -64 -68.5 -101t-114.5 -37q-79 0 -124.5 52.5t-45.5 139.5q0 110 61.5 190t163.5 80q69 0 109 -37.5t45 -100.5h-50q-5 43 -32 68t-72 25q-79 0 -127 -65t-48 -160q0 -68 33 -107.5t90 -39.5
q96 0 130 93z" />
    <glyph glyph-name="Cdotaccent" unicode="&#x10a;" horiz-adv-x="576" 
d="M427 714q0 -14 -10 -24t-24 -10t-24 10t-10 24t10 24t24 10t24 -10t10 -24zM52 260q0 96 37.5 178t108.5 133.5t161 51.5q86 0 142.5 -48t67.5 -128h-49q-13 59 -55.5 93.5t-105.5 34.5q-111 0 -183 -91.5t-72 -223.5q0 -99 51.5 -160t135.5 -61q135 0 191 128h51
q-28 -81 -91.5 -128.5t-150.5 -47.5q-106 0 -172.5 74t-66.5 195z" />
    <glyph glyph-name="cdotaccent" unicode="&#x10b;" horiz-adv-x="442" 
d="M341 129h50q-21 -64 -68.5 -101t-114.5 -37q-79 0 -124.5 52.5t-45.5 139.5q0 110 61.5 190t163.5 80q69 0 109 -37.5t45 -100.5h-50q-5 43 -32 68t-72 25q-79 0 -127 -65t-48 -160q0 -68 33 -107.5t90 -39.5q96 0 130 93zM330 579q0 -14 -10 -24t-24 -10t-24 10t-10 24
t10 24t24 10t24 -10t10 -24z" />
    <glyph glyph-name="Ccaron" unicode="&#x10c;" horiz-adv-x="576" 
d="M362 660l-71 119h44l53 -83l81 83h50l-113 -119h-44zM52 260q0 96 37.5 178t108.5 133.5t161 51.5q86 0 142.5 -48t67.5 -128h-49q-13 59 -55.5 93.5t-105.5 34.5q-111 0 -183 -91.5t-72 -223.5q0 -99 51.5 -160t135.5 -61q135 0 191 128h51q-28 -81 -91.5 -128.5
t-150.5 -47.5q-106 0 -172.5 74t-66.5 195z" />
    <glyph glyph-name="ccaron" unicode="&#x10d;" horiz-adv-x="442" 
d="M264 515l-69 130h43l51 -96l86 96h48l-115 -130h-44zM341 129h50q-21 -64 -68.5 -101t-114.5 -37q-79 0 -124.5 52.5t-45.5 139.5q0 110 61.5 190t163.5 80q69 0 109 -37.5t45 -100.5h-50q-5 43 -32 68t-72 25q-79 0 -127 -65t-48 -160q0 -68 33 -107.5t90 -39.5
q96 0 130 93z" />
    <glyph glyph-name="Dcaron" unicode="&#x10e;" horiz-adv-x="606" 
d="M336 660l-71 119h44l53 -83l81 83h50l-113 -119h-44zM104 47h134q127 0 210.5 87.5t83.5 224.5q0 97 -53 152.5t-152 55.5h-132zM45 0l108 614h180q119 0 185 -68.5t66 -186.5q0 -157 -101.5 -258t-252.5 -101h-185z" />
    <glyph glyph-name="dcaron" unicode="&#x10f;" horiz-adv-x="493" 
d="M558 490h-42l78 160h43zM399 376l48 274h49l-114 -650h-49l12 68q-26 -33 -65 -55t-81 -22q-80 0 -120.5 51.5t-40.5 134.5q0 109 65 192.5t166 83.5q46 0 80.5 -22.5t49.5 -54.5zM355 127l34 192q-31 88 -119 88q-85 0 -133.5 -70.5t-48.5 -159.5q0 -64 30 -102t88 -38
q86 0 149 90z" />
    <glyph glyph-name="Dcroat" unicode="&#x110;" horiz-adv-x="618" 
d="M50 295l8 45h60l48 274h180q119 0 185 -68.5t66 -186.5q0 -157 -101.5 -258t-252.5 -101h-185l52 295h-60zM117 47h134q127 0 210.5 87.5t83.5 224.5q0 97 -53 152.5t-152 55.5h-132l-40 -227h129l-7 -45h-130z" />
    <glyph glyph-name="dcroat" unicode="&#x111;" horiz-adv-x="493" 
d="M308 520l7 37h115l17 93h49l-17 -93h54l-7 -37h-53l-91 -520h-49l12 68q-26 -33 -65 -55t-81 -22q-80 0 -120.5 51.5t-40.5 134.5q0 109 65 192.5t166 83.5q46 0 80.5 -22.5t49.5 -54.5l25 144h-116zM355 127l34 192q-31 88 -119 88q-85 0 -133.5 -70.5t-48.5 -159.5
q0 -64 30 -102t88 -38q86 0 149 90z" />
    <glyph glyph-name="Emacron" unicode="&#x112;" horiz-adv-x="515" 
d="M258 670l7 42h202l-7 -42h-202zM153 614h380l-8 -47h-331l-40 -228h300l-8 -46h-300l-43 -246h330l-8 -47h-380z" />
    <glyph glyph-name="emacron" unicode="&#x113;" horiz-adv-x="454" 
d="M349 129h50q-21 -63 -71 -100.5t-117 -37.5q-81 0 -127 52t-46 141q0 106 61 187.5t165 81.5q77 0 117.5 -47t40.5 -128q0 -21 -6 -60h-326q-2 -24 -2 -34q0 -71 33.5 -110t91.5 -39q47 0 83.5 25t52.5 69zM263 409q-64 0 -107 -42.5t-60 -109.5h276q2 18 2 25
q0 55 -27.5 91t-83.5 36zM187 537l8 41h201l-7 -41h-202z" />
    <glyph glyph-name="Ebreve" unicode="&#x114;" horiz-adv-x="515" 
d="M361 664q-44 0 -69.5 31.5t-15.5 85.5h40q-7 -37 6.5 -58t42.5 -21q28 0 49 21t28 58h39q-10 -56 -42 -86.5t-78 -30.5zM153 614h380l-8 -47h-331l-40 -228h300l-8 -46h-300l-43 -246h330l-8 -47h-380z" />
    <glyph glyph-name="ebreve" unicode="&#x115;" horiz-adv-x="454" 
d="M349 129h50q-21 -63 -71 -100.5t-117 -37.5q-81 0 -127 52t-46 141q0 106 61 187.5t165 81.5q77 0 117.5 -47t40.5 -128q0 -21 -6 -60h-326q-2 -24 -2 -34q0 -71 33.5 -110t91.5 -39q47 0 83.5 25t52.5 69zM263 409q-64 0 -107 -42.5t-60 -109.5h276q2 18 2 25
q0 55 -27.5 91t-83.5 36zM285 506q-44 0 -69 32t-15 88h40q-7 -38 6 -60.5t41 -22.5q29 0 49.5 22t27.5 61h40q-11 -58 -43 -89t-77 -31z" />
    <glyph glyph-name="Edotaccent" unicode="&#x116;" horiz-adv-x="515" 
d="M400 714q0 -14 -10 -24t-24 -10t-24 10t-10 24t10 24t24 10t24 -10t10 -24zM153 614h380l-8 -47h-331l-40 -228h300l-8 -46h-300l-43 -246h330l-8 -47h-380z" />
    <glyph glyph-name="edotaccent" unicode="&#x117;" horiz-adv-x="454" 
d="M349 129h50q-21 -63 -71 -100.5t-117 -37.5q-81 0 -127 52t-46 141q0 106 61 187.5t165 81.5q77 0 117.5 -47t40.5 -128q0 -21 -6 -60h-326q-2 -24 -2 -34q0 -71 33.5 -110t91.5 -39q47 0 83.5 25t52.5 69zM263 409q-64 0 -107 -42.5t-60 -109.5h276q2 18 2 25
q0 55 -27.5 91t-83.5 36zM333 579q0 -14 -10 -24t-24 -10t-24 10t-10 24t10 24t24 10t24 -10t10 -24z" />
    <glyph glyph-name="Eogonek" unicode="&#x118;" horiz-adv-x="515" 
d="M153 614h380l-8 -47h-331l-40 -228h300l-8 -46h-300l-43 -246h330l-8 -47h-38q-59 -83 -66 -104q-4 -11 -4 -22q0 -19 19 -19q17 0 40 14l-7 -36q-23 -15 -45 -15t-35.5 12.5t-13.5 35.5q0 9 1.5 17t6 18t8 17t11.5 19t12.5 18.5t16 21.5t16.5 23h-302z" />
    <glyph glyph-name="eogonek" unicode="&#x119;" horiz-adv-x="454" 
d="M349 129h50q-12 -39 -70 -106q-86 -97 -86 -149q0 -19 19 -19q17 0 40 14l-7 -36q-23 -15 -45 -15t-35.5 12.5t-13.5 35.5q0 51 72 138q-31 -13 -62 -13q-81 0 -127 52t-46 141q0 106 61 187.5t165 81.5q77 0 117.5 -47t40.5 -128q0 -21 -6 -60h-327q-1 -10 -1 -34
q0 -71 33.5 -110t91.5 -39q47 0 83.5 25t52.5 69zM263 409q-64 0 -107 -42.5t-59 -109.5h275q2 18 2 25q0 55 -27.5 91t-83.5 36z" />
    <glyph glyph-name="Ecaron" unicode="&#x11a;" horiz-adv-x="515" 
d="M336 660l-71 119h44l53 -83l81 83h50l-113 -119h-44zM153 614h380l-8 -47h-331l-40 -228h300l-8 -46h-300l-43 -246h330l-8 -47h-380z" />
    <glyph glyph-name="ecaron" unicode="&#x11b;" horiz-adv-x="454" 
d="M349 129h50q-21 -63 -71 -100.5t-117 -37.5q-81 0 -127 52t-46 141q0 106 61 187.5t165 81.5q77 0 117.5 -47t40.5 -128q0 -21 -6 -60h-326q-2 -24 -2 -34q0 -71 33.5 -110t91.5 -39q47 0 83.5 25t52.5 69zM263 409q-64 0 -107 -42.5t-60 -109.5h276q2 18 2 25
q0 55 -27.5 91t-83.5 36zM262 515l-69 130h43l51 -96l86 96h48l-115 -130h-44z" />
    <glyph glyph-name="Gcircumflex" unicode="&#x11c;" horiz-adv-x="599" 
d="M425 786l71 -119h-44l-53 84l-81 -84h-50l113 119h44zM295 -9q-108 0 -175.5 74t-67.5 195q0 148 87 255.5t222 107.5q88 0 146 -48t69 -128h-49q-14 59 -57.5 93.5t-108.5 34.5q-112 0 -184.5 -91.5t-72.5 -223.5q0 -99 52 -160t139 -61q90 0 148 54t75 150h-159l8 45
h208l-7 -43q-21 -116 -93 -185t-180 -69z" />
    <glyph glyph-name="gcircumflex" unicode="&#x11d;" horiz-adv-x="492" 
d="M345 644l69 -131h-43l-51 97l-86 -97h-48l115 131h44zM338 28l9 50q-60 -75 -145 -75q-80 0 -121.5 50t-41.5 131q0 107 64.5 188t165.5 81q47 0 81 -22.5t49 -54.5l12 68h49l-73 -415q-18 -101 -72.5 -154.5t-137.5 -53.5q-75 0 -118.5 36t-45.5 99h49q3 -45 33.5 -68.5
t81.5 -23.5q130 0 161 164zM357 138l32 182q-14 41 -45.5 64t-73.5 23q-85 0 -133.5 -68t-48.5 -155q0 -62 31.5 -99t89.5 -37q83 0 148 90z" />
    <glyph glyph-name="Gbreve" unicode="&#x11e;" horiz-adv-x="599" 
d="M389 664q-44 0 -69.5 31.5t-15.5 85.5h40q-7 -37 6.5 -58t42.5 -21q28 0 49 21t28 58h39q-10 -56 -42 -86.5t-78 -30.5zM295 -9q-108 0 -175.5 74t-67.5 195q0 148 87 255.5t222 107.5q88 0 146 -48t69 -128h-49q-14 59 -57.5 93.5t-108.5 34.5q-112 0 -184.5 -91.5
t-72.5 -223.5q0 -99 52 -160t139 -61q90 0 148 54t75 150h-159l8 45h208l-7 -43q-21 -116 -93 -185t-180 -69z" />
    <glyph glyph-name="gbreve" unicode="&#x11f;" horiz-adv-x="492" 
d="M338 28l9 50q-60 -75 -145 -75q-80 0 -121.5 50t-41.5 131q0 107 64.5 188t165.5 81q47 0 81 -22.5t49 -54.5l12 68h49l-73 -415q-18 -101 -72.5 -154.5t-137.5 -53.5q-75 0 -118.5 36t-45.5 99h49q3 -45 33.5 -68.5t81.5 -23.5q130 0 161 164zM357 138l32 182
q-14 41 -45.5 64t-73.5 23q-85 0 -133.5 -68t-48.5 -155q0 -62 31.5 -99t89.5 -37q83 0 148 90zM305 506q-44 0 -69 32t-15 88h40q-7 -38 6 -60.5t41 -22.5q29 0 49.5 22t27.5 61h40q-11 -58 -43 -89t-77 -31z" />
    <glyph glyph-name="Gdotaccent" unicode="&#x120;" horiz-adv-x="599" 
d="M431 714q0 -14 -10 -24t-24 -10t-24 10t-10 24t10 24t24 10t24 -10t10 -24zM295 -9q-108 0 -175.5 74t-67.5 195q0 148 87 255.5t222 107.5q88 0 146 -48t69 -128h-49q-14 59 -57.5 93.5t-108.5 34.5q-112 0 -184.5 -91.5t-72.5 -223.5q0 -99 52 -160t139 -61
q90 0 148 54t75 150h-159l8 45h208l-7 -43q-21 -116 -93 -185t-180 -69z" />
    <glyph glyph-name="gdotaccent" unicode="&#x121;" horiz-adv-x="492" 
d="M349 579q0 -14 -10 -24t-24 -10t-24 10t-10 24t10 24t24 10t24 -10t10 -24zM338 28l9 50q-60 -75 -145 -75q-80 0 -121.5 50t-41.5 131q0 107 64.5 188t165.5 81q47 0 81 -22.5t49 -54.5l12 68h49l-73 -415q-18 -101 -72.5 -154.5t-137.5 -53.5q-75 0 -118.5 36t-45.5 99
h49q3 -45 33.5 -68.5t81.5 -23.5q130 0 161 164zM357 138l32 182q-14 41 -45.5 64t-73.5 23q-85 0 -133.5 -68t-48.5 -155q0 -62 31.5 -99t89.5 -37q83 0 148 90z" />
    <glyph glyph-name="Gcommaaccent" unicode="&#x122;" horiz-adv-x="599" 
d="M204 -183l48 67q-26 5 -26 33q0 16 10.5 26t25.5 10t25.5 -10.5t10.5 -26.5q0 -18 -17 -41l-41 -58h-36zM295 -9q-108 0 -175.5 74t-67.5 195q0 148 87 255.5t222 107.5q88 0 146 -48t69 -128h-49q-14 59 -57.5 93.5t-108.5 34.5q-112 0 -184.5 -91.5t-72.5 -223.5
q0 -99 52 -160t139 -61q90 0 148 54t75 150h-159l8 45h208l-7 -43q-21 -116 -93 -185t-180 -69z" />
    <glyph glyph-name="gcommaaccent" unicode="&#x123;" horiz-adv-x="492" 
d="M366 663l-49 -69q26 -5 26 -33q0 -15 -10.5 -25.5t-25.5 -10.5t-25.5 10.5t-10.5 26.5q0 17 17 42l42 59h36zM338 28l9 50q-60 -75 -145 -75q-80 0 -121.5 50t-41.5 131q0 107 64.5 188t165.5 81q47 0 81 -22.5t49 -54.5l12 68h49l-73 -415q-18 -101 -72.5 -154.5
t-137.5 -53.5q-75 0 -118.5 36t-45.5 99h49q3 -45 33.5 -68.5t81.5 -23.5q130 0 161 164zM357 138l32 182q-14 41 -45.5 64t-73.5 23q-85 0 -133.5 -68t-48.5 -155q0 -62 31.5 -99t89.5 -37q83 0 148 90z" />
    <glyph glyph-name="Hcircumflex" unicode="&#x124;" horiz-adv-x="649" 
d="M593 614h51l-108 -614h-51l52 293h-390l-51 -293h-51l108 614h51l-49 -274h390zM448 786l71 -119h-44l-53 84l-81 -84h-50l113 119h44z" />
    <glyph glyph-name="hcircumflex" unicode="&#x125;" horiz-adv-x="483" 
d="M303 453q62 0 96 -34t34 -91q0 -16 -3 -34l-51 -294h-49l49 287q3 17 3 31q0 41 -22.5 65t-68.5 24q-47 0 -88.5 -27.5t-65.5 -68.5l-55 -311h-49l114 650h49l-49 -278q28 35 69 58t87 23zM334 795l71 -119h-44l-53 84l-81 -84h-50l113 119h44z" />
    <glyph glyph-name="Hbar" unicode="&#x126;" horiz-adv-x="675" 
d="M606 614h51l-24 -132h60l-8 -44h-59l-77 -438h-51l49 282h-389l-50 -282h-51l77 438h-59l8 44h58l24 132h51l-24 -132h390zM165 327h390l19 111h-390z" />
    <glyph glyph-name="hbar" unicode="&#x127;" horiz-adv-x="483" 
d="M71 520l7 37h52l17 93h49l-17 -93h117l-7 -37h-116l-26 -148q28 35 69 58t87 23q62 0 96 -34t34 -91q0 -16 -3 -34l-51 -294h-49l49 287q3 17 3 31q0 41 -22.5 65t-68.5 24q-47 0 -88.5 -27.5t-65.5 -68.5l-55 -311h-49l91 520h-53z" />
    <glyph glyph-name="Itilde" unicode="&#x128;" horiz-adv-x="209" 
d="M204 614l-108 -614h-51l108 614h51zM294 770h36q-9 -49 -31.5 -77t-54.5 -28q-20 0 -37 16.5t-31 32.5t-28 16q-37 0 -48 -62h-36q8 48 31 76.5t55 28.5q26 0 53 -32.5t43 -32.5q37 0 48 62z" />
    <glyph glyph-name="itilde" unicode="&#x129;" horiz-adv-x="192" 
d="M231 625h36q-8 -48 -27.5 -76.5t-45.5 -28.5q-17 0 -29 16t-21.5 32t-19.5 16q-25 0 -36 -61h-36q8 48 27.5 76.5t44.5 28.5q18 0 30 -16t21 -32t19 -16q25 0 37 61zM160 444l-78 -444h-49l78 444h49z" />
    <glyph glyph-name="Imacron" unicode="&#x12a;" horiz-adv-x="209" 
d="M204 614l-108 -614h-51l108 614h51zM87 670l7 42h202l-7 -42h-202z" />
    <glyph glyph-name="imacron" unicode="&#x12b;" horiz-adv-x="192" 
d="M72 537l7 41h158l-7 -41h-158zM160 444l-78 -444h-49l78 444h49z" />
    <glyph glyph-name="Ibreve" unicode="&#x12c;" horiz-adv-x="209" 
d="M204 614l-108 -614h-51l108 614h51zM190 664q-44 0 -69.5 31.5t-15.5 85.5h40q-7 -37 6.5 -58t42.5 -21q28 0 49 21t28 58h39q-10 -56 -42 -86.5t-78 -30.5z" />
    <glyph glyph-name="ibreve" unicode="&#x12d;" horiz-adv-x="192" 
d="M148 506q-41 0 -61.5 31.5t-9.5 88.5h38q-7 -39 2.5 -61t34.5 -22q24 0 41.5 22t24.5 61h39q-10 -57 -39.5 -88.5t-69.5 -31.5zM160 444l-78 -444h-49l78 444h49z" />
    <glyph glyph-name="Iogonek" unicode="&#x12e;" horiz-adv-x="209" 
d="M204 614l-108 -614q-59 -83 -66 -102q-5 -12 -5 -24q0 -19 19 -19q17 0 40 14l-7 -36q-23 -15 -45 -15t-35.5 12.5t-13.5 35.5q0 9 1.5 17t6 18t7.5 16.5t11.5 19t12.5 18.5t16 22t17 23h-10l108 614h51z" />
    <glyph glyph-name="iogonek" unicode="&#x12f;" horiz-adv-x="192" 
d="M193 579q0 -14 -10 -24t-24 -10t-24 10t-10 24t10 24t24 10t24 -10t10 -24zM33 0l78 444h49l-78 -444q-59 -83 -66 -102q-5 -12 -5 -24q0 -19 19 -19q17 0 40 14l-6 -36q-25 -15 -46 -15q-48 0 -48 48q0 12 2.5 23t12 26.5t14 22.5t21.5 31t22 31h-9z" />
    <glyph glyph-name="Idotaccent" unicode="&#x130;" horiz-adv-x="209" 
d="M204 614l-108 -614h-51l108 614h51zM230 714q0 -14 -10 -24t-24 -10t-24 10t-10 24t10 24t24 10t24 -10t10 -24z" />
    <glyph glyph-name="dotlessi" unicode="&#x131;" horiz-adv-x="192" 
d="M160 444l-78 -444h-49l78 444h49z" />
    <glyph glyph-name="IJ" unicode="&#x132;" horiz-adv-x="686" 
d="M204 614l-108 -614h-51l108 614h51zM228 185h52q-1 -10 -1 -14q0 -59 34 -95.5t93 -36.5q133 0 160 159l74 416h51l-74 -420q-18 -99 -73.5 -151t-137.5 -52q-80 0 -129.5 48t-49.5 127z" />
    <glyph glyph-name="ij" unicode="&#x133;" horiz-adv-x="384" 
d="M160 444l-78 -444h-49l78 444h49zM193 579q0 -14 -10 -24t-24 -10t-24 10t-10 24t10 24t24 10t24 -10t10 -24zM106 -173l8 45q10 -7 26 -7q31 0 48.5 17t25.5 59l89 503h49l-89 -508q-21 -115 -123 -115q-20 0 -34 6zM385 579q0 -14 -10 -24t-24 -10t-24 10t-10 24t10 24
t24 10t24 -10t10 -24z" />
    <glyph glyph-name="Jcircumflex" unicode="&#x134;" horiz-adv-x="477" 
d="M19 185h52q-1 -10 -1 -14q0 -59 34 -95.5t93 -36.5q133 0 160 159l74 416h51l-74 -420q-18 -99 -73.5 -151t-137.5 -52q-80 0 -129.5 48t-49.5 127zM502 786l71 -119h-44l-53 84l-81 -84h-50l113 119h44z" />
    <glyph glyph-name="jcircumflex" unicode="&#x135;" horiz-adv-x="192" 
d="M191 644l49 -131h-42l-34 94l-67 -94h-46l96 131h44zM-86 -173l8 45q10 -7 26 -7q31 0 48.5 17t25.5 59l89 503h49l-89 -508q-21 -115 -123 -115q-20 0 -34 6z" />
    <glyph glyph-name="Kcommaaccent" unicode="&#x136;" horiz-adv-x="542" 
d="M164 -183l48 67q-26 5 -26 33q0 16 10.5 26t25.5 10t25.5 -10.5t10.5 -26.5q0 -18 -17 -41l-41 -58h-36zM204 614l-57 -320l375 320h68l-330 -281l232 -333h-59l-212 301l-86 -72l-39 -229h-51l108 614h51z" />
    <glyph glyph-name="kcommaaccent" unicode="&#x137;" horiz-adv-x="442" 
d="M112 -183l48 67q-26 5 -26 33q0 16 10.5 26t25.5 10t25.5 -10.5t10.5 -26.5q0 -18 -17 -41l-41 -58h-36zM334 0l-158 223l-63 -50l-31 -173h-49l114 650h49l-74 -419l271 213h68l-247 -193l176 -251h-56z" />
    <glyph glyph-name="kgreenlandic" unicode="&#x138;" horiz-adv-x="445" 
d="M334 0l-158 223l-63 -50l-31 -173h-49l78 444h49l-38 -213l271 213h68l-247 -193l176 -251h-56z" />
    <glyph glyph-name="Lacute" unicode="&#x139;" horiz-adv-x="503" 
d="M220 665h-53l103 117h59zM45 0l108 614h51l-100 -567h333l-8 -47h-384z" />
    <glyph glyph-name="lacute" unicode="&#x13a;" horiz-adv-x="192" 
d="M206 684h-53l103 117h59zM196 650l-114 -650h-49l114 650h49z" />
    <glyph glyph-name="Lcommaaccent" unicode="&#x13b;" horiz-adv-x="503" 
d="M172 -183l48 67q-26 5 -26 33q0 16 10.5 26t25.5 10t25.5 -10.5t10.5 -26.5q0 -18 -17 -41l-41 -58h-36zM45 0l108 614h51l-100 -567h333l-8 -47h-384z" />
    <glyph glyph-name="lcommaaccent" unicode="&#x13c;" horiz-adv-x="192" 
d="M-15 -183l48 67q-26 5 -26 33q0 16 10.5 26t25.5 10t25.5 -10.5t10.5 -26.5q0 -18 -17 -41l-41 -58h-36zM196 650l-114 -650h-49l114 650h49z" />
    <glyph glyph-name="Lcaron" unicode="&#x13d;" horiz-adv-x="503" 
d="M389 454h-42l78 160h43zM45 0l108 614h51l-100 -567h333l-8 -47h-384z" />
    <glyph glyph-name="lcaron" unicode="&#x13e;" horiz-adv-x="192" 
d="M258 490h-42l78 160h43zM196 650l-114 -650h-49l114 650h49z" />
    <glyph glyph-name="Ldot" unicode="&#x13f;" horiz-adv-x="503" 
d="M45 0l108 614h51l-100 -567h333l-8 -47h-384zM418 308q0 -14 -10 -24t-24 -10t-24 10t-10 24t10 24t24 10t24 -10t10 -24z" />
    <glyph glyph-name="ldot" unicode="&#x140;" horiz-adv-x="294" 
d="M196 650l-114 -650h-49l114 650h49zM298 325q0 -14 -10 -24t-24 -10t-24 10t-10 24t10 24t24 10t24 -10t10 -24z" />
    <glyph glyph-name="Lslash" unicode="&#x141;" horiz-adv-x="515" 
d="M41 246l9 49l64 24l52 295h51l-49 -277l153 58l-9 -49l-153 -58l-42 -241h333l-8 -47h-384l47 270z" />
    <glyph glyph-name="lslash" unicode="&#x142;" horiz-adv-x="231" 
d="M215 650l-43 -242l74 45l-8 -48l-74 -45l-63 -360h-49l58 333l-66 -40l8 48l67 41l47 268h49z" />
    <glyph glyph-name="Nacute" unicode="&#x143;" horiz-adv-x="616" 
d="M413 665h-53l103 117h59zM611 614l-108 -614h-34l-281 540l-94 -540h-49l108 614h48l269 -519l92 519h49z" />
    <glyph glyph-name="nacute" unicode="&#x144;" horiz-adv-x="483" 
d="M318 520h-50l106 130h53zM33 0l78 444h49l-12 -72q64 81 155 81q62 0 96 -34t34 -91q0 -16 -3 -34l-51 -294h-49l49 287q3 17 3 31q0 41 -22.5 65t-68.5 24q-47 0 -88.5 -27.5t-65.5 -68.5l-55 -311h-49z" />
    <glyph glyph-name="Ncommaaccent" unicode="&#x145;" horiz-adv-x="616" 
d="M201 -183l48 67q-26 5 -26 33q0 16 10.5 26t25.5 10t25.5 -10.5t10.5 -26.5q0 -18 -17 -41l-41 -58h-36zM611 614l-108 -614h-34l-281 540l-94 -540h-49l108 614h48l269 -519l92 519h49z" />
    <glyph glyph-name="ncommaaccent" unicode="&#x146;" horiz-adv-x="483" 
d="M132 -183l48 67q-26 5 -26 33q0 16 10.5 26t25.5 10t25.5 -10.5t10.5 -26.5q0 -18 -17 -41l-41 -58h-36zM33 0l78 444h49l-12 -72q64 81 155 81q62 0 96 -34t34 -91q0 -16 -3 -34l-51 -294h-49l49 287q3 17 3 31q0 41 -22.5 65t-68.5 24q-47 0 -88.5 -27.5t-65.5 -68.5
l-55 -311h-49z" />
    <glyph glyph-name="Ncaron" unicode="&#x147;" horiz-adv-x="616" 
d="M369 660l-71 119h44l53 -83l81 83h50l-113 -119h-44zM611 614l-108 -614h-34l-281 540l-94 -540h-49l108 614h48l269 -519l92 519h49z" />
    <glyph glyph-name="ncaron" unicode="&#x148;" horiz-adv-x="483" 
d="M275 515l-69 130h43l51 -96l86 96h48l-115 -130h-44zM33 0l78 444h49l-12 -72q64 81 155 81q62 0 96 -34t34 -91q0 -16 -3 -34l-51 -294h-49l49 287q3 17 3 31q0 41 -22.5 65t-68.5 24q-47 0 -88.5 -27.5t-65.5 -68.5l-55 -311h-49z" />
    <glyph glyph-name="Eng" unicode="&#x14a;" horiz-adv-x="616" 
d="M457 23l-269 517l-94 -540h-49l108 614h48l269 -519l92 519h49l-106 -600q-18 -104 -64 -150.5t-125 -46.5q-68 0 -113 39l9 51q46 -42 106 -42q62 0 93 36.5t46 121.5z" />
    <glyph glyph-name="eng" unicode="&#x14b;" horiz-adv-x="483" 
d="M211 -173l7 45q12 -7 26 -7q32 0 49.5 16.5t24.5 59.5l61 346q3 17 3 31q0 41 -22.5 65t-68.5 24q-47 0 -88.5 -27.5t-65.5 -68.5l-55 -311h-49l78 444h49l-12 -72q64 81 155 81q62 0 96 -34t34 -91q0 -16 -3 -34l-63 -358q-20 -115 -122 -115q-20 0 -34 6z" />
    <glyph glyph-name="Omacron" unicode="&#x14c;" horiz-adv-x="620" 
d="M288 670l7 42h202l-7 -42h-202zM290 39q114 0 185.5 93t71.5 221q0 97 -51 159.5t-136 62.5q-114 0 -185 -93t-71 -221q0 -97 50.5 -159.5t135.5 -62.5zM290 -9q-105 0 -171.5 74.5t-66.5 195.5q0 144 86.5 253t221.5 109q105 0 172 -74.5t67 -195.5q0 -92 -37 -174
t-109 -135t-163 -53z" />
    <glyph glyph-name="omacron" unicode="&#x14d;" horiz-adv-x="471" 
d="M189 537l8 41h201l-7 -41h-202zM211 35q74 0 123 63.5t49 164.5q0 66 -33 106t-90 40q-74 0 -123 -63.5t-49 -164.5q0 -66 33 -106t90 -40zM211 -9q-80 0 -126.5 52t-46.5 138q0 118 64 195t158 77q80 0 126.5 -52t46.5 -138q0 -118 -64 -195t-158 -77z" />
    <glyph glyph-name="Obreve" unicode="&#x14e;" horiz-adv-x="620" 
d="M391 664q-44 0 -69.5 31.5t-15.5 85.5h40q-7 -37 6.5 -58t42.5 -21q28 0 49 21t28 58h39q-10 -56 -42 -86.5t-78 -30.5zM290 39q114 0 185.5 93t71.5 221q0 97 -51 159.5t-136 62.5q-114 0 -185 -93t-71 -221q0 -97 50.5 -159.5t135.5 -62.5zM290 -9q-105 0 -171.5 74.5
t-66.5 195.5q0 144 86.5 253t221.5 109q105 0 172 -74.5t67 -195.5q0 -92 -37 -174t-109 -135t-163 -53z" />
    <glyph glyph-name="obreve" unicode="&#x14f;" horiz-adv-x="471" 
d="M211 35q74 0 123 63.5t49 164.5q0 66 -33 106t-90 40q-74 0 -123 -63.5t-49 -164.5q0 -66 33 -106t90 -40zM211 -9q-80 0 -126.5 52t-46.5 138q0 118 64 195t158 77q80 0 126.5 -52t46.5 -138q0 -118 -64 -195t-158 -77zM287 506q-44 0 -69 32t-15 88h40q-7 -38 6 -60.5
t41 -22.5q29 0 49.5 22t27.5 61h40q-11 -58 -43 -89t-77 -31z" />
    <glyph glyph-name="Ohungarumlaut" unicode="&#x150;" horiz-adv-x="620" 
d="M290 39q114 0 185.5 93t71.5 221q0 97 -51 159.5t-136 62.5q-114 0 -185 -93t-71 -221q0 -97 50.5 -159.5t135.5 -62.5zM290 -9q-105 0 -171.5 74.5t-66.5 195.5q0 144 86.5 253t221.5 109q105 0 172 -74.5t67 -195.5q0 -92 -37 -174t-109 -135t-163 -53zM350 665h-47
l94 117h48zM464 665h-48l95 117h48z" />
    <glyph glyph-name="ohungarumlaut" unicode="&#x151;" horiz-adv-x="471" 
d="M246 520h-46l96 130h47zM357 520h-46l97 130h46zM211 35q74 0 123 63.5t49 164.5q0 66 -33 106t-90 40q-74 0 -123 -63.5t-49 -164.5q0 -66 33 -106t90 -40zM211 -9q-80 0 -126.5 52t-46.5 138q0 118 64 195t158 77q80 0 126.5 -52t46.5 -138q0 -118 -64 -195t-158 -77z
" />
    <glyph glyph-name="OE" unicode="&#x152;" horiz-adv-x="839" 
d="M857 614l-9 -47h-320l-40 -228h290l-8 -46h-290l-43 -246h320l-8 -47h-446q-119 0 -185 68.5t-66 186.5q0 157 101.5 258t252.5 101h451zM104 255q0 -97 53 -152.5t152 -55.5h78l91 520h-80q-127 0 -210.5 -87.5t-83.5 -224.5z" />
    <glyph glyph-name="oe" unicode="&#x153;" horiz-adv-x="791" 
d="M686 129h50q-21 -63 -71 -100.5t-117 -37.5q-59 0 -100.5 32t-56.5 87q-29 -55 -76.5 -87t-103.5 -32q-80 0 -126.5 52t-46.5 138q0 118 64 195t158 77q58 0 99 -32.5t58 -87.5q29 54 76 87t107 33q77 0 117.5 -47t40.5 -128q0 -29 -6 -60h-327q-1 -10 -1 -34
q0 -71 33.5 -110t91.5 -39q48 0 84.5 25t52.5 69zM211 35q74 0 123 63.5t49 164.5q0 66 -33 106t-90 40q-74 0 -123 -63.5t-49 -164.5q0 -66 33 -106t90 -40zM599 409q-64 0 -106.5 -42.5t-59.5 -109.5h275q2 18 2 25q0 55 -27.5 91t-83.5 36z" />
    <glyph glyph-name="Racute" unicode="&#x154;" horiz-adv-x="545" 
d="M293 271h-150l-47 -271h-51l108 614h208q81 0 126.5 -38t45.5 -109q0 -83 -51.5 -134t-136.5 -60l137 -273h-54zM195 568l-44 -252h164q78 0 122.5 39.5t44.5 110.5q0 49 -33.5 75.5t-95.5 26.5h-158zM375 665h-53l103 117h59z" />
    <glyph glyph-name="racute" unicode="&#x155;" horiz-adv-x="301" 
d="M249 520h-50l106 130h53zM319 447l-8 -49q-18 8 -40 8q-40 0 -75.5 -26t-58.5 -70l-55 -310h-49l78 444h49l-12 -71q22 35 58 57.5t76 22.5q21 0 37 -6z" />
    <glyph glyph-name="Rcommaaccent" unicode="&#x156;" horiz-adv-x="545" 
d="M293 271h-150l-47 -271h-51l108 614h208q81 0 126.5 -38t45.5 -109q0 -83 -51.5 -134t-136.5 -60l137 -273h-54zM195 568l-44 -252h164q78 0 122.5 39.5t44.5 110.5q0 49 -33.5 75.5t-95.5 26.5h-158zM162 -183l48 67q-26 5 -26 33q0 16 10.5 26t25.5 10t25.5 -10.5
t10.5 -26.5q0 -18 -17 -41l-41 -58h-36z" />
    <glyph glyph-name="rcommaaccent" unicode="&#x157;" horiz-adv-x="301" 
d="M-14 -183l48 67q-26 5 -26 33q0 16 10.5 26t25.5 10t25.5 -10.5t10.5 -26.5q0 -18 -17 -41l-41 -58h-36zM319 447l-8 -49q-18 8 -40 8q-40 0 -75.5 -26t-58.5 -70l-55 -310h-49l78 444h49l-12 -71q22 35 58 57.5t76 22.5q21 0 37 -6z" />
    <glyph glyph-name="Rcaron" unicode="&#x158;" horiz-adv-x="545" 
d="M293 271h-150l-47 -271h-51l108 614h208q81 0 126.5 -38t45.5 -109q0 -83 -51.5 -134t-136.5 -60l137 -273h-54zM195 568l-44 -252h164q78 0 122.5 39.5t44.5 110.5q0 49 -33.5 75.5t-95.5 26.5h-158zM330 660l-71 119h44l53 -83l81 83h50l-113 -119h-44z" />
    <glyph glyph-name="rcaron" unicode="&#x159;" horiz-adv-x="301" 
d="M206 515l-69 130h43l51 -96l86 96h48l-115 -130h-44zM319 447l-8 -49q-18 8 -40 8q-40 0 -75.5 -26t-58.5 -70l-55 -310h-49l78 444h49l-12 -71q22 35 58 57.5t76 22.5q21 0 37 -6z" />
    <glyph glyph-name="Sacute" unicode="&#x15a;" horiz-adv-x="499" 
d="M494 460h-50q-8 53 -48 85t-107 32t-112.5 -35t-45.5 -97q0 -36 23.5 -57t71.5 -36l104 -33q61 -20 89.5 -52.5t28.5 -83.5q0 -87 -62.5 -139.5t-153.5 -52.5q-89 0 -148.5 44.5t-66.5 123.5h51q8 -60 53 -91t111 -31q73 0 120 38t47 105q0 66 -89 94l-110 35
q-58 17 -88 49t-30 84q0 81 59.5 131t147.5 50q90 0 143.5 -45t61.5 -118zM340 665h-53l103 117h59z" />
    <glyph glyph-name="sacute" unicode="&#x15b;" horiz-adv-x="398" 
d="M273 520h-50l106 130h53zM14 116h49q7 -40 38 -61t80 -21q48 0 81 22.5t33 67.5q0 46 -69 71l-75 25q-44 15 -66.5 37.5t-22.5 63.5q0 60 46 96t111 36q70 0 110 -33t46 -89h-48q-16 79 -108 79q-45 0 -77 -22.5t-32 -63.5q0 -25 16 -38.5t52 -25.5l71 -24
q94 -30 94 -108q0 -63 -46.5 -100t-115.5 -37q-72 0 -117.5 34t-49.5 91z" />
    <glyph glyph-name="Scircumflex" unicode="&#x15c;" horiz-adv-x="499" 
d="M494 460h-50q-8 53 -48 85t-107 32t-112.5 -35t-45.5 -97q0 -36 23.5 -57t71.5 -36l104 -33q61 -20 89.5 -52.5t28.5 -83.5q0 -87 -62.5 -139.5t-153.5 -52.5q-89 0 -148.5 44.5t-66.5 123.5h51q8 -60 53 -91t111 -31q73 0 120 38t47 105q0 66 -89 94l-110 35
q-58 17 -88 49t-30 84q0 81 59.5 131t147.5 50q90 0 143.5 -45t61.5 -118zM358 786l71 -119h-44l-53 84l-81 -84h-50l113 119h44z" />
    <glyph glyph-name="scircumflex" unicode="&#x15d;" horiz-adv-x="398" 
d="M291 644l69 -131h-43l-51 97l-86 -97h-48l115 131h44zM14 116h49q7 -40 38 -61t80 -21q48 0 81 22.5t33 67.5q0 46 -69 71l-75 25q-44 15 -66.5 37.5t-22.5 63.5q0 60 46 96t111 36q70 0 110 -33t46 -89h-48q-16 79 -108 79q-45 0 -77 -22.5t-32 -63.5q0 -25 16 -38.5
t52 -25.5l71 -24q94 -30 94 -108q0 -63 -46.5 -100t-115.5 -37q-72 0 -117.5 34t-49.5 91z" />
    <glyph glyph-name="Scedilla" unicode="&#x15e;" horiz-adv-x="499" 
d="M494 460h-50q-8 53 -48 85t-107 32t-112.5 -35t-45.5 -97q0 -36 23.5 -57t71.5 -36l104 -33q61 -20 89.5 -52.5t28.5 -83.5q0 -87 -62.5 -139.5t-153.5 -52.5q-89 0 -148.5 44.5t-66.5 123.5h51q8 -60 53 -91t111 -31q73 0 120 38t47 105q0 66 -89 94l-110 35
q-58 17 -88 49t-30 84q0 81 59.5 131t147.5 50q90 0 143.5 -45t61.5 -118zM138 -175h-49l82 127h50z" />
    <glyph glyph-name="scedilla" unicode="&#x15f;" horiz-adv-x="398" 
d="M14 116h49q7 -40 38 -61t80 -21q48 0 81 22.5t33 67.5q0 46 -69 71l-75 25q-44 15 -66.5 37.5t-22.5 63.5q0 60 46 96t111 36q70 0 110 -33t46 -89h-48q-16 79 -108 79q-45 0 -77 -22.5t-32 -63.5q0 -25 16 -38.5t52 -25.5l71 -24q94 -30 94 -108q0 -63 -46.5 -100
t-115.5 -37q-72 0 -117.5 34t-49.5 91zM97 -175h-49l82 127h50z" />
    <glyph glyph-name="Scaron" unicode="&#x160;" horiz-adv-x="499" 
d="M296 660l-71 119h44l53 -83l81 83h50l-113 -119h-44zM494 460h-50q-8 53 -48 85t-107 32t-112.5 -35t-45.5 -97q0 -36 23.5 -57t71.5 -36l104 -33q61 -20 89.5 -52.5t28.5 -83.5q0 -87 -62.5 -139.5t-153.5 -52.5q-89 0 -148.5 44.5t-66.5 123.5h51q8 -60 53 -91t111 -31
q73 0 120 38t47 105q0 66 -89 94l-110 35q-58 17 -88 49t-30 84q0 81 59.5 131t147.5 50q90 0 143.5 -45t61.5 -118z" />
    <glyph glyph-name="scaron" unicode="&#x161;" horiz-adv-x="398" 
d="M230 515l-69 130h43l51 -96l86 96h48l-115 -130h-44zM14 116h49q7 -40 38 -61t80 -21q48 0 81 22.5t33 67.5q0 46 -69 71l-75 25q-44 15 -66.5 37.5t-22.5 63.5q0 60 46 96t111 36q70 0 110 -33t46 -89h-48q-16 79 -108 79q-45 0 -77 -22.5t-32 -63.5q0 -25 16 -38.5
t52 -25.5l71 -24q94 -30 94 -108q0 -63 -46.5 -100t-115.5 -37q-72 0 -117.5 34t-49.5 91z" />
    <glyph glyph-name="Tcedilla" unicode="&#x162;" horiz-adv-x="562" 
d="M170 -183l48 67q-26 5 -26 33q0 16 10.5 26t25.5 10t25.5 -10.5t10.5 -26.5q0 -18 -17 -41l-41 -58h-36zM92 567l8 47h501l-9 -47h-225l-99 -567h-51l99 567h-224z" />
    <glyph glyph-name="tcedilla" unicode="&#x163;" horiz-adv-x="297" 
d="M65 -183l48 67q-26 5 -26 33q0 16 10.5 26t25.5 10t25.5 -10.5t10.5 -26.5q0 -18 -17 -41l-41 -58h-36zM70 107l54 294h-75l7 43h77l20 114h49l-20 -114h112l-7 -43h-114l-52 -288q0 -3 -1 -9.5t-1.5 -11t-0.5 -8.5q0 -48 53 -48q32 0 64 17l-8 -47q-32 -15 -68 -15
q-43 0 -67.5 21t-24.5 62q0 10 3 33z" />
    <glyph glyph-name="Tcaron" unicode="&#x164;" horiz-adv-x="562" 
d="M339 660l-71 119h44l53 -83l81 83h50l-113 -119h-44zM92 567l8 47h501l-9 -47h-225l-99 -567h-51l99 567h-224z" />
    <glyph glyph-name="tcaron" unicode="&#x165;" horiz-adv-x="297" 
d="M284 500h-42l78 160h43zM70 107l54 294h-75l7 43h77l20 114h49l-20 -114h112l-7 -43h-114l-52 -288q0 -3 -1 -9.5t-1.5 -11t-0.5 -8.5q0 -48 53 -48q32 0 64 17l-8 -47q-32 -15 -68 -15q-43 0 -67.5 21t-24.5 62q0 10 3 33z" />
    <glyph glyph-name="Tbar" unicode="&#x166;" horiz-adv-x="562" 
d="M92 567l8 47h501l-9 -47h-225l-40 -227h119l-8 -45h-119l-51 -295h-51l51 295h-115l7 45h116l40 227h-224z" />
    <glyph glyph-name="tbar" unicode="&#x167;" horiz-adv-x="297" 
d="M29 241l8 41h65l22 119h-75l7 43h77l20 114h49l-20 -114h112l-7 -43h-114l-22 -119h94l-8 -41h-93l-23 -128q0 -3 -1 -9.5t-1.5 -11t-0.5 -8.5q0 -48 53 -48q32 0 64 17l-8 -47q-32 -15 -68 -15q-43 0 -67.5 21t-24.5 62q0 10 3 33l24 134h-65z" />
    <glyph glyph-name="Utilde" unicode="&#x168;" horiz-adv-x="605" 
d="M486 770h36q-9 -49 -31.5 -77t-54.5 -28q-20 0 -37 16.5t-31 32.5t-28 16q-37 0 -48 -62h-36q8 48 31 76.5t55 28.5q26 0 53 -32.5t43 -32.5q37 0 48 62zM279 -9q-94 0 -152.5 51.5t-58.5 145.5q0 20 5 58l65 368h51l-64 -365q-5 -32 -5 -54q0 -77 43.5 -117t115.5 -40
q177 0 214 211l64 365h51l-65 -372q-22 -124 -91.5 -187.5t-172.5 -63.5z" />
    <glyph glyph-name="utilde" unicode="&#x169;" horiz-adv-x="481" 
d="M447 444l-78 -444h-49l12 71q-65 -80 -155 -80q-61 0 -94.5 33.5t-33.5 90.5q0 17 3 35l51 294h50l-51 -288q-3 -16 -3 -33q0 -87 89 -87q47 0 89 28t66 69l55 311h49zM394 625h36q-9 -49 -31.5 -77t-54.5 -28q-20 0 -37 16t-31 32.5t-28 16.5q-37 0 -48 -62h-36
q8 48 31 76.5t55 28.5q26 0 53 -32.5t43 -32.5q36 0 48 62z" />
    <glyph glyph-name="Umacron" unicode="&#x16a;" horiz-adv-x="605" 
d="M280 670l7 42h202l-7 -42h-202zM279 -9q-94 0 -152.5 51.5t-58.5 145.5q0 20 5 58l65 368h51l-64 -365q-5 -32 -5 -54q0 -77 43.5 -117t115.5 -40q177 0 214 211l64 365h51l-65 -372q-22 -124 -91.5 -187.5t-172.5 -63.5z" />
    <glyph glyph-name="umacron" unicode="&#x16b;" horiz-adv-x="481" 
d="M447 444l-78 -444h-49l12 71q-65 -80 -155 -80q-61 0 -94.5 33.5t-33.5 90.5q0 17 3 35l51 294h50l-51 -288q-3 -16 -3 -33q0 -87 89 -87q47 0 89 28t66 69l55 311h49zM190 537l8 41h201l-7 -41h-202z" />
    <glyph glyph-name="Ubreve" unicode="&#x16c;" horiz-adv-x="605" 
d="M383 664q-44 0 -69.5 31.5t-15.5 85.5h40q-7 -37 6.5 -58t42.5 -21q28 0 49 21t28 58h39q-10 -56 -42 -86.5t-78 -30.5zM279 -9q-94 0 -152.5 51.5t-58.5 145.5q0 20 5 58l65 368h51l-64 -365q-5 -32 -5 -54q0 -77 43.5 -117t115.5 -40q177 0 214 211l64 365h51l-65 -372
q-22 -124 -91.5 -187.5t-172.5 -63.5z" />
    <glyph glyph-name="ubreve" unicode="&#x16d;" horiz-adv-x="481" 
d="M447 444l-78 -444h-49l12 71q-65 -80 -155 -80q-61 0 -94.5 33.5t-33.5 90.5q0 17 3 35l51 294h50l-51 -288q-3 -16 -3 -33q0 -87 89 -87q47 0 89 28t66 69l55 311h49zM287 506q-44 0 -69 32t-15 88h40q-7 -38 6 -60.5t41 -22.5q29 0 49.5 22t27.5 61h40q-11 -58 -43 -89
t-77 -31z" />
    <glyph glyph-name="Uring" unicode="&#x16e;" horiz-adv-x="605" 
d="M279 -9q-94 0 -152.5 51.5t-58.5 145.5q0 20 5 58l65 368h51l-64 -365q-5 -32 -5 -54q0 -77 43.5 -117t115.5 -40q177 0 214 211l64 365h51l-65 -372q-22 -124 -91.5 -187.5t-172.5 -63.5zM384 679q21 0 36.5 14.5t15.5 36.5q0 20 -14 34t-34 14t-35.5 -15t-15.5 -37
q0 -20 13.5 -33.5t33.5 -13.5zM383 648q-33 0 -55.5 22t-22.5 54q0 35 24.5 60t60.5 25q33 0 55.5 -22t22.5 -55q0 -34 -24.5 -59t-60.5 -25z" />
    <glyph glyph-name="uring" unicode="&#x16f;" horiz-adv-x="481" 
d="M297 531q21 0 36 14.5t15 36.5q0 20 -13.5 33.5t-33.5 13.5q-21 0 -36 -14.5t-15 -36.5q0 -20 13.5 -33.5t33.5 -13.5zM296 499q-34 0 -56 22.5t-22 54.5q0 34 24.5 59.5t59.5 25.5q34 0 56 -22.5t22 -54.5q0 -34 -24.5 -59.5t-59.5 -25.5zM447 444l-78 -444h-49l12 71
q-65 -80 -155 -80q-61 0 -94.5 33.5t-33.5 90.5q0 17 3 35l51 294h50l-51 -288q-3 -16 -3 -33q0 -87 89 -87q47 0 89 28t66 69l55 311h49z" />
    <glyph glyph-name="Uhungarumlaut" unicode="&#x170;" horiz-adv-x="605" 
d="M279 -9q-94 0 -152.5 51.5t-58.5 145.5q0 20 5 58l65 368h51l-64 -365q-5 -32 -5 -54q0 -77 43.5 -117t115.5 -40q177 0 214 211l64 365h51l-65 -372q-22 -124 -91.5 -187.5t-172.5 -63.5zM335 665h-47l94 117h48zM449 665h-48l95 117h48z" />
    <glyph glyph-name="uhungarumlaut" unicode="&#x171;" horiz-adv-x="481" 
d="M447 444l-78 -444h-49l12 71q-65 -80 -155 -80q-61 0 -94.5 33.5t-33.5 90.5q0 17 3 35l51 294h50l-51 -288q-3 -16 -3 -33q0 -87 89 -87q47 0 89 28t66 69l55 311h49zM248 520h-46l96 130h47zM359 520h-46l97 130h46z" />
    <glyph glyph-name="Uogonek" unicode="&#x172;" horiz-adv-x="605" 
d="M279 -9q-94 0 -152.5 51.5t-58.5 145.5q0 20 5 58l65 368h51l-64 -365q-5 -32 -5 -54q0 -77 43.5 -117t115.5 -40q177 0 214 211l64 365h51l-65 -372q-15 -80 -46.5 -128.5t-89.5 -96.5q-44 -36 -69.5 -74.5t-25.5 -68.5q0 -19 19 -19q17 0 40 14l-7 -36q-23 -15 -45 -15
t-35.5 12.5t-13.5 35.5q0 50 70 133q-30 -8 -61 -8z" />
    <glyph glyph-name="uogonek" unicode="&#x173;" horiz-adv-x="481" 
d="M320 0l12 71q-65 -80 -155 -80q-61 0 -94.5 33.5t-33.5 90.5q0 17 3 35l51 294h50l-51 -288q-3 -16 -3 -33q0 -87 89 -87q47 0 89 28t66 69l55 311h49l-78 -444q-59 -83 -66 -102q-5 -12 -5 -24q0 -19 19 -19q17 0 40 14l-6 -36q-25 -15 -46 -15q-48 0 -48 48
q0 12 2.5 23t12 26.5t14 22.5t21.5 31t22 31h-9z" />
    <glyph glyph-name="Wcircumflex" unicode="&#x174;" horiz-adv-x="760" 
d="M433 614h42l41 -528l245 528h51l-287 -614h-46l-43 523l-245 -523h-46l-48 614h49l40 -528zM503 786l71 -119h-44l-53 84l-81 -84h-50l113 119h44z" />
    <glyph glyph-name="wcircumflex" unicode="&#x175;" horiz-adv-x="604" 
d="M393 644l69 -131h-43l-51 97l-86 -97h-48l115 131h44zM360 444l30 -366l185 366h50l-227 -444h-42l-32 367l-183 -367h-43l-41 444h46l35 -366l182 366h40z" />
    <glyph glyph-name="Ycircumflex" unicode="&#x176;" horiz-adv-x="535" 
d="M286 309l247 305h57l-285 -352l-46 -262h-51l46 262l-162 352h54zM391 786l71 -119h-44l-53 84l-81 -84h-50l113 119h44z" />
    <glyph glyph-name="ycircumflex" unicode="&#x177;" horiz-adv-x="432" 
d="M84 -170h-51l108 180l-84 434h50l70 -375l223 375h54zM301 644l69 -131h-43l-51 97l-86 -97h-48l115 131h44z" />
    <glyph glyph-name="Ydieresis" unicode="&#x178;" horiz-adv-x="535" 
d="M286 309l247 305h57l-285 -352l-46 -262h-51l46 262l-162 352h54zM265 715q0 14 9.5 23.5t23.5 9.5t23 -9.5t9 -23.5t-9.5 -23.5t-22.5 -9.5q-14 0 -23.5 9.5t-9.5 23.5zM390 715q0 14 9 23.5t23 9.5t23.5 -9.5t9.5 -23.5q0 -13 -9.5 -23t-23.5 -10q-13 0 -22.5 9.5
t-9.5 23.5z" />
    <glyph glyph-name="Zacute" unicode="&#x179;" horiz-adv-x="519" 
d="M456 47l-8 -47h-443l6 39l466 528h-367l9 47h433l-7 -39l-465 -528h376zM363 665h-53l103 117h59z" />
    <glyph glyph-name="zacute" unicode="&#x17a;" horiz-adv-x="415" 
d="M296 520h-50l106 130h53zM347 43l-7 -43h-336l6 35l335 366h-266l8 43h329l-6 -35l-336 -366h273z" />
    <glyph glyph-name="Zdotaccent" unicode="&#x17b;" horiz-adv-x="519" 
d="M382 714q0 -14 -10 -24t-24 -10t-24 10t-10 24t10 24t24 10t24 -10t10 -24zM456 47l-8 -47h-443l6 39l466 528h-367l9 47h433l-7 -39l-465 -528h376z" />
    <glyph glyph-name="zdotaccent" unicode="&#x17c;" horiz-adv-x="415" 
d="M347 43l-7 -43h-336l6 35l335 366h-266l8 43h329l-6 -35l-336 -366h273zM319 579q0 -14 -10 -24t-24 -10t-24 10t-10 24t10 24t24 10t24 -10t10 -24z" />
    <glyph glyph-name="Zcaron" unicode="&#x17d;" horiz-adv-x="519" 
d="M318 660l-71 119h44l53 -83l81 83h50l-113 -119h-44zM456 47l-8 -47h-443l6 39l466 528h-367l9 47h433l-7 -39l-465 -528h376z" />
    <glyph glyph-name="zcaron" unicode="&#x17e;" horiz-adv-x="415" 
d="M253 515l-69 130h43l51 -96l86 96h48l-115 -130h-44zM347 43l-7 -43h-336l6 35l335 366h-266l8 43h329l-6 -35l-336 -366h273z" />
    <glyph glyph-name="florin" unicode="&#x192;" horiz-adv-x="378" 
d="M77 295l8 42h86l48 157q18 61 55.5 95t88.5 34q35 0 62 -12l-6 -46q-28 14 -56 14q-69 0 -95 -89l-47 -153h95l-8 -42h-100l-103 -340q-38 -128 -136 -128q-35 0 -62 12l6 46q28 -14 56 -14q34 0 53 20.5t34 68.5l102 335h-81z" />
    <glyph glyph-name="Aringacute" unicode="&#x1fa;" horiz-adv-x="579" 
d="M350 614h48l124 -614h-50l-41 203h-270l-119 -203h-54zM363 548l-176 -300h235zM387 640q-33 0 -55.5 19.5t-22.5 47.5q0 30 25 52t60 22q33 0 55.5 -19.5t22.5 -47.5q0 -30 -24.5 -52t-60.5 -22zM389 670q21 0 36 12t15 31q0 16 -14 27t-34 11q-21 0 -36 -11.5
t-15 -30.5q0 -17 14 -28t34 -11zM437 809h-51l74 84h55z" />
    <glyph glyph-name="aringacute" unicode="&#x1fb;" horiz-adv-x="441" 
d="M295 509q21 0 36 11.5t15 31.5q0 17 -13.5 28t-33.5 11q-21 0 -36 -12t-15 -31q0 -17 13.5 -28t33.5 -11zM294 480q-33 0 -55.5 19t-22.5 47q0 30 24 52t60 22q34 0 56.5 -19t22.5 -47q0 -30 -24.5 -52t-60.5 -22zM344 648h-51l73 84h56zM388 300l-52 -300h-48l7 42
q-21 -21 -55 -35t-71 -14q-64 0 -105.5 35t-41.5 90q0 66 53 107t126 41q41 0 74.5 -15.5t49.5 -35.5l15 82q2 18 2 28q0 38 -23.5 61t-67.5 23q-85 0 -124 -76h-49q22 56 69.5 88t106.5 32q65 0 101 -34t36 -91q0 -13 -3 -28zM305 101l11 57q-8 28 -40 47t-75 19
q-51 0 -91 -27.5t-40 -77.5q0 -38 31 -61t75 -23q42 0 78 18.5t51 47.5z" />
    <glyph glyph-name="AEacute" unicode="&#x1fc;" horiz-adv-x="867" 
d="M481 614h404l-9 -47h-320l-40 -228h289l-8 -46h-289l-43 -246h320l-8 -47h-371l36 203h-234l-163 -203h-57zM507 573l-262 -325h205zM705 665h-53l103 117h59z" />
    <glyph glyph-name="aeacute" unicode="&#x1fd;" horiz-adv-x="736" 
d="M439 520h-50l106 130h53zM631 129h50q-21 -63 -71 -100.5t-117 -37.5q-59 0 -99 30t-56 83q-29 -48 -78 -79.5t-109 -31.5q-58 0 -93.5 32.5t-35.5 86.5q0 68 54 107t137 39h121q9 46 9 66q0 38 -23.5 61.5t-67.5 23.5q-85 0 -123 -76h-49q22 56 69 88t106 32
q51 0 83.5 -24.5t44.5 -66.5q64 91 162 91q78 0 118.5 -47t40.5 -128q0 -25 -7 -61h-326q-2 -22 -2 -36q0 -70 33 -108t92 -38q48 0 84.5 25t52.5 69zM313 138l14 79h-115q-62 0 -102.5 -24.5t-40.5 -78.5q0 -36 25 -57.5t64 -21.5q52 0 92 29t63 74zM544 409
q-63 0 -105.5 -42.5t-59.5 -108.5h275q1 8 1 25q0 55 -27 90.5t-84 35.5z" />
    <glyph glyph-name="Oslashacute" unicode="&#x1fe;" horiz-adv-x="630" 
d="M49 7l63 73q-55 72 -55 181q0 144 86.5 253t221.5 109q99 0 162 -65l52 60l31 -24l-57 -66q51 -73 51 -175q0 -92 -37 -174t-109 -135t-163 -53q-92 0 -156 59l-58 -67zM109 261q0 -85 37 -142l349 402q-51 54 -130 54q-114 0 -185 -93t-71 -221zM295 39q114 0 185.5 93
t71.5 221q0 78 -33 136l-348 -402q50 -48 124 -48zM414 665h-53l103 117h59z" />
    <glyph glyph-name="oslashacute" unicode="&#x1ff;" horiz-adv-x="481" 
d="M30 -9l51 61q-38 50 -38 129q0 118 64 195t158 77q69 0 115 -41l49 58l28 -20l-54 -64q35 -49 35 -123q0 -118 -64 -195t-158 -77q-66 0 -111 36l-47 -57zM92 181q0 -55 21 -91l238 286q-33 33 -86 33q-74 0 -123.5 -63.5t-49.5 -164.5zM216 35q74 0 123.5 63.5
t49.5 164.5q0 49 -18 84l-236 -284q31 -28 81 -28zM315 520h-50l106 130h53z" />
    <glyph glyph-name="Scommaaccent" unicode="&#x218;" horiz-adv-x="499" 
d="M133 -183l48 67q-26 5 -26 33q0 16 10.5 26t25.5 10t25.5 -10.5t10.5 -26.5q0 -18 -17 -41l-41 -58h-36zM494 460h-50q-8 53 -48 85t-107 32t-112.5 -35t-45.5 -97q0 -36 23.5 -57t71.5 -36l104 -33q61 -20 89.5 -52.5t28.5 -83.5q0 -87 -62.5 -139.5t-153.5 -52.5
q-89 0 -148.5 44.5t-66.5 123.5h51q8 -60 53 -91t111 -31q73 0 120 38t47 105q0 66 -89 94l-110 35q-58 17 -88 49t-30 84q0 81 59.5 131t147.5 50q90 0 143.5 -45t61.5 -118z" />
    <glyph glyph-name="scommaaccent" unicode="&#x219;" horiz-adv-x="398" 
d="M87 -183l48 67q-26 5 -26 33q0 16 10.5 26t25.5 10t25.5 -10.5t10.5 -26.5q0 -18 -17 -41l-41 -58h-36zM14 116h49q7 -40 38 -61t80 -21q48 0 81 22.5t33 67.5q0 46 -69 71l-75 25q-44 15 -66.5 37.5t-22.5 63.5q0 60 46 96t111 36q70 0 110 -33t46 -89h-48
q-16 79 -108 79q-45 0 -77 -22.5t-32 -63.5q0 -25 16 -38.5t52 -25.5l71 -24q94 -30 94 -108q0 -63 -46.5 -100t-115.5 -37q-72 0 -117.5 34t-49.5 91z" />
    <glyph glyph-name="uni0237" unicode="&#x237;" horiz-adv-x="192" 
d="M-86 -173l8 45q10 -7 26 -7q31 0 48.5 17t25.5 59l89 503h49l-89 -508q-21 -115 -123 -115q-20 0 -34 6z" />
    <glyph glyph-name="circumflex" unicode="&#x2c6;" 
d="M295 644l69 -131h-43l-51 97l-86 -97h-48l115 131h44z" />
    <glyph glyph-name="caron" unicode="&#x2c7;" 
d="M205 515l-69 130h43l51 -96l86 96h48l-115 -130h-44z" />
    <glyph glyph-name="breve" unicode="&#x2d8;" 
d="M234 506q-44 0 -69 32t-15 88h40q-7 -38 6 -60.5t41 -22.5q29 0 49.5 22t27.5 61h40q-11 -58 -43 -89t-77 -31z" />
    <glyph glyph-name="dotaccent" unicode="&#x2d9;" 
d="M284 579q0 -14 -10 -24t-24 -10t-24 10t-10 24t10 24t24 10t24 -10t10 -24z" />
    <glyph glyph-name="ring" unicode="&#x2da;" 
d="M247 531q21 0 36 14.5t15 36.5q0 20 -13.5 33.5t-33.5 13.5q-21 0 -36 -14.5t-15 -36.5q0 -20 13.5 -33.5t33.5 -13.5zM246 499q-34 0 -56 22.5t-22 54.5q0 34 24.5 59.5t59.5 25.5q34 0 56 -22.5t22 -54.5q0 -34 -24.5 -59.5t-59.5 -25.5z" />
    <glyph glyph-name="ogonek" unicode="&#x2db;" 
d="M268 4h40q-61 -87 -69 -107q-4 -12 -4 -23q0 -19 19 -19q17 0 40 14l-7 -36q-23 -15 -45 -15t-35.5 12.5t-13.5 35.5q0 10 3 21t6.5 19.5t12.5 22.5t14 21.5t19 26t20 27.5z" />
    <glyph glyph-name="tilde" unicode="&#x2dc;" 
d="M347 625h36q-9 -49 -31.5 -77t-54.5 -28q-20 0 -37 16t-31 32.5t-28 16.5q-37 0 -48 -62h-36q8 48 31 76.5t55 28.5q26 0 53 -32.5t43 -32.5q36 0 48 62z" />
    <glyph glyph-name="hungarumlaut" unicode="&#x2dd;" 
d="M169 520h-46l96 130h47zM280 520h-46l97 130h46z" />
    <glyph glyph-name="Wgrave" unicode="&#x1e80;" horiz-adv-x="760" 
d="M486 665h-47l-67 117h52zM433 614h42l41 -528l245 528h51l-287 -614h-46l-43 523l-245 -523h-46l-48 614h49l40 -528z" />
    <glyph glyph-name="wgrave" unicode="&#x1e81;" horiz-adv-x="604" 
d="M360 444l30 -366l185 366h50l-227 -444h-42l-32 367l-183 -367h-43l-41 444h46l35 -366l182 366h40zM376 520h-44l-64 130h48z" />
    <glyph glyph-name="Wacute" unicode="&#x1e82;" horiz-adv-x="760" 
d="M486 665h-53l103 117h59zM433 614h42l41 -528l245 528h51l-287 -614h-46l-43 523l-245 -523h-46l-48 614h49l40 -528z" />
    <glyph glyph-name="wacute" unicode="&#x1e83;" horiz-adv-x="604" 
d="M375 520h-50l106 130h53zM360 444l30 -366l185 366h50l-227 -444h-42l-32 367l-183 -367h-43l-41 444h46l35 -366l182 366h40z" />
    <glyph glyph-name="Wdieresis" unicode="&#x1e84;" horiz-adv-x="760" 
d="M376 715q0 14 9.5 23.5t23.5 9.5t23 -9.5t9 -23.5t-9.5 -23.5t-22.5 -9.5q-14 0 -23.5 9.5t-9.5 23.5zM501 715q0 14 9 23.5t23 9.5t23.5 -9.5t9.5 -23.5q0 -13 -10 -23t-23 -10t-22.5 9.5t-9.5 23.5zM433 614h42l41 -528l245 528h51l-287 -614h-46l-43 523l-245 -523
h-46l-48 614h49l40 -528z" />
    <glyph glyph-name="wdieresis" unicode="&#x1e85;" horiz-adv-x="604" 
d="M268 571q0 14 9.5 23t23.5 9q13 0 22.5 -9.5t9.5 -22.5q0 -14 -9 -23.5t-23 -9.5t-23.5 9.5t-9.5 23.5zM393 571q0 13 9.5 22.5t22.5 9.5q14 0 23.5 -9.5t9.5 -22.5q0 -14 -9.5 -23.5t-23.5 -9.5t-23 9.5t-9 23.5zM360 444l30 -366l185 366h50l-227 -444h-42l-32 367
l-183 -367h-43l-41 444h46l35 -366l182 366h40z" />
    <glyph glyph-name="Ygrave" unicode="&#x1ef2;" horiz-adv-x="535" 
d="M286 309l247 305h57l-285 -352l-46 -262h-51l46 262l-162 352h54zM374 665h-47l-67 117h52z" />
    <glyph glyph-name="ygrave" unicode="&#x1ef3;" horiz-adv-x="432" 
d="M84 -170h-51l108 180l-84 434h50l70 -375l223 375h54zM284 520h-44l-64 130h48z" />
    <glyph glyph-name="endash" unicode="&#x2013;" horiz-adv-x="475" 
d="M43 239l7 41h395l-7 -41h-395z" />
    <glyph glyph-name="emdash" unicode="&#x2014;" horiz-adv-x="846" 
d="M43 239l7 41h766l-7 -41h-766z" />
    <glyph glyph-name="quoteleft" unicode="&#x2018;" horiz-adv-x="141" 
d="M192 614l-70 -98q27 -7 27 -35q0 -16 -11 -27t-27 -11t-26.5 11t-10.5 29t17 43l63 88h38z" />
    <glyph glyph-name="quoteright" unicode="&#x2019;" horiz-adv-x="141" 
d="M57 452l70 98q-27 7 -27 35q0 16 11 27t27 11t26.5 -11t10.5 -29t-17 -43l-63 -88h-38z" />
    <glyph glyph-name="quotesinglbase" unicode="&#x201a;" horiz-adv-x="126" 
d="M-31 -98l70 98q-27 7 -27 35q0 16 11 27t27 11t26.5 -11t10.5 -29t-17 -43l-63 -88h-38z" />
    <glyph glyph-name="quotedblleft" unicode="&#x201c;" horiz-adv-x="264" 
d="M192 614l-70 -98q27 -7 27 -35q0 -16 -11 -27t-27 -11t-26.5 11t-10.5 29t17 43l63 88h38zM315 614l-70 -98q27 -7 27 -35q0 -16 -11 -27t-27 -11t-26.5 11t-10.5 29t17 43l63 88h38z" />
    <glyph glyph-name="quotedblright" unicode="&#x201d;" horiz-adv-x="264" 
d="M57 452l70 98q-27 7 -27 35q0 16 11 27t27 11t26.5 -11t10.5 -29t-17 -43l-63 -88h-38zM180 452l70 98q-27 7 -27 35q0 16 11 27t27 11t26.5 -11t10.5 -29t-17 -43l-63 -88h-38z" />
    <glyph glyph-name="quotedblbase" unicode="&#x201e;" horiz-adv-x="264" 
d="M-31 -98l70 98q-27 7 -27 35q0 16 11 27t27 11t26.5 -11t10.5 -29t-17 -43l-63 -88h-38zM92 -98l70 98q-27 7 -27 35q0 16 11 27t27 11t26.5 -11t10.5 -29t-17 -43l-63 -88h-38z" />
    <glyph glyph-name="dagger" unicode="&#x2020;" horiz-adv-x="300" 
d="M83 519l7 39h99l16 92h40l-16 -92h99l-7 -39h-99l-35 -204h-41l36 204h-99z" />
    <glyph glyph-name="daggerdbl" unicode="&#x2021;" horiz-adv-x="304" 
d="M84 522l7 38h99l16 90h40l-16 -90h100l-7 -38h-100l-14 -79h100l-7 -38h-99l-16 -90h-40l16 90h-100l7 38h99l14 79h-99z" />
    <glyph glyph-name="bullet" unicode="&#x2022;" horiz-adv-x="332" 
d="M299 260q0 -56 -36.5 -92t-91.5 -36t-91.5 36t-36.5 92t36.5 92t91.5 36t91.5 -36t36.5 -92z" />
    <glyph glyph-name="ellipsis" unicode="&#x2026;" horiz-adv-x="462" 
d="M4 35q0 16 11 27.5t26 11.5q16 0 27 -11.5t11 -27.5t-11 -27t-27 -11q-15 0 -26 11t-11 27zM164 35q0 16 11 27.5t27 11.5t27 -11.5t11 -27.5t-11 -27t-27 -11t-27 11t-11 27zM325 35q0 16 11 27.5t27 11.5q15 0 26 -11.5t11 -27.5t-11 -27t-26 -11q-16 0 -27 11t-11 27z
" />
    <glyph glyph-name="perthousand" unicode="&#x2030;" horiz-adv-x="884" 
d="M196 623q52 0 87 -35.5t35 -86.5q0 -52 -37.5 -92t-92.5 -40q-52 0 -87.5 35t-35.5 86q0 52 38 92.5t93 40.5zM189 411q35 0 61 26t26 63q0 33 -24 56.5t-58 23.5q-35 0 -60.5 -26t-25.5 -63q0 -33 23.5 -56.5t57.5 -23.5zM43 0l495 614h47l-495 -614h-47zM433 -9
q-52 0 -87.5 35.5t-35.5 86.5q0 52 38 92t93 40q52 0 87 -35t35 -86q0 -53 -37.5 -93t-92.5 -40zM439 203q-35 0 -60.5 -26t-25.5 -63q0 -33 23.5 -56.5t57.5 -23.5q35 0 61 26t26 63q0 33 -24 56.5t-58 23.5zM718 -9q-52 0 -87 35.5t-35 86.5q0 52 38 92t93 40
q51 0 86.5 -35t35.5 -86q0 -53 -38 -93t-93 -40zM725 203q-35 0 -61 -26t-26 -63q0 -33 24 -56.5t58 -23.5q35 0 60.5 26t25.5 63q0 33 -23.5 56.5t-57.5 23.5z" />
    <glyph glyph-name="guilsinglleft" unicode="&#x2039;" horiz-adv-x="192" 
d="M146 86h-48l-67 136l115 136h54l-119 -140z" />
    <glyph glyph-name="guilsinglright" unicode="&#x203a;" horiz-adv-x="192" 
d="M57 358h48l67 -136l-115 -136h-54l119 140z" />
    <glyph glyph-name="fraction" unicode="&#x2044;" horiz-adv-x="204" 
d="M392 614l-525 -614h-47l524 614h48z" />
    <glyph glyph-name="Euro" unicode="&#x20ac;" horiz-adv-x="518" 
d="M47 343l7 41h54q31 105 98.5 172t159.5 67q74 0 119.5 -45.5t52.5 -121.5h-46q-8 56 -41 88.5t-86 32.5q-74 0 -127.5 -53.5t-79.5 -139.5h229l-15 -41h-225q-7 -37 -9 -77h208l-17 -41h-192q2 -88 41 -138t106 -50q108 0 156 121h49q-28 -78 -82.5 -122.5t-125.5 -44.5
q-85 0 -138.5 63t-55.5 171h-61l7 41h55q1 31 10 77h-51z" />
    <glyph glyph-name="uni2117" unicode="&#x2117;" horiz-adv-x="708" 
d="M688 307q0 -136 -92 -226t-223 -90q-132 0 -224 90t-92 226t92 226t224 90q131 0 223 -90t92 -226zM656 307q0 122 -82.5 203t-200.5 81q-119 0 -201.5 -81t-82.5 -203t82.5 -203t201.5 -81q118 0 200.5 81t82.5 203zM407 270h-95v-146h-46v369h141q57 0 89 -28.5
t32 -82.5t-32 -83t-89 -29zM483 382q0 32 -20 50.5t-58 18.5h-93v-138h93q38 0 58 18t20 51z" />
    <glyph glyph-name="trademark" unicode="&#x2122;" horiz-adv-x="574" 
d="M73 581l5 33h211l-6 -33h-85l-40 -221h-39l40 221h-86zM430 360h-28l-42 188l-34 -188h-37l45 254h45l46 -202l117 202h47l-45 -254h-38l33 188z" />
    <glyph glyph-name="uni2153" unicode="&#x2153;" horiz-adv-x="662" 
d="M461 151l6 35h23q30 0 50.5 17t20.5 47q0 21 -13.5 33.5t-37.5 12.5q-53 0 -73 -57h-45q12 43 45 69.5t76 26.5t67 -22t24 -59q0 -31 -20 -55.5t-48 -31.5q48 -13 48 -66q0 -44 -33.5 -75t-83.5 -31q-48 0 -76 25.5t-28 67.5v6h44v-2q0 -58 61 -58q32 0 52.5 19t20.5 49
q0 23 -15 36t-41 13h-24zM607 614l-524 -614h-48l525 614h47zM244 615l-59 -330h-42l49 279l-94 -44l8 45l111 50h27z" />
    <glyph glyph-name="uni2154" unicode="&#x2154;" horiz-adv-x="715" 
d="M515 151l6 35h23q30 0 50.5 17t20.5 47q0 21 -13.5 33.5t-37.5 12.5q-53 0 -73 -57h-45q12 43 45 69.5t76 26.5t66.5 -22t23.5 -59q0 -31 -19.5 -55.5t-47.5 -31.5q21 -6 34 -23.5t13 -42.5q0 -44 -33 -75t-83 -31q-48 0 -76 25.5t-28 67.5v6h44v-2q0 -58 61 -58
q31 0 52 19t21 49q0 23 -15.5 36t-41.5 13h-23zM63 314l138 126q21 18 33 30t23 30t11 34q0 46 -49 46q-28 0 -47.5 -18t-27.5 -48h-45q12 47 45 76.5t79 29.5q42 0 65.5 -21.5t23.5 -57.5q0 -24 -13.5 -48t-27 -37.5t-43.5 -40.5l-101 -92h152l-7 -38h-213zM661 614
l-525 -614h-47l524 614h48z" />
    <glyph glyph-name="uni215B" unicode="&#x215b;" horiz-adv-x="660" 
d="M607 614l-524 -614h-48l525 614h47zM244 615l-59 -330h-42l49 279l-94 -44l8 45l111 50h27zM399 87q0 -24 19 -40t47 -16q34 0 57 19t23 49q0 26 -19.5 41.5t-48.5 15.5q-33 0 -55.5 -19.5t-22.5 -49.5zM465 -5q-44 0 -76.5 23t-32.5 66q0 34 23 60t57 33q-40 20 -40 64
q0 40 31.5 67t77.5 27q41 0 69 -22t28 -59q0 -29 -19 -52.5t-47 -31.5q51 -22 51 -73q0 -46 -36.5 -74t-85.5 -28zM560 251q0 22 -16 35.5t-40 13.5q-29 0 -48 -17.5t-19 -43.5q0 -21 16.5 -34t39.5 -13q29 0 48 17t19 42z" />
    <glyph glyph-name="uni215C" unicode="&#x215c;" horiz-adv-x="703" 
d="M507 -5q-43 0 -75.5 23t-32.5 66q0 34 23 60t57 33q-40 20 -40 64q0 40 31.5 67t77.5 27q41 0 69 -22t28 -59q0 -29 -19 -52t-47 -32q51 -22 51 -73q0 -46 -36.5 -74t-86.5 -28zM168 436l6 35h22q30 0 51 17t21 47q0 21 -14 33.5t-38 12.5q-53 0 -73 -57h-44
q12 43 45 69.5t76 26.5q42 0 66 -22.5t24 -58.5q0 -31 -20 -55.5t-48 -31.5q48 -13 48 -66q0 -44 -33 -75t-83 -31q-49 0 -77 25t-28 67v7h45v-2q0 -59 60 -59q32 0 53 19t21 49q0 24 -15.5 37t-41.5 13h-23zM650 614l-525 -614h-47l524 614h48zM442 87q0 -24 19 -40t47 -16
q33 0 56 19t23 49q0 26 -19 41.5t-48 15.5q-33 0 -55.5 -19.5t-22.5 -49.5zM603 251q0 22 -16 35.5t-40 13.5q-29 0 -48 -17.5t-19 -43.5q0 -21 16.5 -34t39.5 -13q28 0 47.5 17t19.5 42z" />
    <glyph glyph-name="uni215D" unicode="&#x215d;" horiz-adv-x="703" 
d="M507 -5q-44 0 -76 23t-32 66q0 34 23 60t56 33q-39 19 -39 64q0 40 31.5 67t77.5 27q41 0 69 -22t28 -59q0 -29 -19 -52t-47 -32q51 -23 51 -73q0 -46 -36.5 -74t-86.5 -28zM174 280q-47 0 -75 25.5t-28 66.5v7h43v-3q0 -27 16.5 -42.5t45.5 -15.5q33 0 55.5 24t22.5 58
q0 27 -15 43.5t-42 16.5q-35 0 -60 -28h-37l32 183h183l-7 -39h-146l-18 -100q27 21 61 21q42 0 66.5 -26t24.5 -68q0 -51 -34.5 -87t-87.5 -36zM650 614l-525 -614h-48l525 614h48zM441 87q0 -24 19 -40t47 -16q34 0 57 19t23 49q0 26 -19 41.5t-48 15.5q-33 0 -56 -19.5
t-23 -49.5zM603 251q0 22 -16.5 35.5t-39.5 13.5q-29 0 -48 -17.5t-19 -43.5q0 -21 16 -34t39 -13q29 0 48.5 17t19.5 42z" />
    <glyph glyph-name="uni215E" unicode="&#x215e;" horiz-adv-x="641" 
d="M589 614l-525 -614h-48l525 614h48zM323 581l-168 -297h-45l166 291h-169l7 39h215zM380 87q0 -24 19 -40t47 -16q34 0 57 19t23 49q0 26 -19 41.5t-48 15.5q-33 0 -56 -19.5t-23 -49.5zM446 -5q-44 0 -76.5 23t-32.5 66q0 34 23.5 60t56.5 33q-39 19 -39 64
q0 40 31.5 67t77.5 27q40 0 68 -22t28 -59q0 -29 -19 -52.5t-47 -31.5q51 -22 51 -73q0 -46 -36.5 -74t-85.5 -28zM542 251q0 22 -16.5 35.5t-39.5 13.5q-29 0 -48 -17.5t-19 -43.5q0 -21 16 -34t39 -13q29 0 48.5 17t19.5 42z" />
    <glyph glyph-name="minus" unicode="&#x2212;" horiz-adv-x="514" 
d="M79 273l7 43h372l-7 -43h-372z" />
    <glyph glyph-name="approxequal" unicode="&#x2248;" horiz-adv-x="521" 
d="M88 304l8 47q55 44 107 44q33 0 82.5 -23.5t79.5 -23.5q52 0 111 48l-8 -47q-54 -44 -110 -44q-32 0 -81.5 23.5t-80.5 23.5q-48 0 -108 -48zM68 195l8 47q56 44 108 44q33 0 82.5 -24t79.5 -24q51 0 111 49l-8 -47q-56 -44 -111 -44q-32 0 -81.5 23.5t-80.5 23.5
q-47 0 -108 -48z" />
    <glyph glyph-name="notequal" unicode="&#x2260;" horiz-adv-x="521" 
d="M94 338l7 41h229l85 89h45l-85 -89h98l-7 -41h-130l-82 -86h197l-7 -41h-229l-85 -90h-45l85 90h-99l8 41h130l82 86h-197z" />
    <glyph glyph-name="lessequal" unicode="&#x2264;" horiz-adv-x="399" 
d="M72 308l7 46l296 115l-9 -48l-240 -92l208 -93l-8 -43zM37 111l8 43h275l-8 -43h-275z" />
    <glyph glyph-name="greaterequal" unicode="&#x2265;" horiz-adv-x="399" 
d="M328 154l-7 -43h-275l7 43h275zM363 354l-8 -45l-295 -116l9 49l240 91l-209 93l9 43z" />
    <glyph glyph-name="fi" unicode="&#xfb01;" horiz-adv-x="450" 
d="M418 444l-78 -444h-49l78 444h49zM451 579q0 -14 -10 -24t-24 -10t-24 10t-10 24t10 24t24 10t24 -10t10 -24zM345 650l-8 -45q-20 9 -42 9q-38 0 -64.5 -24.5t-34.5 -70.5l-13 -75h104l-8 -43h-104l-70 -401h-49l70 401h-72l8 43h72l14 80q11 61 50.5 98t94.5 37
q31 0 52 -9z" />
    <glyph glyph-name="fl" unicode="&#xfb02;" horiz-adv-x="450" 
d="M454 650l-114 -650h-49l114 650h49zM345 650l-8 -45q-20 9 -42 9q-38 0 -64.5 -24.5t-34.5 -70.5l-13 -75h104l-8 -43h-104l-70 -401h-49l70 401h-72l8 43h72l14 80q11 61 50.5 98t94.5 37q31 0 52 -9z" />
    <glyph glyph-name="i.dot" horiz-adv-x="192" 
d="M160 444l-78 -444h-49l78 444h49zM194 579q0 -14 -10 -24t-24 -10t-24 10t-10 24t10 24t24 10t24 -10t10 -24z" />
    <glyph glyph-name="space_uni0326" 
d="M208 -183l48 67q-26 5 -26 33q0 16 10.5 26t25.5 10t25.5 -10.5t10.5 -26.5q0 -18 -17 -41l-41 -58h-36z" />
    <glyph glyph-name="space_uni0326.alt" 
d="M302 663l-49 -69q26 -5 26 -33q0 -15 -10.5 -25.5t-25.5 -10.5t-25.5 10.5t-10.5 26.5q0 17 17 42l42 59h36z" />
    <glyph glyph-name="space_dotbelowcomb" 
d="M284 -112q0 -14 -10 -24t-24 -10t-24 10t-10 24t10 24.5t24 10.5t24 -10.5t10 -24.5z" />
    <glyph glyph-name="caron.Slovak" 
d="M232 490h-42l78 160h43z" />
    <glyph glyph-name="cedilla.alt" 
d="M231 -175h-49l82 127h50z" />
    <glyph glyph-name="grave.cap" 
d="M308 665h-47l-67 117h52z" />
    <glyph glyph-name="acute.cap" 
d="M223 665h-53l103 117h59z" />
    <glyph glyph-name="circumflex.cap" 
d="M293 786l71 -119h-44l-53 84l-81 -84h-50l113 119h44z" />
    <glyph glyph-name="caron.cap" 
d="M207 660l-71 119h44l53 -83l81 83h50l-113 -119h-44z" />
    <glyph glyph-name="tilde.cap" 
d="M347 770h36q-9 -49 -31.5 -77t-54.5 -28q-20 0 -37 16.5t-31 32.5t-28 16q-37 0 -48 -62h-36q8 48 31 76.5t55 28.5q26 0 53 -32.5t43 -32.5q37 0 48 62z" />
    <glyph glyph-name="macron.cap" 
d="M145 670l7 42h202l-7 -42h-202z" />
    <glyph glyph-name="breve.cap" 
d="M234 664q-44 0 -69.5 31.5t-15.5 85.5h40q-7 -37 6.5 -58t42.5 -21q28 0 49 21t28 58h39q-10 -56 -42 -86.5t-78 -30.5z" />
    <glyph glyph-name="dotaccent.cap" 
d="M284 714q0 -14 -10 -24t-24 -10t-24 10t-10 24t10 24t24 10t24 -10t10 -24z" />
    <glyph glyph-name="dieresis.cap" 
d="M155 715q0 14 9.5 23.5t23.5 9.5t23 -9.5t9 -23.5t-9.5 -23.5t-22.5 -9.5q-14 0 -23.5 9.5t-9.5 23.5zM280 715q0 14 9 23.5t23 9.5t23.5 -9.5t9.5 -23.5q0 -13 -9.5 -23t-23.5 -10q-13 0 -22.5 9.5t-9.5 23.5z" />
    <glyph glyph-name="ring.cap" 
d="M247 679q21 0 36.5 14.5t15.5 36.5q0 20 -14 34t-34 14t-35.5 -15t-15.5 -37q0 -20 14 -33.5t33 -13.5zM246 648q-33 0 -55.5 22t-22.5 54q0 35 24.5 60t60.5 25q33 0 55.5 -22t22.5 -55q0 -34 -24.5 -59t-60.5 -25z" />
    <glyph glyph-name="hungarumlaut.cap" 
d="M170 665h-47l94 117h48zM284 665h-48l95 117h48z" />
    <glyph glyph-name="exclamdown.cap" horiz-adv-x="206" 
d="M163 422l-66 -422h-56l85 422h37zM210 579q0 -16 -11 -27.5t-27 -11.5q-15 0 -26 11.5t-11 27.5t11 27t26 11q16 0 27 -11t11 -27z" />
    <glyph glyph-name="questiondown.cap" horiz-adv-x="422" 
d="M172 38q65 0 108.5 36.5t61.5 102.5h51q-24 -87 -82 -136.5t-141 -49.5q-73 0 -114 37.5t-41 102.5q0 27 6.5 49.5t25.5 47t28.5 35.5t40.5 39t37 34q27 26 39.5 43.5t18.5 41.5h48q-14 -58 -73 -114q-6 -6 -30 -28t-34.5 -33t-26.5 -31t-22.5 -40.5t-6.5 -42.5
q0 -43 28 -68.5t78 -25.5zM302 579q0 -16 -11 -27.5t-26 -11.5q-16 0 -27 11.5t-11 27.5t11 27t27 11q15 0 26 -11t11 -27z" />
    <glyph glyph-name="guilsinglleft.cap" horiz-adv-x="192" 
d="M167 173h-48l-67 136l115 136h54l-119 -139z" />
    <glyph glyph-name="guilsinglright.cap" horiz-adv-x="192" 
d="M74 445h48l68 -136l-116 -136h-54l119 140z" />
    <glyph glyph-name="guillemotleft.cap" horiz-adv-x="314" 
d="M166 173h-47l-67 136l115 136h53l-119 -139zM289 173h-46l-68 136l116 136h52l-119 -139z" />
    <glyph glyph-name="guillemotright.cap" horiz-adv-x="314" 
d="M198 445h46l68 -136l-116 -136h-52l119 140zM74 445h47l67 -136l-115 -136h-53l119 140z" />
    <glyph glyph-name="slash.cap" horiz-adv-x="306" 
d="M-40 -64l376 734h53l-377 -734h-52z" />
    <glyph glyph-name="backslash.cap" horiz-adv-x="306" 
d="M140 670l119 -734h-47l-119 734h47z" />
    <glyph glyph-name="bar.cap" horiz-adv-x="205" 
d="M33 -64l129 734h47l-129 -734h-47z" />
    <glyph glyph-name="periodcentered.cap" horiz-adv-x="151" 
d="M52 301q0 16 11 27.5t26 11.5q16 0 27 -11.5t11 -27.5t-11 -27t-27 -11q-15 0 -26 11t-11 27z" />
    <glyph glyph-name="bullet.cap" horiz-adv-x="332" 
d="M308 300q0 -56 -37 -92t-92 -36q-54 0 -91 36t-37 92t37 92t91 36q55 0 92 -36t37 -92z" />
    <glyph glyph-name="hyphen.cap" horiz-adv-x="321" 
d="M52 277l8 46h241l-8 -46h-241z" />
    <glyph glyph-name="endash.cap" horiz-adv-x="475" 
d="M52 279l7 41h395l-7 -41h-395z" />
    <glyph glyph-name="emdash.cap" horiz-adv-x="846" 
d="M52 279l7 41h766l-7 -41h-766z" />
    <glyph glyph-name="parenleft.cap" horiz-adv-x="325" 
d="M39 229q0 159 91.5 276t248.5 161l-8 -50q-130 -42 -206 -144t-76 -243q0 -96 44.5 -159.5t125.5 -87.5l-9 -50q-100 29 -155.5 106.5t-55.5 190.5z" />
    <glyph glyph-name="parenright.cap" horiz-adv-x="325" 
d="M315 370q0 -159 -91.5 -276.5t-248.5 -161.5l9 51q129 42 205.5 144t76.5 243q0 96 -45 159t-126 87l9 50q100 -29 155.5 -106t55.5 -190z" />
    <glyph glyph-name="bracketleft.cap" horiz-adv-x="311" 
d="M197 621l-113 -644h158l-8 -45h-205l129 734h205l-8 -45h-158z" />
    <glyph glyph-name="bracketright.cap" horiz-adv-x="311" 
d="M141 -23l113 644h-159l8 45h206l-129 -734h-206l8 45h159z" />
    <glyph glyph-name="braceleft.cap" horiz-adv-x="334" 
d="M154 229l-36 -207q-8 -45 34 -45h113l-8 -45h-112q-40 0 -61 26t-13 67l36 207q8 45 -34 45h-42l8 45h42q43 0 50 45l36 206q7 42 37 67.5t70 25.5h112l-8 -45h-113q-41 0 -50 -45l-36 -207q-9 -48 -52 -70q35 -25 27 -70z" />
    <glyph glyph-name="braceright.cap" horiz-adv-x="334" 
d="M206 369l36 207q7 45 -34 45h-113l8 45h112q41 0 61 -25.5t13 -67.5l-36 -206q-8 -45 35 -45h42l-9 -45h-42q-41 0 -50 -45l-36 -207q-7 -41 -37 -67t-70 -26h-112l8 45h113q43 0 50 45l36 207q9 47 53 71q-36 26 -28 69z" />
    <glyph glyph-name="at.cap" horiz-adv-x="774" 
d="M574 472l-61 -255q-13 -60 45 -60q65 0 110.5 58.5t45.5 161.5q0 105 -74.5 170.5t-194.5 65.5q-153 0 -252.5 -104.5t-99.5 -257.5q0 -70 26.5 -124t71.5 -86t99.5 -48t115.5 -16q118 0 215 45l-5 -41q-95 -43 -211 -43q-71 0 -133.5 18.5t-113 55.5t-79.5 98.5
t-29 140.5q0 167 112 285t283 118q140 0 225.5 -78t85.5 -199q0 -122 -61.5 -190.5t-143.5 -68.5q-36 0 -59.5 16.5t-27.5 45.5q-20 -25 -51 -42t-62 -17q-58 0 -89 36.5t-31 95.5q0 88 55.5 157.5t137.5 69.5q34 0 58.5 -16.5t35.5 -40.5l12 49h44zM472 232l33 139
q-9 30 -30.5 48.5t-50.5 18.5q-65 0 -106.5 -57.5t-41.5 -125.5q0 -43 22.5 -68t61.5 -25q58 0 112 70z" />
    <glyph glyph-name="Euro.lt" horiz-adv-x="520" 
d="M41 343l6 41h55q30 105 95 172t153 67q72 0 115 -45.5t49 -121.5h-45q-9 57 -39 89t-81 32q-70 0 -121.5 -53.5t-76.5 -139.5h217l-16 -41h-211q-9 -44 -10 -77h197l-17 -41h-181q2 -89 38.5 -138.5t101.5 -49.5q103 0 150 121h46q-27 -78 -78.5 -122.5t-120.5 -44.5
q-82 0 -133.5 63t-52.5 171h-61l7 41h55q1 31 10 77h-51z" />
    <glyph glyph-name="dollar.lt" horiz-adv-x="520" 
d="M34 164h49q9 -53 50 -80t101 -27q68 0 111.5 34.5t43.5 96.5t-83 88l-102 32q-112 35 -112 124q0 76 56 122.5t139 46.5h7l17 94h45l-18 -99q62 -12 98 -50.5t42 -94.5h-48q-7 49 -44.5 78t-98.5 29q-62 0 -104.5 -32.5t-42.5 -89.5q0 -33 22 -53.5t66 -33.5l97 -30
q112 -36 112 -128q0 -80 -58.5 -128.5t-142.5 -49.5l-17 -98h-46l18 101q-66 9 -108 47t-49 101z" />
    <glyph glyph-name="cent.lt" horiz-adv-x="520" 
d="M75 193q0 108 60 188t160 82l16 90h45l-17 -94q51 -10 80.5 -46.5t33.5 -89.5h-49q-5 44 -32 69.5t-73 25.5q-79 0 -126.5 -65t-47.5 -160q0 -68 32.5 -107.5t89.5 -39.5q48 0 82 25.5t50 69.5h49q-19 -61 -63.5 -98.5t-106.5 -41.5l-15 -85h-45l15 87q-64 11 -101 62
t-37 128z" />
    <glyph glyph-name="sterling.lt" horiz-adv-x="520" 
d="M227 423l-18 -100h169l-7 -42h-169l-26 -145q-10 -59 -39 -91h306l-7 -45h-421l7 45h65q31 38 41 91l26 145h-90l7 42h90l18 100q16 94 66 147t128 53q71 0 109.5 -36.5t40.5 -96.5h-48q-1 42 -28 65t-74 23q-118 0 -146 -155z" />
    <glyph glyph-name="yen.lt" horiz-adv-x="520" 
d="M47 144l7 41h157l13 77h-156l7 41h144l-133 311h51l122 -289l224 289h56l-245 -311h145l-6 -41h-159l-13 -77h158l-7 -41h-158l-25 -144h-49l24 144h-157z" />
    <glyph glyph-name="florin.lt" horiz-adv-x="520" 
d="M169 295l8 42h86l48 157q18 61 55.5 95t88.5 34q36 0 63 -12l-7 -46q-26 14 -56 14q-67 0 -95 -89l-47 -153h95l-7 -42h-101l-103 -340q-38 -128 -136 -128q-35 0 -62 12l7 46q26 -14 55 -14q35 0 54 20.5t33 68.5l102 335h-81z" />
    <glyph glyph-name="zero.lt" horiz-adv-x="520" 
d="M229 38q63 0 114 49.5t78.5 128t27.5 168.5q0 88 -36 140t-102 52q-63 0 -114 -49.5t-78.5 -128t-27.5 -168.5q0 -88 36 -140t102 -52zM230 -9q-88 0 -138.5 64.5t-50.5 174.5q0 161 77 277t192 116q88 0 138.5 -64.5t50.5 -174.5q0 -161 -77 -277t-192 -116z" />
    <glyph glyph-name="one.lt" horiz-adv-x="520" 
d="M34 0l8 47h188l89 506l-199 -94l10 53l219 103h31l-100 -568h163l-8 -47h-401z" />
    <glyph glyph-name="two.lt" horiz-adv-x="520" 
d="M42 35l265 241q77 71 99 101q39 51 39 100q0 47 -29 73t-81 26q-64 0 -106.5 -39.5t-61.5 -107.5h-53q24 88 83 141t142 53q74 0 115.5 -38.5t41.5 -103.5q0 -28 -10 -56t-20 -46t-38 -47.5t-40.5 -41t-50.5 -46.5l-218 -197h311l-8 -47h-385z" />
    <glyph glyph-name="three.lt" horiz-adv-x="520" 
d="M217 294l7 44h48q63 0 108.5 37t45.5 99q0 46 -31.5 74.5t-85.5 28.5q-56 0 -99 -33t-64 -89h-53q24 76 83.5 122t135.5 46q79 0 121.5 -39.5t42.5 -106.5q0 -61 -42 -107t-100 -56q47 -9 76 -42t29 -84q0 -81 -61.5 -138.5t-154.5 -57.5q-86 0 -137 45t-51 120v11h51v-5
q0 -60 36.5 -92.5t100.5 -32.5q71 0 118.5 42.5t47.5 107.5q0 48 -35.5 77t-89.5 29h-47z" />
    <glyph glyph-name="four.lt" horiz-adv-x="520" 
d="M408 614l-309 -418h228l27 152h48l-26 -152h115l-8 -46h-115l-27 -150h-48l27 150h-289l7 40l314 424h56z" />
    <glyph glyph-name="five.lt" horiz-adv-x="520" 
d="M229 -9q-84 0 -135 45.5t-51 120.5l1 10h50v-5q0 -59 37 -92t99 -33q75 0 125 52.5t50 125.5q0 56 -34 92.5t-91 36.5q-74 0 -130 -58h-46l59 328h333l-9 -47h-288l-39 -223q56 46 126 46q78 0 123.5 -48.5t45.5 -124.5q0 -92 -64.5 -159t-161.5 -67z" />
    <glyph glyph-name="six.lt" horiz-adv-x="520" 
d="M494 468h-50q-11 109 -117 109q-87 0 -150 -87t-74 -207h1q25 54 72 85.5t102 31.5q81 0 132.5 -52t51.5 -131q0 -94 -63 -160t-155 -66q-93 0 -142.5 64t-49.5 167q0 163 79.5 282t196.5 119q75 0 118 -41.5t48 -113.5zM105 181q0 -59 37 -101.5t103 -42.5
q68 0 117.5 50t49.5 127q0 60 -37.5 100.5t-101.5 40.5q-67 0 -117.5 -50t-50.5 -124z" />
    <glyph glyph-name="seven.lt" horiz-adv-x="520" 
d="M494 573l-327 -573h-53l325 567h-355l9 47h409z" />
    <glyph glyph-name="eight.lt" horiz-adv-x="520" 
d="M90 156q0 -53 41.5 -87t101.5 -34q74 0 124 42t50 105q0 56 -42 89.5t-106 33.5q-71 0 -120 -43t-49 -106zM232 -9q-78 0 -135.5 42.5t-57.5 119.5q0 66 45.5 116t113.5 64q-36 16 -57.5 47.5t-21.5 72.5q0 70 56 120t138 50q72 0 122 -39t50 -106q0 -54 -37 -97.5
t-94 -59.5q48 -18 75.5 -55t27.5 -86q0 -82 -66.5 -135.5t-158.5 -53.5zM435 476q0 47 -35 75t-87 28q-62 0 -103.5 -37.5t-41.5 -90.5q0 -46 35.5 -74.5t85.5 -28.5q63 0 104.5 37.5t41.5 90.5z" />
    <glyph glyph-name="nine.lt" horiz-adv-x="520" 
d="M40 146h50q11 -109 117 -109q87 0 150 87t74 207h-1q-25 -54 -72 -85.5t-102 -31.5q-81 0 -132.5 52t-51.5 131q0 94 63 160t155 66q93 0 142.5 -64t49.5 -167q0 -163 -79.5 -282t-196.5 -119q-75 0 -118 41.5t-48 113.5zM429 433q0 59 -37 101.5t-103 42.5
q-68 0 -117.5 -50t-49.5 -127q0 -60 37.5 -100.5t101.5 -40.5q67 0 117.5 50t50.5 124z" />
    <glyph glyph-name="period.tab" horiz-adv-x="260" 
d="M52 35q0 16 11 27.5t27 11.5q15 0 26 -11.5t11 -27.5t-11 -27t-26 -11q-16 0 -27 11t-11 27z" />
    <glyph glyph-name="comma.tab" horiz-adv-x="260" 
d="M12 -101l73 102q-27 5 -27 34q0 17 11 27.5t27 10.5t26.5 -11t10.5 -28q0 -21 -18 -43l-65 -92h-38z" />
    <glyph glyph-name="colon.tab" horiz-adv-x="260" 
d="M52 35q0 16 11 27.5t27 11.5q15 0 26 -11.5t11 -27.5t-11 -27t-26 -11q-16 0 -27 11t-11 27zM110 364q0 16 11 27.5t27 11.5q15 0 26 -11.5t11 -27.5t-11 -27t-26 -11q-16 0 -27 11t-11 27z" />
    <glyph glyph-name="semicolon.tab" horiz-adv-x="260" 
d="M12 -101l73 102q-27 5 -27 34q0 17 11 27.5t27 10.5t26.5 -11t10.5 -28q0 -21 -18 -43l-65 -92h-38zM110 364q0 16 11 27.5t27 11.5q15 0 26 -11.5t11 -27.5t-11 -27t-26 -11q-16 0 -27 11t-11 27z" />
    <glyph glyph-name="space.tab" horiz-adv-x="260" 
 />
    <glyph glyph-name="percent.lt" horiz-adv-x="520" 
d="M176 623q50 0 84 -34.5t34 -83.5q0 -50 -36.5 -88.5t-89.5 -38.5q-49 0 -83.5 34t-34.5 83q0 50 36.5 89t89.5 39zM170 418q34 0 59 25.5t25 61.5q0 32 -23.5 55t-56.5 23q-34 0 -59 -25.5t-25 -61.5q0 -32 23.5 -55t56.5 -23zM353 -9q-49 0 -83.5 34.5t-34.5 83.5
q0 50 36.5 88.5t89.5 38.5q49 0 83.5 -34t34.5 -83q0 -50 -36.5 -89t-89.5 -39zM359 196q-34 0 -59 -25.5t-25 -61.5q0 -32 23.5 -55t56.5 -23q34 0 59 25.5t25 61.5q0 32 -23 55t-57 23zM518 614l-460 -614h-47l460 614h47z" />
    <glyph glyph-name="perthousand.lt" horiz-adv-x="800" 
d="M188 623q50 0 84 -34.5t34 -83.5q0 -50 -36.5 -88.5t-89.5 -38.5q-49 0 -83.5 34t-34.5 83q0 50 36.5 89t89.5 39zM182 418q34 0 59 25.5t25 61.5q0 32 -23.5 55t-56.5 23q-34 0 -59 -25.5t-25 -61.5q0 -32 23 -55t57 -23zM365 -9q-49 0 -83.5 34.5t-34.5 83.5
q0 50 36.5 88.5t89.5 38.5q49 0 83.5 -34t34.5 -83q0 -50 -36.5 -89t-89.5 -39zM371 196q-34 0 -59 -25.5t-25 -61.5q0 -32 23.5 -55t56.5 -23q34 0 59 25.5t25 61.5q0 32 -23.5 55t-56.5 23zM530 614l-460 -614h-47l460 614h47zM641 -9q-49 0 -83.5 34.5t-34.5 83.5
q0 50 36.5 88.5t89.5 38.5q49 0 83.5 -34t34.5 -83q0 -50 -36.5 -89t-89.5 -39zM647 196q-34 0 -59 -25.5t-25 -61.5q0 -32 23.5 -55t56.5 -23q34 0 59 25.5t25 61.5q0 32 -23.5 55t-56.5 23z" />
    <glyph glyph-name="plus.lt" horiz-adv-x="520" 
d="M274 480h43l-29 -164h164l-7 -43h-165l-28 -164h-43l28 164h-164l8 43h164z" />
    <glyph glyph-name="minus.lt" horiz-adv-x="520" 
d="M73 273l8 43h371l-7 -43h-372z" />
    <glyph glyph-name="multiply.lt" horiz-adv-x="520" 
d="M235 293l-100 122l32 27l99 -122l142 123l25 -29l-142 -123l99 -121l-32 -28l-100 121l-142 -121l-24 29z" />
    <glyph glyph-name="divide.lt" horiz-adv-x="520" 
d="M73 273l8 43h371l-7 -43h-372zM253 447q0 16 10.5 27t25.5 11q14 0 25 -11t11 -27q0 -15 -11 -25.5t-25 -10.5q-15 0 -25.5 10.5t-10.5 25.5zM200 142q0 15 10.5 26t25.5 11t25.5 -11t10.5 -26q0 -16 -10.5 -26.5t-25.5 -10.5t-25.5 10.5t-10.5 26.5z" />
    <glyph glyph-name="equal.lt" horiz-adv-x="520" 
d="M62 210l7 42h372l-7 -42h-372zM84 338l7 42h373l-8 -42h-372z" />
    <glyph glyph-name="less.lt" horiz-adv-x="520" 
d="M108 269l8 47l301 150l-9 -51l-254 -125l210 -124l-8 -47z" />
    <glyph glyph-name="greater.lt" horiz-adv-x="520" 
d="M417 316l-8 -47l-301 -150l9 51l254 125l-210 125l8 46z" />
    <glyph glyph-name="plusminus.lt" horiz-adv-x="520" 
d="M287 495h43l-23 -126h163l-7 -42h-164l-22 -126h-42l22 126h-163l7 42h164zM54 104l8 43h369l-7 -43h-370z" />
    <glyph glyph-name="lessequal.lt" horiz-adv-x="520" 
d="M128 308l8 46l295 115l-9 -48l-240 -92l209 -93l-9 -43zM93 111l8 43h275l-8 -43h-275z" />
    <glyph glyph-name="greaterequal.lt" horiz-adv-x="520" 
d="M386 154l-7 -43h-275l7 43h275zM421 354l-8 -45l-295 -116l9 49l240 91l-209 93l9 43z" />
    <glyph glyph-name="notequal.lt" horiz-adv-x="520" 
d="M84 338l7 41h230l84 89h45l-85 -89h99l-8 -41h-130l-81 -86h196l-7 -41h-228l-85 -90h-45l85 90h-99l7 41h131l82 86h-198z" />
    <glyph glyph-name="approxequal.lt" horiz-adv-x="520" 
d="M79 304l8 47q55 44 107 44q32 0 81.5 -23.5t80.5 -23.5q50 0 111 48l-9 -47q-54 -44 -110 -44q-32 0 -81 23.5t-80 23.5q-48 0 -108 -48zM59 195l8 47q55 44 108 44q32 0 81.5 -24t80.5 -24q50 0 110 49l-7 -47q-56 -44 -112 -44q-32 0 -81 23.5t-80 23.5q-48 0 -108 -48
z" />
    </font>
</defs>
</svg>
