<?xml version="1.0" standalone="no"?>
<!DOCTYPE svg PUBLIC "-//W3C//DTD SVG 1.1//EN" "http://www.w3.org/Graphics/SVG/1.1/DTD/svg11.dtd" >
<svg xmlns="http://www.w3.org/2000/svg" xmlns:xlink="http://www.w3.org/1999/xlink" version="1.1">
<metadata>
Created by FontForge 20150824 at Mon May  9 02:37:50 2016
 By Everything Fonts
(c) 2011 Klim Type Foundry. All rights reserved.
</metadata>
<defs>
<font id="calibrelight" horiz-adv-x="500" >
  <font-face 
    font-family="calibrelight"
    font-weight="300"
    font-stretch="normal"
    units-per-em="1000"
    panose-1="2 11 3 3 3 2 2 6 2 3"
    ascent="650"
    descent="-350"
    x-height="444"
    cap-height="614"
    bbox="-120 -183 870 893"
    underline-thickness="30"
    underline-position="-100"
    unicode-range="U+0020-FB02"
  />
<missing-glyph horiz-adv-x="608" 
 />
    <glyph glyph-name="f_f" unicode="ff" horiz-adv-x="494" 
d="M505 650v-46q-22 11 -46 11q-36 0 -58.5 -25.5t-22.5 -70.5v-75h105v-43h-105v-401h-48v401h-187v-401h-49v401h-72v43h72v74q0 60 35 97.5t90 37.5q27 0 50 -9v-46q-20 11 -45 11q-36 0 -58.5 -25.5t-22.5 -70.5v-69h187v80q0 60 35 97.5t90 37.5q27 0 50 -9z" />
    <glyph glyph-name=".notdef" horiz-adv-x="608" 
 />
    <glyph glyph-name=".null" horiz-adv-x="0" 
 />
    <glyph glyph-name="nonmarkingreturn" horiz-adv-x="333" 
 />
    <glyph glyph-name="space" unicode=" " horiz-adv-x="221" 
 />
    <glyph glyph-name="exclam" unicode="!" horiz-adv-x="206" 
d="M65 35q0 16 11 27.5t27 11.5q15 0 26 -11.5t11 -27.5t-11 -27t-26 -11q-16 0 -27 11t-11 27zM85 192l-10 422h56l-10 -422h-36z" />
    <glyph glyph-name="quotedbl" unicode="&#x22;" horiz-adv-x="221" 
d="M40 418v196h45v-196h-45zM136 418v196h45v-196h-45z" />
    <glyph glyph-name="numbersign" unicode="#" horiz-adv-x="549" 
d="M481 231l-7 -40h-105l-45 -191h-45l45 191h-156l-46 -191h-43l45 191h-97l9 40h98l36 152h-103l8 40h104l46 191h44l-46 -191h157l46 191h44l-46 -191h98l-9 -40h-98l-36 -152h102zM214 383l-37 -152h157l36 152h-156z" />
    <glyph glyph-name="dollar" unicode="$" horiz-adv-x="463" 
d="M212 -85v99q-69 5 -118 41.5t-67 97.5h52q37 -96 156 -96q64 0 104.5 30t40.5 83q0 78 -98 105l-107 30q-64 18 -98.5 51t-34.5 91q0 68 48 109.5t122 44.5v89h45v-91q65 -8 107.5 -45t57.5 -95h-49q-35 99 -151 99q-58 0 -95.5 -29t-37.5 -80q0 -42 26.5 -64t82.5 -38
l94 -26q135 -38 135 -150q0 -68 -48 -110t-122 -47v-99h-45z" />
    <glyph glyph-name="percent" unicode="%" horiz-adv-x="621" 
d="M90 0l398 614h43l-398 -614h-43zM78 495q0 -35 25 -60t61 -25t61 25t25 60q0 36 -25 61.5t-61 25.5t-61 -25.5t-25 -61.5zM583 119q0 -53 -37 -90.5t-89 -37.5q-53 0 -90 37.5t-37 90.5q0 52 37 89t90 37t89.5 -36.5t36.5 -89.5zM291 495q0 -52 -37 -89t-90 -37t-90 36.5
t-37 89.5t37 90.5t90 37.5t90 -37.5t37 -90.5zM542 119q0 35 -25 60t-60 25q-36 0 -61 -25t-25 -60q0 -36 25 -61.5t61 -25.5q35 0 60 25.5t25 61.5z" />
    <glyph glyph-name="ampersand" unicode="&#x26;" horiz-adv-x="562" 
d="M424 474h-49q-5 50 -34.5 78.5t-77.5 28.5q-49 0 -80 -29t-31 -80q0 -24 12 -48t23 -37t39 -43l189 -201q39 66 42 160h47q-3 -109 -58 -193l104 -110h-64l-69 73q-75 -82 -186 -82q-84 0 -138.5 53t-54.5 134q0 57 33 103.5t86 67.5q-53 63 -53 123q0 68 45 109.5
t114 41.5q72 0 113.5 -41.5t47.5 -107.5zM187 317q-44 -14 -72.5 -53t-28.5 -86q0 -62 41 -102.5t104 -40.5q96 0 157 69z" />
    <glyph glyph-name="quotesingle" unicode="'" horiz-adv-x="126" 
d="M40 418v196h46v-196h-46z" />
    <glyph glyph-name="parenleft" unicode="(" horiz-adv-x="325" 
d="M30 283q0 137 72.5 236t195.5 131v-50q-93 -23 -156 -108.5t-63 -208.5t63 -208.5t156 -108.5v-50q-123 32 -195.5 131t-72.5 236z" />
    <glyph glyph-name="parenright" unicode=")" horiz-adv-x="325" 
d="M295 283q0 -137 -72.5 -236t-195.5 -131v50q93 23 156 108.5t63 208.5t-63 208.5t-156 108.5v50q123 -32 195.5 -131t72.5 -236z" />
    <glyph glyph-name="asterisk" unicode="*" horiz-adv-x="315" 
d="M125 513l-94 54l17 28l93 -54v108h33v-108l93 54l16 -28l-94 -54l94 -54l-16 -28l-93 54v-107h-33v107l-93 -54l-17 28z" />
    <glyph glyph-name="plus" unicode="+" horiz-adv-x="514" 
d="M235 480h43v-164h165v-43h-165v-164h-43v164h-164v43h164v164z" />
    <glyph glyph-name="comma" unicode="," horiz-adv-x="141" 
d="M9 -101l54 100q-30 6 -30 36q0 16 10.5 27t26.5 11q17 0 27.5 -11t10.5 -29t-15 -44l-48 -90h-36z" />
    <glyph glyph-name="hyphen" unicode="-" horiz-adv-x="321" 
d="M40 237v46h241v-46h-241z" />
    <glyph glyph-name="period" unicode="." horiz-adv-x="141" 
d="M33 35q0 16 11 27.5t26 11.5q16 0 27 -11.5t11 -27.5t-11 -27t-27 -11q-15 0 -26 11t-11 27z" />
    <glyph glyph-name="slash" unicode="/" horiz-adv-x="306" 
d="M5 -84l248 734h48l-248 -734h-48z" />
    <glyph glyph-name="zero" unicode="0" horiz-adv-x="536" 
d="M268 -9q-102 0 -164 87.5t-62 228.5t62 228.5t164 87.5q101 0 163 -87.5t62 -228.5t-62 -228.5t-163 -87.5zM268 576q-81 0 -128 -74.5t-47 -194.5t47 -194.5t128 -74.5t128 74.5t47 194.5t-47 194.5t-128 74.5z" />
    <glyph glyph-name="one" unicode="1" horiz-adv-x="330" 
d="M242 615v-615h-50v554l-161 -83v53l180 91h31z" />
    <glyph glyph-name="two" unicode="2" horiz-adv-x="444" 
d="M354 454q0 56 -35.5 89t-92.5 33q-65 0 -102 -39.5t-44 -107.5h-51q8 87 60.5 140.5t136.5 53.5q82 0 130 -46.5t48 -122.5q0 -13 -2 -25.5t-7 -26t-9 -23t-14 -24t-14.5 -21.5t-18.5 -23t-18 -21t-20.5 -23.5t-20.5 -22.5l-183 -197h321v-47h-392v35l217 236
q43 47 60 67t34 53t17 63z" />
    <glyph glyph-name="three" unicode="3" horiz-adv-x="455" 
d="M182 293v45h46q56 0 92.5 32t36.5 87q0 53 -36.5 86.5t-95.5 33.5q-55 0 -92.5 -33t-48.5 -89h-50q12 76 64 122t127 46q83 0 132.5 -46t49.5 -118q0 -54 -32 -94t-80 -49q54 -9 89 -48.5t35 -99.5q0 -76 -51.5 -126.5t-139.5 -50.5q-85 0 -139 47t-65 127h51
q11 -61 50.5 -94.5t102.5 -33.5q64 0 102.5 35.5t38.5 94.5q0 58 -40.5 92t-99.5 34h-47z" />
    <glyph glyph-name="four" unicode="4" 
d="M315 614l-236 -418h230v152h49v-152h115v-46h-115v-150h-49v150h-288v40l241 424h53z" />
    <glyph glyph-name="five" unicode="5" horiz-adv-x="460" 
d="M230 344q-73 0 -118 -58h-44v328h326v-47h-281v-223q48 46 120 46q83 0 138 -57.5t55 -142.5q0 -83 -56 -141t-140 -58t-138 46t-68 129h51q28 -129 155 -129q63 0 104.5 44t41.5 109t-41.5 109.5t-104.5 44.5z" />
    <glyph glyph-name="six" unicode="6" horiz-adv-x="495" 
d="M107 196q0 -69 43 -114.5t109 -45.5q65 0 108.5 45.5t43.5 114.5t-43.5 114.5t-108.5 45.5q-66 0 -109 -45.5t-43 -114.5zM447 475h-51q-34 103 -133 103q-75 0 -124.5 -73.5t-49.5 -194.5q0 -30 2 -44q13 59 61.5 96.5t109.5 37.5q84 0 140.5 -59t56.5 -144
q0 -87 -57 -146.5t-143 -59.5q-125 0 -181 117q-36 75 -36 191q0 150 62.5 237t158.5 87q145 0 184 -148z" />
    <glyph glyph-name="seven" unicode="7" horiz-adv-x="429" 
d="M407 573l-227 -573h-52l226 567h-336v47h389v-41z" />
    <glyph glyph-name="eight" unicode="8" horiz-adv-x="481" 
d="M240 35q68 0 113 39t45 96t-45 96t-113 39t-112.5 -38.5t-44.5 -96.5t44.5 -96.5t112.5 -38.5zM240 349q58 0 95.5 33t37.5 82t-37 82t-96 33q-58 0 -95 -33t-37 -82t37 -82t95 -33zM240 -9q-89 0 -147.5 50t-58.5 127q0 57 35 100.5t92 58.5q-47 17 -74.5 54t-27.5 84
q0 68 51.5 113t129.5 45q79 0 130.5 -45t51.5 -113q0 -47 -28 -84t-74 -54q57 -15 92 -58.5t35 -100.5q0 -77 -58.5 -127t-148.5 -50z" />
    <glyph glyph-name="nine" unicode="9" horiz-adv-x="495" 
d="M388 418q0 69 -43 114.5t-109 45.5q-65 0 -108.5 -45.5t-43.5 -114.5t43.5 -114.5t108.5 -45.5q66 0 109 45.5t43 114.5zM48 139h51q34 -103 133 -103q75 0 124.5 73.5t49.5 194.5q0 30 -2 44q-13 -59 -61.5 -96.5t-109.5 -37.5q-84 0 -140.5 59t-56.5 144q0 87 57 146.5
t143 59.5q125 0 181 -117q36 -75 36 -191q0 -150 -62.5 -237t-158.5 -87q-145 0 -184 148z" />
    <glyph glyph-name="colon" unicode=":" horiz-adv-x="141" 
d="M33 35q0 16 11 27.5t26 11.5q16 0 27 -11.5t11 -27.5t-11 -27t-27 -11q-15 0 -26 11t-11 27zM33 364q0 16 11 27.5t26 11.5q16 0 27 -11.5t11 -27.5t-11 -27t-27 -11q-15 0 -26 11t-11 27z" />
    <glyph glyph-name="semicolon" unicode=";" horiz-adv-x="141" 
d="M9 -101l54 100q-30 6 -30 36q0 16 10.5 27t26.5 11q17 0 27.5 -11t10.5 -29t-15 -44l-48 -90h-36zM33 364q0 16 11 27.5t26 11.5q16 0 27 -11.5t11 -27.5t-11 -27t-27 -11q-15 0 -26 11t-11 27z" />
    <glyph glyph-name="less" unicode="&#x3c;" horiz-adv-x="397" 
d="M58 269v47l274 150v-48l-232 -125l232 -125v-49z" />
    <glyph glyph-name="equal" unicode="=" horiz-adv-x="521" 
d="M75 210v42h372v-42h-372zM75 338v42h372v-42h-372z" />
    <glyph glyph-name="greater" unicode="&#x3e;" horiz-adv-x="397" 
d="M340 316v-47l-275 -150v49l232 125l-232 125v48z" />
    <glyph glyph-name="question" unicode="?" horiz-adv-x="422" 
d="M185 35q0 16 11 27.5t27 11.5q15 0 26 -11.5t11 -27.5t-11 -27t-26 -11q-16 0 -27 11t-11 27zM395 456q0 -13 -3 -27t-6 -24t-12 -24.5t-12.5 -21t-17 -22.5t-16.5 -19t-19.5 -21t-17.5 -19q-42 -45 -43 -85h-47q2 33 14 56.5t39 54.5q5 6 23 25t26 29t20 27.5t17 34.5
t5 36q0 56 -35 88t-93 32q-63 0 -100.5 -39t-44.5 -106h-52q8 87 61 139.5t136 52.5q82 0 130 -45.5t48 -121.5z" />
    <glyph glyph-name="at" unicode="@" horiz-adv-x="774" 
d="M548 380l-45 -255q-10 -60 48 -60q62 0 103 54t41 149q0 111 -79.5 182t-205.5 71q-146 0 -238 -96t-92 -239q0 -77 28 -137t76 -94.5t105.5 -52t121.5 -17.5q116 0 210 45v-41q-98 -43 -210 -43q-74 0 -139.5 20t-119 60t-84.5 107t-31 153q0 158 104.5 267t268.5 109
q145 0 236 -83.5t91 -210.5q0 -115 -56 -178.5t-135 -63.5q-35 0 -60 16.5t-30 45.5q-18 -25 -48 -42t-61 -17q-62 0 -96 41t-34 105q0 85 51 149t130 64q34 0 59.5 -17t37.5 -40l9 49h44zM461 140l24 139q-25 67 -85 67t-98.5 -52t-38.5 -118q0 -49 24.5 -77.5t65.5 -28.5
q60 0 108 70z" />
    <glyph glyph-name="A" unicode="A" horiz-adv-x="579" 
d="M266 614h47l243 -614h-51l-80 202h-272l-79 -202h-51zM289 548l-118 -300h236z" />
    <glyph glyph-name="B" unicode="B" horiz-adv-x="523" 
d="M362 318q56 -10 90 -51.5t34 -97.5q0 -81 -53 -125t-147 -44h-207v614h188q94 0 145 -41t51 -118q0 -107 -101 -137zM129 338h138q146 0 146 115t-146 115h-138v-230zM129 294v-248h160q71 0 108.5 33.5t37.5 90.5t-37.5 90.5t-108.5 33.5h-160z" />
    <glyph glyph-name="C" unicode="C" horiz-adv-x="575" 
d="M39 307q0 143 77 229.5t193 86.5q88 0 148 -47.5t79 -128.5h-50q-20 60 -65.5 94t-111.5 34q-97 0 -157.5 -73t-60.5 -195t61 -195t157 -73q66 0 111.5 34t65.5 94h50q-19 -81 -79.5 -128.5t-147.5 -47.5q-116 0 -193 86.5t-77 229.5z" />
    <glyph glyph-name="D" unicode="D" horiz-adv-x="602" 
d="M130 47h136q113 0 179.5 71t66.5 189t-66.5 189t-179.5 71h-136v-520zM79 0v614h187q134 0 216 -83.5t82 -223.5t-82 -223.5t-216 -83.5h-187z" />
    <glyph glyph-name="E" unicode="E" horiz-adv-x="515" 
d="M79 614h381v-47h-331v-227h300v-47h-300v-246h331v-47h-381v614z" />
    <glyph glyph-name="F" unicode="F" horiz-adv-x="473" 
d="M130 0h-51v614h356v-47h-305v-234h289v-46h-289v-287z" />
    <glyph glyph-name="G" unicode="G" horiz-adv-x="598" 
d="M511 243h-160v45h209v-36q0 -118 -67 -189.5t-179 -71.5q-118 0 -196.5 86.5t-78.5 229.5t78.5 229.5t195.5 86.5q89 0 150 -47.5t81 -128.5h-51q-44 128 -180 128q-98 0 -160 -73t-62 -195q0 -123 62 -196t161 -73q91 0 142 54t55 151z" />
    <glyph glyph-name="H" unicode="H" horiz-adv-x="649" 
d="M519 614h51v-614h-51v293h-389v-293h-51v614h51v-274h389v274z" />
    <glyph glyph-name="I" unicode="I" horiz-adv-x="209" 
d="M130 614v-614h-51v614h51z" />
    <glyph glyph-name="J" unicode="J" horiz-adv-x="472" 
d="M19 170h53q7 -60 44 -95.5t96 -35.5q64 0 103 38.5t39 117.5v419h51v-419q0 -99 -53.5 -151.5t-138.5 -52.5q-83 0 -135.5 48.5t-58.5 130.5z" />
    <glyph glyph-name="K" unicode="K" horiz-adv-x="544" 
d="M130 614v-322l320 322h66l-280 -280l290 -334h-64l-263 299l-69 -70v-229h-51v614h51z" />
    <glyph glyph-name="L" unicode="L" horiz-adv-x="503" 
d="M79 0v614h51v-567h333v-47h-384z" />
    <glyph glyph-name="M" unicode="M" horiz-adv-x="729" 
d="M381 0h-32l-221 513v-513h-49v614h56l231 -539l231 539h53v-614h-49v513z" />
    <glyph glyph-name="N" unicode="N" horiz-adv-x="616" 
d="M537 614v-614h-34l-375 533v-533h-49v614h49l360 -512v512h49z" />
    <glyph glyph-name="O" unicode="O" horiz-adv-x="620" 
d="M582 307q0 -140 -76.5 -228t-195.5 -88q-118 0 -194.5 88t-76.5 228t76.5 228t194.5 88q119 0 195.5 -88t76.5 -228zM530 307q0 119 -61 193.5t-159 74.5q-97 0 -158 -74.5t-61 -193.5t61 -193.5t158 -74.5q98 0 159 74.5t61 193.5z" />
    <glyph glyph-name="P" unicode="P" horiz-adv-x="529" 
d="M301 265h-171v-265h-51v614h222q91 0 142.5 -45t51.5 -129q0 -85 -51.5 -130t-142.5 -45zM444 440q0 61 -37.5 94.5t-107.5 33.5h-169v-256h169q71 0 108 33.5t37 94.5z" />
    <glyph glyph-name="Q" unicode="Q" horiz-adv-x="620" 
d="M504 -32l-51 65q-62 -42 -143 -42q-118 0 -194.5 88t-76.5 228t76.5 228t194.5 88q119 0 195.5 -88t76.5 -228q0 -155 -94 -246l50 -65zM530 307q0 119 -61 193.5t-159 74.5q-97 0 -158 -74.5t-61 -193.5t61 -193.5t158 -74.5q64 0 114 32l-52 67l35 27l51 -66
q72 72 72 208z" />
    <glyph glyph-name="R" unicode="R" horiz-adv-x="549" 
d="M277 271h-147v-271h-51v614h217q91 0 142 -44.5t51 -127.5q0 -74 -41 -117t-115 -52l185 -273h-59zM130 568v-252h164q70 0 107.5 33t37.5 93q0 61 -37.5 93.5t-107.5 32.5h-164z" />
    <glyph glyph-name="S" unicode="S" horiz-adv-x="497" 
d="M26 150h53q18 -55 64 -84t110 -29q68 0 110.5 33t42.5 90q0 84 -106 114l-117 33q-70 19 -105.5 53.5t-35.5 96.5q0 76 56 121t138 45q87 0 142 -41.5t74 -112.5h-51q-38 108 -165 108q-62 0 -103.5 -31.5t-41.5 -85.5q0 -46 27.5 -69t89.5 -40l103 -30q75 -21 110 -59.5
t35 -99.5q0 -79 -57 -125t-146 -46q-86 0 -147.5 42t-79.5 117z" />
    <glyph glyph-name="T" unicode="T" horiz-adv-x="562" 
d="M31 567v47h500v-47h-225v-567h-51v567h-224z" />
    <glyph glyph-name="U" unicode="U" horiz-adv-x="605" 
d="M302 -9q-104 0 -169.5 64.5t-65.5 186.5v372h51v-365q0 -104 50.5 -157.5t133.5 -53.5t134 53.5t51 157.5v365h51v-372q0 -122 -66 -186.5t-170 -64.5z" />
    <glyph glyph-name="V" unicode="V" horiz-adv-x="577" 
d="M311 0h-46l-242 614h53l212 -544l214 544h52z" />
    <glyph glyph-name="W" unicode="W" horiz-adv-x="759" 
d="M359 614h42l144 -528l142 528h50l-167 -614h-46l-145 523l-144 -523h-45l-168 614h51l142 -528z" />
    <glyph glyph-name="X" unicode="X" horiz-adv-x="540" 
d="M509 614l-210 -302l218 -312h-58l-190 271l-189 -271h-56l217 311l-211 303h58l182 -262l183 262h56z" />
    <glyph glyph-name="Y" unicode="Y" horiz-adv-x="535" 
d="M269 309l193 305h55l-224 -352v-262h-51v262l-223 352h56z" />
    <glyph glyph-name="Z" unicode="Z" horiz-adv-x="519" 
d="M479 47v-47h-442v39l375 528h-370v47h433v-39l-374 -528h378z" />
    <glyph glyph-name="bracketleft" unicode="[" horiz-adv-x="311" 
d="M126 605v-644h158v-45h-205v734h205v-45h-158z" />
    <glyph glyph-name="backslash" unicode="\" horiz-adv-x="306" 
d="M53 650l248 -734h-48l-248 734h48z" />
    <glyph glyph-name="bracketright" unicode="]" horiz-adv-x="311" 
d="M185 -39v644h-158v45h205v-734h-205v45h158z" />
    <glyph glyph-name="asciicircum" unicode="^" horiz-adv-x="321" 
d="M139 614h43l114 -181h-53l-83 129l-82 -129h-53z" />
    <glyph glyph-name="underscore" unicode="_" horiz-adv-x="352" 
d="M20 -88v46h312v-46h-312z" />
    <glyph glyph-name="grave" unicode="`" 
d="M318 520h-49l-87 130h53z" />
    <glyph glyph-name="a" unicode="a" horiz-adv-x="439" 
d="M373 0h-48v42q-16 -19 -50 -34t-73 -15q-70 0 -117 37.5t-47 99.5q0 60 48 98t118 38q36 0 70 -14.5t51 -32.5v79q0 50 -29.5 80.5t-81.5 30.5q-83 0 -108 -76h-49q13 56 55.5 88t101.5 32q74 0 116.5 -41.5t42.5 -111.5v-300zM325 101v57q-11 29 -44.5 47.5t-73.5 18.5
q-51 0 -86.5 -24.5t-35.5 -69.5t35.5 -70t86.5 -25q40 0 73.5 18.5t44.5 47.5z" />
    <glyph glyph-name="b" unicode="b" horiz-adv-x="492" 
d="M121 66v-66h-49v650h49v-272q20 31 57.5 53t80.5 22q94 0 144 -66.5t50 -164.5t-50 -164.5t-144 -66.5q-43 0 -80.5 22t-57.5 53zM121 319v-194q22 -42 57.5 -65t76.5 -23q68 0 108 51.5t40 133.5t-40 133.5t-108 51.5q-41 0 -76.5 -23t-57.5 -65z" />
    <glyph glyph-name="c" unicode="c" horiz-adv-x="442" 
d="M39 222q0 103 54 167t142 64q69 0 113.5 -37.5t56.5 -100.5h-51q-10 44 -41 68.5t-78 24.5q-65 0 -105.5 -51t-40.5 -135t40.5 -135t105.5 -51q47 0 78 24.5t41 68.5h51q-12 -63 -56.5 -100.5t-113.5 -37.5q-88 0 -142 64t-54 167z" />
    <glyph glyph-name="d" unicode="d" horiz-adv-x="492" 
d="M371 0v66q-20 -31 -57.5 -53t-80.5 -22q-94 0 -144 66.5t-50 164.5t50 164.5t144 66.5q43 0 80.5 -22t57.5 -53v272h49v-650h-49zM371 125v194q-22 42 -57.5 65t-76.5 23q-68 0 -108 -51.5t-40 -133.5t40 -133.5t108 -51.5q41 0 76.5 23t57.5 65z" />
    <glyph glyph-name="e" unicode="e" horiz-adv-x="453" 
d="M360 129h48q-13 -63 -58.5 -100.5t-113.5 -37.5q-88 0 -142.5 64t-54.5 167q0 101 53.5 166t142.5 65q86 0 133 -59.5t47 -157.5v-18h-327q1 -84 42 -133.5t106 -49.5q47 0 80.5 25t43.5 69zM235 409q-60 0 -98.5 -41t-46.5 -111h275q-2 64 -35 108t-95 44z" />
    <glyph glyph-name="f" unicode="f" horiz-adv-x="258" 
d="M269 650v-46q-20 11 -45 11q-36 0 -58.5 -25.5t-22.5 -70.5v-75h104v-43h-104v-401h-49v401h-72v43h72v80q0 60 35 97.5t90 37.5q27 0 50 -9z" />
    <glyph glyph-name="g" unicode="g" horiz-adv-x="488" 
d="M367 29v47q-20 -31 -57 -52t-80 -21q-92 0 -141.5 65t-49.5 160t49.5 160t141.5 65q43 0 80 -21.5t57 -52.5v65h50v-412q0 -102 -50.5 -156.5t-136.5 -54.5q-76 0 -123 35.5t-59 99.5h50q22 -92 132 -92q66 0 101.5 42t35.5 123zM367 134v187q-22 41 -56.5 63.5
t-75.5 22.5q-68 0 -107 -49.5t-39 -129.5q0 -81 39 -130.5t107 -49.5q41 0 75.5 22.5t56.5 63.5z" />
    <glyph glyph-name="h" unicode="h" horiz-adv-x="483" 
d="M71 0v650h50v-277q22 34 59.5 57t82.5 23q74 0 114 -43.5t40 -115.5v-294h-49v287q0 54 -28.5 87t-85.5 33q-44 0 -80 -27t-53 -69v-311h-50z" />
    <glyph glyph-name="i" unicode="i" horiz-adv-x="192" 
d="M121 444v-444h-50v444h50zM130 579q0 -14 -10 -24t-24 -10t-24 10t-10 24t10 24t24 10t24 -10t10 -24z" />
    <glyph glyph-name="j" unicode="j" horiz-adv-x="192" 
d="M121 444v-508q0 -56 -29.5 -85.5t-82.5 -29.5q-15 0 -23 3v44q7 -3 20 -3q33 0 49 16.5t16 59.5v503h50zM130 579q0 -14 -10 -24t-24 -10t-24 10t-10 24t10 24t24 10t24 -10t10 -24z" />
    <glyph glyph-name="k" unicode="k" horiz-adv-x="446" 
d="M368 0l-193 222l-54 -50v-172h-50v650h50v-420l235 214h66l-211 -191l218 -253h-61z" />
    <glyph glyph-name="l" unicode="l" horiz-adv-x="192" 
d="M121 650v-650h-50v650h50z" />
    <glyph glyph-name="m" unicode="m" horiz-adv-x="713" 
d="M373 368q20 36 57 60.5t81 24.5q65 0 100 -42t35 -111v-300h-49v293q0 53 -24 83.5t-71 30.5q-40 0 -72 -26t-46 -67v-314h-50v293q0 53 -24 83.5t-71 30.5q-40 0 -72 -26t-46 -67v-314h-50v444h50v-68q18 34 51.5 55.5t76.5 21.5q93 0 124 -85z" />
    <glyph glyph-name="n" unicode="n" horiz-adv-x="483" 
d="M71 0v444h50v-71q22 34 59.5 57t82.5 23q74 0 114 -43.5t40 -115.5v-294h-49v287q0 54 -28.5 87t-85.5 33q-44 0 -80 -27t-53 -69v-311h-50z" />
    <glyph glyph-name="o" unicode="o" horiz-adv-x="471" 
d="M432 222q0 -103 -54.5 -167t-142.5 -64t-142 64t-54 167t54 167t142 64t142.5 -64t54.5 -167zM382 222q0 84 -40 135.5t-107 51.5q-66 0 -106 -51.5t-40 -135.5t40 -135.5t106 -51.5q67 0 107 51.5t40 135.5z" />
    <glyph glyph-name="p" unicode="p" horiz-adv-x="492" 
d="M121 66v-236h-50v614h50v-66q20 31 57.5 53t80.5 22q93 0 143.5 -66.5t50.5 -164.5t-50.5 -164.5t-143.5 -66.5q-43 0 -80.5 22t-57.5 53zM121 319v-194q46 -88 133 -88q69 0 109 51.5t40 133.5t-40 133.5t-109 51.5q-87 0 -133 -88z" />
    <glyph glyph-name="q" unicode="q" horiz-adv-x="492" 
d="M371 -170v236q-20 -31 -57.5 -53t-80.5 -22q-93 0 -143.5 66.5t-50.5 164.5t50.5 164.5t143.5 66.5q43 0 80.5 -22t57.5 -53v66h50v-614h-50zM371 125v194q-46 88 -133 88q-69 0 -109 -51.5t-40 -133.5t40 -133.5t109 -51.5q87 0 133 88z" />
    <glyph glyph-name="r" unicode="r" horiz-adv-x="301" 
d="M280 447v-49q-19 8 -41 8q-40 0 -71 -26t-47 -70v-310h-50v444h50v-71q16 35 48 57.5t72 22.5q19 0 39 -6z" />
    <glyph glyph-name="s" unicode="s" horiz-adv-x="399" 
d="M30 115h50q27 -81 124 -81q48 0 78 21t30 61q0 56 -82 79l-83 23q-105 28 -105 112q0 56 43 89.5t107 33.5q68 0 110.5 -32t54.5 -89h-49q-26 78 -116 78q-44 0 -73 -20.5t-29 -57.5q0 -30 18.5 -45t61.5 -27l79 -22q111 -29 111 -121q0 -59 -44 -92.5t-113 -33.5
q-68 0 -115.5 33t-57.5 91z" />
    <glyph glyph-name="t" unicode="t" horiz-adv-x="297" 
d="M91 103v298h-75v43h75v114h49v-114h115v-43h-115v-293q0 -72 64 -72q32 0 61 17v-47q-28 -15 -66 -15q-50 0 -79 28.5t-29 83.5z" />
    <glyph glyph-name="u" unicode="u" horiz-adv-x="481" 
d="M410 444v-444h-49v71q-22 -34 -59 -57t-82 -23q-74 0 -114 43.5t-40 115.5v294h49v-287q0 -54 28.5 -87t85.5 -33q44 0 79.5 27t52.5 69v311h49z" />
    <glyph glyph-name="v" unicode="v" horiz-adv-x="432" 
d="M238 0h-43l-177 444h53l146 -375l146 375h51z" />
    <glyph glyph-name="w" unicode="w" horiz-adv-x="604" 
d="M323 444l106 -366l109 366h48l-134 -444h-43l-107 367l-107 -367h-43l-134 444h49l109 -366l106 366h41z" />
    <glyph glyph-name="x" unicode="x" horiz-adv-x="431" 
d="M400 444l-157 -216l164 -228h-55l-137 190l-138 -190h-53l164 226l-157 218h55l130 -181l131 181h53z" />
    <glyph glyph-name="y" unicode="y" horiz-adv-x="432" 
d="M170 -170h-50l72 176l-174 438h53l146 -376l146 376h51z" />
    <glyph glyph-name="z" unicode="z" horiz-adv-x="416" 
d="M375 43v-43h-336v35l271 366h-266v43h328v-35l-270 -366h273z" />
    <glyph glyph-name="braceleft" unicode="{" horiz-adv-x="334" 
d="M152 213v-207q0 -45 42 -45h113v-45h-112q-40 0 -65.5 26t-25.5 67v206q0 45 -42 45h-42v46h42q42 0 42 45v206q0 41 25.5 67t65.5 26h112v-45h-113q-42 0 -42 -45v-207q0 -46 -40 -70q40 -26 40 -70z" />
    <glyph glyph-name="bar" unicode="|" horiz-adv-x="205" 
d="M79 -84v734h47v-734h-47z" />
    <glyph glyph-name="braceright" unicode="}" horiz-adv-x="334" 
d="M182 6v207q0 44 40 70q-40 24 -40 70v207q0 45 -42 45h-113v45h112q40 0 65.5 -26t25.5 -67v-206q0 -45 42 -45h42v-46h-42q-42 0 -42 -45v-206q0 -41 -25.5 -67t-65.5 -26h-112v45h113q42 0 42 45z" />
    <glyph glyph-name="asciitilde" unicode="~" horiz-adv-x="406" 
d="M321 329h45q0 -53 -23.5 -83.5t-65.5 -30.5q-35 0 -78 36t-64 36q-24 0 -37 -18.5t-13 -49.5h-45q0 52 24 82.5t66 30.5q34 0 77 -35.5t65 -35.5q49 0 49 68z" />
    <glyph glyph-name="uni00A0" unicode="&#xa0;" horiz-adv-x="221" 
 />
    <glyph glyph-name="exclamdown" unicode="&#xa1;" horiz-adv-x="209" 
d="M65 483q0 16 11 27t27 11q15 0 26 -11t11 -27t-11 -27.5t-26 -11.5q-16 0 -27 11.5t-11 27.5zM75 -96l10 422h36l10 -422h-56z" />
    <glyph glyph-name="cent" unicode="&#xa2;" horiz-adv-x="442" 
d="M39 232q0 98 49 161t130 69v86h45v-87q57 -7 93.5 -44t48.5 -94h-51q-10 45 -41 70t-78 25q-65 0 -105.5 -51t-40.5 -135t40.5 -135t105.5 -51q47 0 78 25t41 70h51q-12 -58 -48.5 -95t-93.5 -44v-86h-45v85q-81 7 -130 69.5t-49 161.5z" />
    <glyph glyph-name="sterling" unicode="&#xa3;" horiz-adv-x="483" 
d="M169 423v-100h169v-41h-169v-146q0 -59 -24 -91h307v-45h-421v45h65q25 38 25 91v146h-90v41h90v100q0 92 47.5 146t125.5 54q67 0 108 -36t53 -97h-49q-19 88 -112 88q-57 0 -91 -40.5t-34 -114.5z" />
    <glyph glyph-name="yen" unicode="&#xa5;" horiz-adv-x="516" 
d="M76 262v41h144l-191 311h56l174 -288l174 288h54l-191 -311h144v-41h-157v-77h157v-41h-157v-144h-50v144h-157v41h157v77h-157z" />
    <glyph glyph-name="section" unicode="&#xa7;" horiz-adv-x="443" 
d="M349 86q17 -28 17 -66q0 -56 -41.5 -89t-104.5 -33q-68 0 -111 33t-54 91h49q24 -82 116 -82q43 0 70.5 21t27.5 58q0 29 -11.5 44t-42.5 37l-146 100q-46 31 -68.5 58t-22.5 67q0 72 68 108q-18 28 -18 67q0 57 41.5 90t104.5 33q68 0 110.5 -33.5t54.5 -91.5h-49
q-24 82 -116 82q-43 0 -70.5 -20.5t-27.5 -57.5q0 -29 11.5 -44.5t42.5 -37.5l146 -99q46 -31 68.5 -58.5t22.5 -67.5q0 -36 -18.5 -65t-48.5 -44zM144 240l173 -120q52 21 52 74q0 18 -11 35t-22 26t-36 26l-174 119q-51 -20 -51 -74q0 -26 17 -44.5t52 -41.5z" />
    <glyph glyph-name="dieresis" unicode="&#xa8;" 
d="M155 571q0 14 9.5 23t23.5 9t23 -9.5t9 -22.5q0 -14 -9 -23.5t-23 -9.5t-23.5 9.5t-9.5 23.5zM280 571q0 13 9 22.5t23 9.5t23.5 -9.5t9.5 -22.5q0 -14 -9.5 -23.5t-23.5 -9.5t-23 9.5t-9 23.5z" />
    <glyph glyph-name="copyright" unicode="&#xa9;" horiz-adv-x="708" 
d="M670 307q0 -136 -92 -226t-224 -90q-131 0 -223 90t-92 226t92 226t223 90q132 0 224 -90t92 -226zM638 307q0 122 -82.5 203t-201.5 81t-201.5 -81t-82.5 -203t82.5 -203t201.5 -81t201.5 81t82.5 203zM183 309q0 89 50 144t126 55q59 0 98.5 -32t51.5 -86h-49
q-24 73 -101 73q-56 0 -91.5 -42.5t-35.5 -111.5t35.5 -111.5t91.5 -42.5q77 0 101 73h49q-12 -54 -51.5 -86t-98.5 -32q-76 0 -126 55t-50 144z" />
    <glyph glyph-name="ordfeminine" unicode="&#xaa;" horiz-adv-x="284" 
d="M249 321h-43v25q-10 -11 -33 -20.5t-47 -9.5q-46 0 -77.5 25t-31.5 67q0 41 32 66.5t79 25.5t78 -29v46q0 30 -18 48.5t-50 18.5q-50 0 -65 -45h-43q8 38 37.5 60.5t72.5 22.5q51 0 80 -28t29 -76v-197zM206 391v34q-7 17 -27.5 28t-44.5 11q-31 0 -52 -14.5t-21 -40.5
q0 -27 21 -42t52 -15q24 0 44.5 11t27.5 28z" />
    <glyph glyph-name="guillemotleft" unicode="&#xab;" horiz-adv-x="314" 
d="M166 86h-49l-92 136l92 136h49l-92 -136zM289 86h-49l-92 136l92 136h49l-92 -136z" />
    <glyph glyph-name="registered" unicode="&#xae;" horiz-adv-x="418" 
d="M390 440q0 -78 -53 -130.5t-128 -52.5t-128 52.5t-53 130.5t53 130.5t128 52.5t128 -52.5t53 -130.5zM362 440q0 67 -44.5 111t-108.5 44t-108.5 -44t-44.5 -111t44.5 -111.5t108.5 -44.5t108.5 44.5t44.5 111.5zM205 420h-30v-74h-33v192h78q30 0 48.5 -16t18.5 -43
q0 -47 -46 -57l53 -76h-39zM254 479q0 12 -9 20.5t-24 8.5h-46v-58h46q15 0 24 8.5t9 20.5z" />
    <glyph glyph-name="macron" unicode="&#xaf;" 
d="M149 537v41h201v-41h-201z" />
    <glyph glyph-name="degree" unicode="&#xb0;" horiz-adv-x="316" 
d="M85 508q0 -31 21.5 -52.5t51.5 -21.5q31 0 52.5 21.5t21.5 52.5t-21.5 53t-52.5 22q-30 0 -51.5 -22t-21.5 -53zM271 508q0 -47 -33 -80.5t-80 -33.5t-80 33.5t-33 80.5q0 48 33 81.5t80 33.5t80 -33.5t33 -81.5z" />
    <glyph glyph-name="plusminus" unicode="&#xb1;" horiz-adv-x="516" 
d="M237 495h42v-126h164v-42h-164v-126h-42v126h-164v42h164v126zM73 104v43h370v-43h-370z" />
    <glyph glyph-name="twosuperior" unicode="&#xb2;" horiz-adv-x="263" 
d="M190 525q0 25 -16 40t-42 15q-28 0 -45 -18t-19 -48h-45q5 47 34 76.5t75 29.5t73.5 -26t27.5 -69q0 -20 -11.5 -41.5t-20 -31.5t-33.5 -37l-86 -92h154v-38h-213v29l112 122q20 22 29.5 33t17.5 26.5t8 29.5z" />
    <glyph glyph-name="threesuperior" unicode="&#xb3;" horiz-adv-x="270" 
d="M110 436v35h24q26 0 43.5 15t17.5 41q0 23 -17 38.5t-44 15.5q-25 0 -42 -15.5t-22 -41.5h-43q6 42 35 69t72 27q47 0 75 -25.5t28 -66.5q0 -26 -15.5 -47t-38.5 -27q27 -7 43.5 -27.5t16.5 -48.5q0 -42 -29 -70t-79 -28q-48 0 -78.5 26.5t-35.5 71.5h45q10 -60 70 -60
q29 0 46.5 16t17.5 44q0 26 -18.5 42t-46.5 16h-25z" />
    <glyph glyph-name="acute" unicode="&#xb4;" 
d="M231 520h-49l83 130h53z" />
    <glyph glyph-name="paragraph" unicode="&#xb6;" horiz-adv-x="446" 
d="M324 -90v704h43v-704h-43zM213 -90v429q-78 0 -136.5 35t-58.5 103q0 67 58.5 102t136.5 35h44v-704h-44z" />
    <glyph glyph-name="periodcentered" unicode="&#xb7;" horiz-adv-x="151" 
d="M38 261q0 16 11 27.5t26 11.5q16 0 27 -11.5t11 -27.5t-11 -27t-27 -11q-15 0 -26 11t-11 27z" />
    <glyph glyph-name="cedilla" unicode="&#xb8;" 
d="M241 -175h-46l59 127h48z" />
    <glyph glyph-name="onesuperior" unicode="&#xb9;" horiz-adv-x="206" 
d="M148 615v-330h-43v279l-86 -44v45l101 50h28z" />
    <glyph glyph-name="ordmasculine" unicode="&#xba;" horiz-adv-x="304" 
d="M286 469q0 -69 -37 -111.5t-97 -42.5q-61 0 -98 42.5t-37 111.5q0 68 37 110.5t98 42.5t97.5 -42t36.5 -111zM241 469q0 51 -24.5 82.5t-64.5 31.5t-64.5 -31.5t-24.5 -82.5t24.5 -82.5t64.5 -31.5t64.5 31.5t24.5 82.5z" />
    <glyph glyph-name="guillemotright" unicode="&#xbb;" horiz-adv-x="314" 
d="M197 86h-49l92 136l-92 136h49l92 -136zM74 86h-49l92 136l-92 136h49l92 -136z" />
    <glyph glyph-name="onequarter" unicode="&#xbc;" horiz-adv-x="643" 
d="M539 614l-417 -614h-45l417 614h45zM177 615v-330h-44v279l-86 -44v45l102 50h28zM511 330l-118 -218h104v75h39v-75h58v-37h-58v-75h-39v75h-152v33l122 222h44z" />
    <glyph glyph-name="onehalf" unicode="&#xbd;" horiz-adv-x="653" 
d="M539 614l-417 -614h-45l417 614h45zM177 615v-330h-44v279l-86 -44v45l102 50h28zM551 240q0 26 -15.5 41t-41.5 15q-28 0 -45.5 -18.5t-19.5 -48.5h-45q5 48 34.5 77t75.5 29t73.5 -26t27.5 -68q0 -20 -12 -42.5t-20 -31t-34 -37.5l-86 -91h155v-39h-214v30l113 121
q20 22 29 33t17 26.5t8 29.5z" />
    <glyph glyph-name="threequarters" unicode="&#xbe;" horiz-adv-x="685" 
d="M581 614l-417 -614h-46l417 614h46zM136 435v35h24q26 0 43.5 15t17.5 41q0 24 -17 39.5t-44 15.5q-25 0 -42 -16t-22 -42h-43q6 43 35 69.5t72 26.5q47 0 75 -25.5t28 -66.5q0 -27 -15.5 -47.5t-38.5 -26.5q27 -7 43.5 -27t16.5 -49q0 -42 -29 -70t-79 -28
q-48 0 -78.5 26.5t-35.5 72.5h45q10 -61 70 -61q29 0 46.5 16.5t17.5 43.5t-18.5 42.5t-46.5 15.5h-25zM552 330l-118 -218h104v75h40v-75h57v-37h-57v-75h-40v75h-152v33l122 222h44z" />
    <glyph glyph-name="questiondown" unicode="&#xbf;" horiz-adv-x="422" 
d="M237 483q0 -16 -11 -27.5t-27 -11.5q-15 0 -26 11.5t-11 27.5t11 27t26 11q16 0 27 -11t11 -27zM27 62q0 13 3 27t6 24t12 24.5t12.5 21t17 22.5t16.5 19t19.5 21t17.5 19q42 45 43 85h47q-2 -33 -14 -56.5t-39 -54.5q-5 -6 -23 -25t-26 -29t-20 -27.5t-17 -34.5t-5 -36
q0 -56 35 -88t93 -32q63 0 100.5 39t44.5 106h52q-8 -87 -61 -139.5t-136 -52.5q-82 0 -130 45.5t-48 121.5z" />
    <glyph glyph-name="Agrave" unicode="&#xc0;" horiz-adv-x="579" 
d="M266 614h47l243 -614h-51l-80 202h-272l-79 -202h-51zM289 548l-118 -300h236zM313 665h-51l-87 117h55z" />
    <glyph glyph-name="Aacute" unicode="&#xc1;" horiz-adv-x="579" 
d="M266 614h47l243 -614h-51l-80 202h-272l-79 -202h-51zM289 548l-118 -300h236zM315 665h-50l82 117h56z" />
    <glyph glyph-name="Acircumflex" unicode="&#xc2;" horiz-adv-x="579" 
d="M266 614h47l243 -614h-51l-80 202h-272l-79 -202h-51zM289 548l-118 -300h236zM311 786l92 -119h-47l-67 84l-67 -84h-47l92 119h44z" />
    <glyph glyph-name="Atilde" unicode="&#xc3;" horiz-adv-x="579" 
d="M266 614h47l243 -614h-51l-80 202h-272l-79 -202h-51zM289 548l-118 -300h236zM380 769h35q0 -48 -18 -76t-51 -28q-27 0 -60 32t-50 32q-36 0 -36 -61h-36q0 48 18 76t51 28q28 0 60.5 -32t49.5 -32q35 0 37 61z" />
    <glyph glyph-name="Adieresis" unicode="&#xc4;" horiz-adv-x="579" 
d="M266 614h47l243 -614h-51l-80 202h-272l-79 -202h-51zM289 548l-118 -300h236zM195 715q0 14 9.5 23.5t23.5 9.5t23 -9.5t9 -23.5t-9.5 -23.5t-22.5 -9.5q-14 0 -23.5 9.5t-9.5 23.5zM320 715q0 14 9 23.5t23 9.5t23.5 -9.5t9.5 -23.5q0 -13 -9.5 -23t-23.5 -10
q-13 0 -22.5 9.5t-9.5 23.5z" />
    <glyph glyph-name="Aring" unicode="&#xc5;" horiz-adv-x="579" 
d="M266 614h47l243 -614h-51l-80 202h-272l-79 -202h-51zM289 548l-118 -300h236zM370 728q0 -34 -23.5 -57t-57.5 -23t-57.5 23t-23.5 57t23.5 57.5t57.5 23.5t57.5 -23.5t23.5 -57.5zM338 728q0 21 -14.5 35.5t-34.5 14.5t-34.5 -14.5t-14.5 -35.5q0 -20 14.5 -34.5
t34.5 -14.5t34.5 14.5t14.5 34.5z" />
    <glyph glyph-name="AE" unicode="&#xc6;" horiz-adv-x="858" 
d="M405 614h397v-47h-318v-227h287v-47h-287v-246h318v-47h-368v202h-231l-126 -202h-54zM434 569l-202 -321h202v321z" />
    <glyph glyph-name="Ccedilla" unicode="&#xc7;" horiz-adv-x="575" 
d="M39 307q0 143 77 229.5t193 86.5q88 0 148 -47.5t79 -128.5h-50q-20 60 -65.5 94t-111.5 34q-97 0 -157.5 -73t-60.5 -195t61 -195t157 -73q66 0 111.5 34t65.5 94h50q-19 -81 -79.5 -128.5t-147.5 -47.5q-116 0 -193 86.5t-77 229.5zM277 -175h-46l59 127h48z" />
    <glyph glyph-name="Egrave" unicode="&#xc8;" horiz-adv-x="515" 
d="M301 665h-51l-87 117h55zM79 614h381v-47h-331v-227h300v-47h-300v-246h331v-47h-381v614z" />
    <glyph glyph-name="Eacute" unicode="&#xc9;" horiz-adv-x="515" 
d="M294 665h-50l82 117h56zM79 614h381v-47h-331v-227h300v-47h-300v-246h331v-47h-381v614z" />
    <glyph glyph-name="Ecircumflex" unicode="&#xca;" horiz-adv-x="515" 
d="M79 614h381v-47h-331v-227h300v-47h-300v-246h331v-47h-381v614zM296 786l92 -119h-47l-67 84l-67 -84h-47l92 119h44z" />
    <glyph glyph-name="Edieresis" unicode="&#xcb;" horiz-adv-x="515" 
d="M179 715q0 14 9.5 23.5t23.5 9.5t23 -9.5t9 -23.5t-9.5 -23.5t-22.5 -9.5q-14 0 -23.5 9.5t-9.5 23.5zM304 715q0 14 9 23.5t23 9.5t23.5 -9.5t9.5 -23.5q0 -13 -9.5 -23t-23.5 -10q-13 0 -22.5 9.5t-9.5 23.5zM79 614h381v-47h-331v-227h300v-47h-300v-246h331v-47h-381
v614z" />
    <glyph glyph-name="Igrave" unicode="&#xcc;" horiz-adv-x="209" 
d="M130 614v-614h-51v614h51zM131 665h-51l-87 117h55z" />
    <glyph glyph-name="Iacute" unicode="&#xcd;" horiz-adv-x="209" 
d="M130 614v-614h-51v614h51zM124 665h-50l82 117h56z" />
    <glyph glyph-name="Icircumflex" unicode="&#xce;" horiz-adv-x="209" 
d="M130 614v-614h-51v614h51zM126 786l92 -119h-47l-67 84l-67 -84h-47l92 119h44z" />
    <glyph glyph-name="Idieresis" unicode="&#xcf;" horiz-adv-x="209" 
d="M130 614v-614h-51v614h51zM9 715q0 14 9.5 23.5t23.5 9.5t23 -9.5t9 -23.5t-9.5 -23.5t-22.5 -9.5q-14 0 -23.5 9.5t-9.5 23.5zM134 715q0 14 9 23.5t23 9.5t23.5 -9.5t9.5 -23.5q0 -13 -9.5 -23t-23.5 -10q-13 0 -22.5 9.5t-9.5 23.5z" />
    <glyph glyph-name="Eth" unicode="&#xd0;" horiz-adv-x="616" 
d="M34 295v45h58v274h187q134 0 216 -83.5t82 -223.5t-82 -223.5t-216 -83.5h-187v295h-58zM143 47h136q113 0 179.5 71t66.5 189t-66.5 189t-179.5 71h-136v-227h130v-45h-130v-248z" />
    <glyph glyph-name="Ntilde" unicode="&#xd1;" horiz-adv-x="616" 
d="M398 769h35q0 -48 -18 -76t-51 -28q-27 0 -60 32t-50 32q-36 0 -36 -61h-36q0 48 18 76t51 28q28 0 60.5 -32t49.5 -32q35 0 37 61zM537 614v-614h-34l-375 533v-533h-49v614h49l360 -512v512h49z" />
    <glyph glyph-name="Ograve" unicode="&#xd2;" horiz-adv-x="620" 
d="M337 665h-51l-87 117h55zM582 307q0 -140 -76.5 -228t-195.5 -88q-118 0 -194.5 88t-76.5 228t76.5 228t194.5 88q119 0 195.5 -88t76.5 -228zM530 307q0 119 -61 193.5t-159 74.5q-97 0 -158 -74.5t-61 -193.5t61 -193.5t158 -74.5q98 0 159 74.5t61 193.5z" />
    <glyph glyph-name="Oacute" unicode="&#xd3;" horiz-adv-x="620" 
d="M330 665h-50l82 117h56zM582 307q0 -140 -76.5 -228t-195.5 -88q-118 0 -194.5 88t-76.5 228t76.5 228t194.5 88q119 0 195.5 -88t76.5 -228zM530 307q0 119 -61 193.5t-159 74.5q-97 0 -158 -74.5t-61 -193.5t61 -193.5t158 -74.5q98 0 159 74.5t61 193.5z" />
    <glyph glyph-name="Ocircumflex" unicode="&#xd4;" horiz-adv-x="620" 
d="M582 307q0 -140 -76.5 -228t-195.5 -88q-118 0 -194.5 88t-76.5 228t76.5 228t194.5 88q119 0 195.5 -88t76.5 -228zM530 307q0 119 -61 193.5t-159 74.5q-97 0 -158 -74.5t-61 -193.5t61 -193.5t158 -74.5q98 0 159 74.5t61 193.5zM332 786l92 -119h-47l-67 84l-67 -84
h-47l92 119h44z" />
    <glyph glyph-name="Otilde" unicode="&#xd5;" horiz-adv-x="620" 
d="M401 769h35q0 -48 -18 -76t-51 -28q-27 0 -60 32t-50 32q-36 0 -36 -61h-36q0 48 18 76t51 28q28 0 60.5 -32t49.5 -32q35 0 37 61zM582 307q0 -140 -76.5 -228t-195.5 -88q-118 0 -194.5 88t-76.5 228t76.5 228t194.5 88q119 0 195.5 -88t76.5 -228zM530 307
q0 119 -61 193.5t-159 74.5q-97 0 -158 -74.5t-61 -193.5t61 -193.5t158 -74.5q98 0 159 74.5t61 193.5z" />
    <glyph glyph-name="Odieresis" unicode="&#xd6;" horiz-adv-x="620" 
d="M215 715q0 14 9.5 23.5t23.5 9.5t23 -9.5t9 -23.5t-9.5 -23.5t-22.5 -9.5q-14 0 -23.5 9.5t-9.5 23.5zM340 715q0 14 9 23.5t23 9.5t23.5 -9.5t9.5 -23.5q0 -13 -9.5 -23t-23.5 -10q-13 0 -22.5 9.5t-9.5 23.5zM582 307q0 -140 -76.5 -228t-195.5 -88q-118 0 -194.5 88
t-76.5 228t76.5 228t194.5 88q119 0 195.5 -88t76.5 -228zM530 307q0 119 -61 193.5t-159 74.5q-97 0 -158 -74.5t-61 -193.5t61 -193.5t158 -74.5q98 0 159 74.5t61 193.5z" />
    <glyph glyph-name="multiply" unicode="&#xd7;" horiz-adv-x="442" 
d="M193 292l-122 122l30 29l120 -122l120 122l30 -29l-120 -122l120 -122l-30 -29l-120 121l-120 -121l-30 29z" />
    <glyph glyph-name="Oslash" unicode="&#xd8;" horiz-adv-x="630" 
d="M50 7l64 79q-70 88 -70 221q0 140 76.5 228t194.5 88q105 0 177 -69l52 64l32 -24l-57 -70q68 -87 68 -217q0 -140 -76.5 -228t-195.5 -88q-101 0 -173 66l-60 -74zM96 307q0 -109 50 -181l315 390q-59 59 -146 59q-97 0 -158 -74.5t-61 -193.5zM535 307q0 106 -48 177
l-315 -389q58 -56 143 -56q98 0 159 74.5t61 193.5z" />
    <glyph glyph-name="Ugrave" unicode="&#xd9;" horiz-adv-x="605" 
d="M329 665h-51l-87 117h55zM302 -9q-104 0 -169.5 64.5t-65.5 186.5v372h51v-365q0 -104 50.5 -157.5t133.5 -53.5t134 53.5t51 157.5v365h51v-372q0 -122 -66 -186.5t-170 -64.5z" />
    <glyph glyph-name="Uacute" unicode="&#xda;" horiz-adv-x="605" 
d="M322 665h-50l82 117h56zM302 -9q-104 0 -169.5 64.5t-65.5 186.5v372h51v-365q0 -104 50.5 -157.5t133.5 -53.5t134 53.5t51 157.5v365h51v-372q0 -122 -66 -186.5t-170 -64.5z" />
    <glyph glyph-name="Ucircumflex" unicode="&#xdb;" horiz-adv-x="605" 
d="M302 -9q-104 0 -169.5 64.5t-65.5 186.5v372h51v-365q0 -104 50.5 -157.5t133.5 -53.5t134 53.5t51 157.5v365h51v-372q0 -122 -66 -186.5t-170 -64.5zM325 786l92 -119h-47l-67 84l-67 -84h-47l92 119h44z" />
    <glyph glyph-name="Udieresis" unicode="&#xdc;" horiz-adv-x="605" 
d="M208 715q0 14 9.5 23.5t23.5 9.5t23 -9.5t9 -23.5t-9.5 -23.5t-22.5 -9.5q-14 0 -23.5 9.5t-9.5 23.5zM333 715q0 14 9 23.5t23 9.5t23.5 -9.5t9.5 -23.5q0 -13 -10 -23t-23 -10t-22.5 9.5t-9.5 23.5zM302 -9q-104 0 -169.5 64.5t-65.5 186.5v372h51v-365
q0 -104 50.5 -157.5t133.5 -53.5t134 53.5t51 157.5v365h51v-372q0 -122 -66 -186.5t-170 -64.5z" />
    <glyph glyph-name="Yacute" unicode="&#xdd;" horiz-adv-x="535" 
d="M269 309l193 305h55l-224 -352v-262h-51v262l-223 352h56zM287 665h-50l82 117h56z" />
    <glyph glyph-name="Thorn" unicode="&#xde;" horiz-adv-x="529" 
d="M301 140h-171v-140h-51v614h51v-125h171q91 0 142.5 -45t51.5 -129q0 -85 -51.5 -130t-142.5 -45zM444 315q0 61 -37 94.5t-108 33.5h-169v-256h169q71 0 108 33.5t37 94.5z" />
    <glyph glyph-name="germandbls" unicode="&#xdf;" horiz-adv-x="501" 
d="M310 370q62 -9 106.5 -57t44.5 -125q0 -90 -52 -142.5t-135 -52.5q-54 0 -94 23v48q38 -26 92 -26q65 0 102.5 40t37.5 112q0 73 -47.5 114t-124.5 41h-43v44h43q52 0 86 33.5t34 83.5q0 47 -30.5 78t-82.5 31q-61 0 -94 -40.5t-33 -107.5v-467h-49v467q0 85 46 138.5
t130 53.5q74 0 117.5 -43.5t43.5 -107.5q0 -52 -28 -87.5t-70 -50.5z" />
    <glyph glyph-name="agrave" unicode="&#xe0;" horiz-adv-x="439" 
d="M373 0h-48v42q-16 -19 -50 -34t-73 -15q-70 0 -117 37.5t-47 99.5q0 60 48 98t118 38q36 0 70 -14.5t51 -32.5v79q0 50 -29.5 80.5t-81.5 30.5q-83 0 -108 -76h-49q13 56 55.5 88t101.5 32q74 0 116.5 -41.5t42.5 -111.5v-300zM325 101v57q-11 29 -44.5 47.5t-73.5 18.5
q-51 0 -86.5 -24.5t-35.5 -69.5t35.5 -70t86.5 -25q40 0 73.5 18.5t44.5 47.5zM253 520h-49l-87 130h53z" />
    <glyph glyph-name="aacute" unicode="&#xe1;" horiz-adv-x="439" 
d="M373 0h-48v42q-16 -19 -50 -34t-73 -15q-70 0 -117 37.5t-47 99.5q0 60 48 98t118 38q36 0 70 -14.5t51 -32.5v79q0 50 -29.5 80.5t-81.5 30.5q-83 0 -108 -76h-49q13 56 55.5 88t101.5 32q74 0 116.5 -41.5t42.5 -111.5v-300zM325 101v57q-11 29 -44.5 47.5t-73.5 18.5
q-51 0 -86.5 -24.5t-35.5 -69.5t35.5 -70t86.5 -25q40 0 73.5 18.5t44.5 47.5zM243 520h-49l83 130h53z" />
    <glyph glyph-name="acircumflex" unicode="&#xe2;" horiz-adv-x="439" 
d="M245 644l92 -131h-46l-68 97l-68 -97h-46l92 131h44zM373 0h-48v42q-16 -19 -50 -34t-73 -15q-70 0 -117 37.5t-47 99.5q0 60 48 98t118 38q36 0 70 -14.5t51 -32.5v79q0 50 -29.5 80.5t-81.5 30.5q-83 0 -108 -76h-49q13 56 55.5 88t101.5 32q74 0 116.5 -41.5
t42.5 -111.5v-300zM325 101v57q-11 29 -44.5 47.5t-73.5 18.5q-51 0 -86.5 -24.5t-35.5 -69.5t35.5 -70t86.5 -25q40 0 73.5 18.5t44.5 47.5z" />
    <glyph glyph-name="atilde" unicode="&#xe3;" horiz-adv-x="439" 
d="M373 0h-48v42q-16 -19 -50 -34t-73 -15q-70 0 -117 37.5t-47 99.5q0 60 48 98t118 38q36 0 70 -14.5t51 -32.5v79q0 50 -29.5 80.5t-81.5 30.5q-83 0 -108 -76h-49q13 56 55.5 88t101.5 32q74 0 116.5 -41.5t42.5 -111.5v-300zM325 101v57q-11 29 -44.5 47.5t-73.5 18.5
q-51 0 -86.5 -24.5t-35.5 -69.5t35.5 -70t86.5 -25q40 0 73.5 18.5t44.5 47.5zM312 625h35q0 -48 -17.5 -76.5t-50.5 -28.5q-27 0 -59.5 32.5t-48.5 32.5q-36 0 -36 -62h-35q0 48 17.5 76.5t50.5 28.5q28 0 60 -32.5t48 -32.5q17 0 26.5 17t9.5 45z" />
    <glyph glyph-name="adieresis" unicode="&#xe4;" horiz-adv-x="439" 
d="M128 571q0 14 9.5 23t23.5 9q13 0 22.5 -9.5t9.5 -22.5q0 -14 -9 -23.5t-23 -9.5t-23.5 9.5t-9.5 23.5zM253 571q0 13 9.5 22.5t22.5 9.5q14 0 23.5 -9.5t9.5 -22.5q0 -14 -9.5 -23.5t-23.5 -9.5t-23 9.5t-9 23.5zM373 0h-48v42q-16 -19 -50 -34t-73 -15q-70 0 -117 37.5
t-47 99.5q0 60 48 98t118 38q36 0 70 -14.5t51 -32.5v79q0 50 -29.5 80.5t-81.5 30.5q-83 0 -108 -76h-49q13 56 55.5 88t101.5 32q74 0 116.5 -41.5t42.5 -111.5v-300zM325 101v57q-11 29 -44.5 47.5t-73.5 18.5q-51 0 -86.5 -24.5t-35.5 -69.5t35.5 -70t86.5 -25
q40 0 73.5 18.5t44.5 47.5z" />
    <glyph glyph-name="aring" unicode="&#xe5;" horiz-adv-x="439" 
d="M373 0h-48v42q-16 -19 -50 -34t-73 -15q-70 0 -117 37.5t-47 99.5q0 60 48 98t118 38q36 0 70 -14.5t51 -32.5v79q0 50 -29.5 80.5t-81.5 30.5q-83 0 -108 -76h-49q13 56 55.5 88t101.5 32q74 0 116.5 -41.5t42.5 -111.5v-300zM325 101v57q-11 29 -44.5 47.5t-73.5 18.5
q-51 0 -86.5 -24.5t-35.5 -69.5t35.5 -70t86.5 -25q40 0 73.5 18.5t44.5 47.5zM302 580q0 -34 -23.5 -57.5t-57.5 -23.5t-57.5 23.5t-23.5 57.5t23.5 57.5t57.5 23.5t57.5 -23.5t23.5 -57.5zM270 580q0 21 -14.5 35t-34.5 14t-34.5 -14t-14.5 -35t14.5 -35t34.5 -14t34.5 14
t14.5 35z" />
    <glyph glyph-name="ae" unicode="&#xe6;" horiz-adv-x="731" 
d="M188 35q50 0 85 29t49 74v79h-119q-51 0 -86 -23.5t-35 -67.5t30 -67.5t76 -23.5zM638 129h48q-13 -63 -58 -100.5t-114 -37.5q-112 0 -166 104q-56 -102 -162 -102q-66 0 -109 36t-43 95q0 61 48 97.5t119 36.5h121v40q0 50 -29.5 80.5t-81.5 30.5q-84 0 -109 -76h-48
q13 56 55.5 88t101.5 32q56 0 94 -26.5t51 -72.5q55 99 157 99q87 0 134 -59.5t47 -157.5v-18h-327q1 -85 41.5 -134t105.5 -49q48 0 80.5 25t43.5 69zM513 409q-60 0 -99 -41t-46 -111h275q-2 64 -34.5 108t-95.5 44z" />
    <glyph glyph-name="ccedilla" unicode="&#xe7;" horiz-adv-x="442" 
d="M39 222q0 103 54 167t142 64q69 0 113.5 -37.5t56.5 -100.5h-51q-10 44 -41 68.5t-78 24.5q-65 0 -105.5 -51t-40.5 -135t40.5 -135t105.5 -51q47 0 78 24.5t41 68.5h51q-12 -63 -56.5 -100.5t-113.5 -37.5q-88 0 -142 64t-54 167zM203 -175h-46l59 127h48z" />
    <glyph glyph-name="egrave" unicode="&#xe8;" horiz-adv-x="453" 
d="M360 129h48q-13 -63 -58.5 -100.5t-113.5 -37.5q-88 0 -142.5 64t-54.5 167q0 101 53.5 166t142.5 65q86 0 133 -59.5t47 -157.5v-18h-327q1 -84 42 -133.5t106 -49.5q47 0 80.5 25t43.5 69zM235 409q-60 0 -98.5 -41t-46.5 -111h275q-2 64 -35 108t-95 44zM264 520h-49
l-87 130h53z" />
    <glyph glyph-name="eacute" unicode="&#xe9;" horiz-adv-x="453" 
d="M257 520h-49l83 130h53zM360 129h48q-13 -63 -58.5 -100.5t-113.5 -37.5q-88 0 -142.5 64t-54.5 167q0 101 53.5 166t142.5 65q86 0 133 -59.5t47 -157.5v-18h-327q1 -84 42 -133.5t106 -49.5q47 0 80.5 25t43.5 69zM235 409q-60 0 -98.5 -41t-46.5 -111h275
q-2 64 -35 108t-95 44z" />
    <glyph glyph-name="ecircumflex" unicode="&#xea;" horiz-adv-x="453" 
d="M259 644l92 -131h-46l-68 97l-68 -97h-46l92 131h44zM360 129h48q-13 -63 -58.5 -100.5t-113.5 -37.5q-88 0 -142.5 64t-54.5 167q0 101 53.5 166t142.5 65q86 0 133 -59.5t47 -157.5v-18h-327q1 -84 42 -133.5t106 -49.5q47 0 80.5 25t43.5 69zM235 409q-60 0 -98.5 -41
t-46.5 -111h275q-2 64 -35 108t-95 44z" />
    <glyph glyph-name="edieresis" unicode="&#xeb;" horiz-adv-x="453" 
d="M143 571q0 14 9.5 23t23.5 9t23 -9.5t9 -22.5q0 -14 -9 -23.5t-23 -9.5t-23.5 9.5t-9.5 23.5zM268 571q0 13 9 22.5t23 9.5t23.5 -9.5t9.5 -22.5q0 -14 -9.5 -23.5t-23.5 -9.5t-23 9.5t-9 23.5zM360 129h48q-13 -63 -58.5 -100.5t-113.5 -37.5q-88 0 -142.5 64t-54.5 167
q0 101 53.5 166t142.5 65q86 0 133 -59.5t47 -157.5v-18h-327q1 -84 42 -133.5t106 -49.5q47 0 80.5 25t43.5 69zM235 409q-60 0 -98.5 -41t-46.5 -111h275q-2 64 -35 108t-95 44z" />
    <glyph glyph-name="igrave" unicode="&#xec;" horiz-adv-x="192" 
d="M121 444v-444h-50v444h50zM123 520h-49l-87 130h53z" />
    <glyph glyph-name="iacute" unicode="&#xed;" horiz-adv-x="192" 
d="M116 520h-49l83 130h53zM121 444v-444h-50v444h50z" />
    <glyph glyph-name="icircumflex" unicode="&#xee;" horiz-adv-x="192" 
d="M118 644l72 -131h-44l-50 94l-50 -94h-44l72 131h44zM121 444v-444h-50v444h50z" />
    <glyph glyph-name="idieresis" unicode="&#xef;" horiz-adv-x="192" 
d="M10 571q0 13 9.5 22.5t23.5 9.5t23.5 -9.5t9.5 -22.5q0 -14 -9.5 -23.5t-23.5 -9.5t-23.5 9.5t-9.5 23.5zM117 571q0 13 9.5 22.5t22.5 9.5q14 0 23.5 -9t9.5 -23t-9.5 -23.5t-23.5 -9.5t-23 9.5t-9 23.5zM121 444v-444h-50v444h50z" />
    <glyph glyph-name="eth" unicode="&#xf0;" horiz-adv-x="471" 
d="M138 501l-13 34l98 32q-46 43 -98 79v4h63q45 -31 82 -68l81 27l12 -33l-65 -22q134 -149 134 -330q0 -104 -54.5 -168.5t-142.5 -64.5t-142 64t-54 166q0 103 53.5 166.5t139.5 63.5q72 0 120 -58h2q-32 73 -102 146zM382 221q0 84 -40 135t-107 51q-66 0 -106 -51
t-40 -135q0 -83 40 -134.5t106 -51.5q67 0 107 51t40 135z" />
    <glyph glyph-name="ntilde" unicode="&#xf1;" horiz-adv-x="483" 
d="M71 0v444h50v-71q22 34 59.5 57t82.5 23q74 0 114 -43.5t40 -115.5v-294h-49v287q0 54 -28.5 87t-85.5 33q-44 0 -80 -27t-53 -69v-311h-50zM333 625h35q0 -48 -17.5 -76.5t-50.5 -28.5q-27 0 -59.5 32.5t-48.5 32.5q-36 0 -36 -62h-35q0 48 17.5 76.5t50.5 28.5
q22 0 41.5 -16t36 -32.5t30.5 -16.5q17 0 26.5 17t9.5 45z" />
    <glyph glyph-name="ograve" unicode="&#xf2;" horiz-adv-x="471" 
d="M432 222q0 -103 -54.5 -167t-142.5 -64t-142 64t-54 167t54 167t142 64t142.5 -64t54.5 -167zM382 222q0 84 -40 135.5t-107 51.5q-66 0 -106 -51.5t-40 -135.5t40 -135.5t106 -51.5q67 0 107 51.5t40 135.5zM262 520h-49l-87 130h53z" />
    <glyph glyph-name="oacute" unicode="&#xf3;" horiz-adv-x="471" 
d="M255 520h-49l83 130h53zM432 222q0 -103 -54.5 -167t-142.5 -64t-142 64t-54 167t54 167t142 64t142.5 -64t54.5 -167zM382 222q0 84 -40 135.5t-107 51.5q-66 0 -106 -51.5t-40 -135.5t40 -135.5t106 -51.5q67 0 107 51.5t40 135.5z" />
    <glyph glyph-name="ocircumflex" unicode="&#xf4;" horiz-adv-x="471" 
d="M257 644l92 -131h-46l-68 97l-68 -97h-46l92 131h44zM432 222q0 -103 -54.5 -167t-142.5 -64t-142 64t-54 167t54 167t142 64t142.5 -64t54.5 -167zM382 222q0 84 -40 135.5t-107 51.5q-66 0 -106 -51.5t-40 -135.5t40 -135.5t106 -51.5q67 0 107 51.5t40 135.5z" />
    <glyph glyph-name="otilde" unicode="&#xf5;" horiz-adv-x="471" 
d="M432 222q0 -103 -54.5 -167t-142.5 -64t-142 64t-54 167t54 167t142 64t142.5 -64t54.5 -167zM382 222q0 84 -40 135.5t-107 51.5q-66 0 -106 -51.5t-40 -135.5t40 -135.5t106 -51.5q67 0 107 51.5t40 135.5zM324 625h35q0 -48 -17.5 -76.5t-50.5 -28.5q-27 0 -59.5 32.5
t-48.5 32.5q-36 0 -36 -62h-35q0 48 17.5 76.5t50.5 28.5q28 0 60 -32.5t48 -32.5q17 0 26.5 17t9.5 45z" />
    <glyph glyph-name="odieresis" unicode="&#xf6;" horiz-adv-x="471" 
d="M141 571q0 14 9.5 23t23.5 9t23 -9.5t9 -22.5q0 -14 -9 -23.5t-23 -9.5t-23.5 9.5t-9.5 23.5zM266 571q0 13 9 22.5t23 9.5t23.5 -9.5t9.5 -22.5q0 -14 -9.5 -23.5t-23.5 -9.5t-23 9.5t-9 23.5zM432 222q0 -103 -54.5 -167t-142.5 -64t-142 64t-54 167t54 167t142 64
t142.5 -64t54.5 -167zM382 222q0 84 -40 135.5t-107 51.5q-66 0 -106 -51.5t-40 -135.5t40 -135.5t106 -51.5q67 0 107 51.5t40 135.5z" />
    <glyph glyph-name="divide" unicode="&#xf7;" horiz-adv-x="514" 
d="M71 273v43h372v-43h-372zM220 447q0 16 11 27t26 11q14 0 25 -11t11 -27q0 -15 -11 -25.5t-25 -10.5q-15 0 -26 10.5t-11 25.5zM220 142q0 15 11 26t26 11q14 0 25 -11t11 -26q0 -16 -10.5 -26.5t-25.5 -10.5t-26 10.5t-11 26.5z" />
    <glyph glyph-name="oslash" unicode="&#xf8;" horiz-adv-x="481" 
d="M44 -1l49 62q-49 61 -49 161q0 103 54 167t142 64q72 0 123 -45l42 54l29 -21l-46 -59q49 -63 49 -160q0 -103 -54.5 -167t-142.5 -64q-71 0 -123 44l-44 -57zM93 222q0 -76 30 -122l212 272q-39 37 -95 37q-66 0 -106.5 -51.5t-40.5 -135.5zM388 222q0 72 -30 121
l-212 -271q37 -37 94 -37q67 0 107.5 51.5t40.5 135.5z" />
    <glyph glyph-name="ugrave" unicode="&#xf9;" horiz-adv-x="481" 
d="M410 444v-444h-49v71q-22 -34 -59 -57t-82 -23q-74 0 -114 43.5t-40 115.5v294h49v-287q0 -54 28.5 -87t85.5 -33q44 0 79.5 27t52.5 69v311h49zM266 520h-49l-87 130h53z" />
    <glyph glyph-name="uacute" unicode="&#xfa;" horiz-adv-x="481" 
d="M259 520h-49l83 130h53zM410 444v-444h-49v71q-22 -34 -59 -57t-82 -23q-74 0 -114 43.5t-40 115.5v294h49v-287q0 -54 28.5 -87t85.5 -33q44 0 79.5 27t52.5 69v311h49z" />
    <glyph glyph-name="ucircumflex" unicode="&#xfb;" horiz-adv-x="481" 
d="M261 644l92 -131h-46l-68 97l-68 -97h-46l92 131h44zM410 444v-444h-49v71q-22 -34 -59 -57t-82 -23q-74 0 -114 43.5t-40 115.5v294h49v-287q0 -54 28.5 -87t85.5 -33q44 0 79.5 27t52.5 69v311h49z" />
    <glyph glyph-name="udieresis" unicode="&#xfc;" horiz-adv-x="481" 
d="M144 571q0 14 9.5 23t23.5 9q13 0 22.5 -9.5t9.5 -22.5q0 -14 -9 -23.5t-23 -9.5t-23.5 9.5t-9.5 23.5zM269 571q0 13 9.5 22.5t22.5 9.5q14 0 23.5 -9.5t9.5 -22.5q0 -14 -9.5 -23.5t-23.5 -9.5t-23 9.5t-9 23.5zM410 444v-444h-49v71q-22 -34 -59 -57t-82 -23
q-74 0 -114 43.5t-40 115.5v294h49v-287q0 -54 28.5 -87t85.5 -33q44 0 79.5 27t52.5 69v311h49z" />
    <glyph glyph-name="yacute" unicode="&#xfd;" horiz-adv-x="432" 
d="M170 -170h-50l72 176l-174 438h53l146 -376l146 376h51zM236 520h-49l83 130h53z" />
    <glyph glyph-name="thorn" unicode="&#xfe;" horiz-adv-x="492" 
d="M121 66v-236h-50v820h50v-272q20 31 57.5 53t80.5 22q93 0 143.5 -66.5t50.5 -164.5t-50.5 -164.5t-143.5 -66.5q-43 0 -80.5 22t-57.5 53zM121 319v-194q46 -88 133 -88q69 0 109 51.5t40 133.5t-40 133.5t-109 51.5q-87 0 -133 -88z" />
    <glyph glyph-name="ydieresis" unicode="&#xff;" horiz-adv-x="432" 
d="M170 -170h-50l72 176l-174 438h53l146 -376l146 376h51zM122 571q0 14 9.5 23t23.5 9q13 0 22.5 -9.5t9.5 -22.5q0 -14 -9 -23.5t-23 -9.5t-23.5 9.5t-9.5 23.5zM247 571q0 13 9.5 22.5t22.5 9.5q14 0 23.5 -9.5t9.5 -22.5q0 -14 -9.5 -23.5t-23.5 -9.5t-23 9.5t-9 23.5z
" />
    <glyph glyph-name="Amacron" unicode="&#x100;" horiz-adv-x="579" 
d="M266 614h47l243 -614h-51l-80 202h-272l-79 -202h-51zM289 548l-118 -300h236zM189 670v42h201v-42h-201z" />
    <glyph glyph-name="amacron" unicode="&#x101;" horiz-adv-x="439" 
d="M373 0h-48v42q-16 -19 -50 -34t-73 -15q-70 0 -117 37.5t-47 99.5q0 60 48 98t118 38q36 0 70 -14.5t51 -32.5v79q0 50 -29.5 80.5t-81.5 30.5q-83 0 -108 -76h-49q13 56 55.5 88t101.5 32q74 0 116.5 -41.5t42.5 -111.5v-300zM325 101v57q-11 29 -44.5 47.5t-73.5 18.5
q-51 0 -86.5 -24.5t-35.5 -69.5t35.5 -70t86.5 -25q40 0 73.5 18.5t44.5 47.5zM123 537v41h201v-41h-201z" />
    <glyph glyph-name="Abreve" unicode="&#x102;" horiz-adv-x="579" 
d="M266 614h47l243 -614h-51l-80 202h-272l-79 -202h-51zM289 548l-118 -300h236zM290 664q-46 0 -74.5 30.5t-28.5 86.5h40q0 -37 17.5 -58t45.5 -21t45.5 21t17.5 58h39q0 -56 -28 -86.5t-74 -30.5z" />
    <glyph glyph-name="abreve" unicode="&#x103;" horiz-adv-x="439" 
d="M373 0h-48v42q-16 -19 -50 -34t-73 -15q-70 0 -117 37.5t-47 99.5q0 60 48 98t118 38q36 0 70 -14.5t51 -32.5v79q0 50 -29.5 80.5t-81.5 30.5q-83 0 -108 -76h-49q13 56 55.5 88t101.5 32q74 0 116.5 -41.5t42.5 -111.5v-300zM325 101v57q-11 29 -44.5 47.5t-73.5 18.5
q-51 0 -86.5 -24.5t-35.5 -69.5t35.5 -70t86.5 -25q40 0 73.5 18.5t44.5 47.5zM221 506q-46 0 -74 31.5t-28 88.5h40q0 -39 17 -61t45 -22t45 22t17 61h40q0 -57 -28 -88.5t-74 -31.5z" />
    <glyph glyph-name="Aogonek" unicode="&#x104;" horiz-adv-x="579" 
d="M266 614h47l243 -614q-31 -54 -40.5 -75.5t-9.5 -41.5q0 -28 25 -28q17 0 37 14v-36q-22 -15 -45 -15q-26 0 -41.5 15.5t-15.5 44.5q0 22 10.5 46.5t40.5 75.5h-12l-80 202h-272l-79 -202h-51zM289 548l-118 -300h236z" />
    <glyph glyph-name="aogonek" unicode="&#x105;" horiz-adv-x="439" 
d="M325 101v57q-11 29 -44.5 47.5t-73.5 18.5q-51 0 -86.5 -24.5t-35.5 -69.5t35.5 -70t86.5 -25q40 0 73.5 18.5t44.5 47.5zM333 0h-8v42q-17 -19 -51 -34t-72 -15q-70 0 -117 37.5t-47 99.5q0 60 48 98t118 38q36 0 70 -14.5t51 -32.5v79q0 50 -29.5 80.5t-81.5 30.5
q-84 0 -109 -76h-48q13 56 55.5 88t101.5 32q74 0 116.5 -41.5t42.5 -111.5v-300q-31 -53 -40.5 -75.5t-9.5 -41.5q0 -28 25 -28q17 0 37 14v-36q-22 -15 -45 -15q-26 0 -41.5 15.5t-15.5 44.5q0 38 50 122z" />
    <glyph glyph-name="Cacute" unicode="&#x106;" horiz-adv-x="575" 
d="M39 307q0 143 77 229.5t193 86.5q88 0 148 -47.5t79 -128.5h-50q-20 60 -65.5 94t-111.5 34q-97 0 -157.5 -73t-60.5 -195t61 -195t157 -73q66 0 111.5 34t65.5 94h50q-19 -81 -79.5 -128.5t-147.5 -47.5q-116 0 -193 86.5t-77 229.5zM334 665h-50l82 117h56z" />
    <glyph glyph-name="cacute" unicode="&#x107;" horiz-adv-x="442" 
d="M257 520h-49l83 130h53zM39 222q0 103 54 167t142 64q69 0 113.5 -37.5t56.5 -100.5h-51q-10 44 -41 68.5t-78 24.5q-65 0 -105.5 -51t-40.5 -135t40.5 -135t105.5 -51q47 0 78 24.5t41 68.5h51q-12 -63 -56.5 -100.5t-113.5 -37.5q-88 0 -142 64t-54 167z" />
    <glyph glyph-name="Ccircumflex" unicode="&#x108;" horiz-adv-x="575" 
d="M39 307q0 143 77 229.5t193 86.5q88 0 148 -47.5t79 -128.5h-50q-20 60 -65.5 94t-111.5 34q-97 0 -157.5 -73t-60.5 -195t61 -195t157 -73q66 0 111.5 34t65.5 94h50q-19 -81 -79.5 -128.5t-147.5 -47.5q-116 0 -193 86.5t-77 229.5zM336 786l92 -119h-47l-67 84
l-67 -84h-47l92 119h44z" />
    <glyph glyph-name="ccircumflex" unicode="&#x109;" horiz-adv-x="442" 
d="M260 644l92 -131h-46l-68 97l-68 -97h-46l92 131h44zM39 222q0 103 54 167t142 64q69 0 113.5 -37.5t56.5 -100.5h-51q-10 44 -41 68.5t-78 24.5q-65 0 -105.5 -51t-40.5 -135t40.5 -135t105.5 -51q47 0 78 24.5t41 68.5h51q-12 -63 -56.5 -100.5t-113.5 -37.5
q-88 0 -142 64t-54 167z" />
    <glyph glyph-name="Cdotaccent" unicode="&#x10a;" horiz-adv-x="575" 
d="M347 714q0 -14 -10 -24t-24 -10t-24 10t-10 24t10 24t24 10t24 -10t10 -24zM39 307q0 143 77 229.5t193 86.5q88 0 148 -47.5t79 -128.5h-50q-20 60 -65.5 94t-111.5 34q-97 0 -157.5 -73t-60.5 -195t61 -195t157 -73q66 0 111.5 34t65.5 94h50q-19 -81 -79.5 -128.5
t-147.5 -47.5q-116 0 -193 86.5t-77 229.5z" />
    <glyph glyph-name="cdotaccent" unicode="&#x10b;" horiz-adv-x="442" 
d="M39 222q0 103 54 167t142 64q69 0 113.5 -37.5t56.5 -100.5h-51q-10 44 -41 68.5t-78 24.5q-65 0 -105.5 -51t-40.5 -135t40.5 -135t105.5 -51q47 0 78 24.5t41 68.5h51q-12 -63 -56.5 -100.5t-113.5 -37.5q-88 0 -142 64t-54 167zM272 579q0 -14 -10 -24t-24 -10t-24 10
t-10 24t10 24t24 10t24 -10t10 -24z" />
    <glyph glyph-name="Ccaron" unicode="&#x10c;" horiz-adv-x="575" 
d="M291 660l-92 119h47l67 -83l67 83h47l-92 -119h-44zM39 307q0 143 77 229.5t193 86.5q88 0 148 -47.5t79 -128.5h-50q-20 60 -65.5 94t-111.5 34q-97 0 -157.5 -73t-60.5 -195t61 -195t157 -73q66 0 111.5 34t65.5 94h50q-19 -81 -79.5 -128.5t-147.5 -47.5
q-116 0 -193 86.5t-77 229.5z" />
    <glyph glyph-name="ccaron" unicode="&#x10d;" horiz-adv-x="442" 
d="M352 645l-92 -130h-44l-92 130h46l68 -95l68 95h46zM39 222q0 103 54 167t142 64q69 0 113.5 -37.5t56.5 -100.5h-51q-10 44 -41 68.5t-78 24.5q-65 0 -105.5 -51t-40.5 -135t40.5 -135t105.5 -51q47 0 78 24.5t41 68.5h51q-12 -63 -56.5 -100.5t-113.5 -37.5
q-88 0 -142 64t-54 167z" />
    <glyph glyph-name="Dcaron" unicode="&#x10e;" horiz-adv-x="602" 
d="M255 660l-92 119h47l67 -83l67 83h47l-92 -119h-44zM130 47h136q113 0 179.5 71t66.5 189t-66.5 189t-179.5 71h-136v-520zM79 0v614h187q134 0 216 -83.5t82 -223.5t-82 -223.5t-216 -83.5h-187z" />
    <glyph glyph-name="dcaron" unicode="&#x10f;" horiz-adv-x="492" 
d="M518 490h-41l33 160h40zM371 0v66q-20 -31 -57.5 -53t-80.5 -22q-94 0 -144 66.5t-50 164.5t50 164.5t144 66.5q43 0 80.5 -22t57.5 -53v272h49v-650h-49zM371 125v194q-22 42 -57.5 65t-76.5 23q-68 0 -108 -51.5t-40 -133.5t40 -133.5t108 -51.5q41 0 76.5 23t57.5 65z
" />
    <glyph glyph-name="Dcroat" unicode="&#x110;" horiz-adv-x="616" 
d="M34 295v45h58v274h187q134 0 216 -83.5t82 -223.5t-82 -223.5t-216 -83.5h-187v295h-58zM143 47h136q113 0 179.5 71t66.5 189t-66.5 189t-179.5 71h-136v-227h130v-45h-130v-248z" />
    <glyph glyph-name="dcroat" unicode="&#x111;" horiz-adv-x="492" 
d="M256 520v37h115v93h49v-93h53v-37h-53v-520h-49v66q-20 -31 -57.5 -53t-80.5 -22q-94 0 -144 66.5t-50 164.5t50 164.5t144 66.5q43 0 80.5 -22t57.5 -53v142h-115zM371 125v194q-22 42 -57.5 65t-76.5 23q-68 0 -108 -51.5t-40 -133.5t40 -133.5t108 -51.5q41 0 76.5 23
t57.5 65z" />
    <glyph glyph-name="Emacron" unicode="&#x112;" horiz-adv-x="515" 
d="M174 670v42h201v-42h-201zM79 614h381v-47h-331v-227h300v-47h-300v-246h331v-47h-381v614z" />
    <glyph glyph-name="emacron" unicode="&#x113;" horiz-adv-x="453" 
d="M137 537v41h201v-41h-201zM360 129h48q-13 -63 -58.5 -100.5t-113.5 -37.5q-88 0 -142.5 64t-54.5 167q0 101 53.5 166t142.5 65q86 0 133 -59.5t47 -157.5v-18h-327q1 -84 42 -133.5t106 -49.5q47 0 80.5 25t43.5 69zM235 409q-60 0 -98.5 -41t-46.5 -111h275
q-2 64 -35 108t-95 44z" />
    <glyph glyph-name="Ebreve" unicode="&#x114;" horiz-adv-x="515" 
d="M274 664q-46 0 -74.5 30.5t-28.5 86.5h40q0 -37 17.5 -58t45.5 -21t45.5 21t17.5 58h39q0 -56 -28 -86.5t-74 -30.5zM79 614h381v-47h-331v-227h300v-47h-300v-246h331v-47h-381v614z" />
    <glyph glyph-name="ebreve" unicode="&#x115;" horiz-adv-x="453" 
d="M360 129h48q-13 -63 -58.5 -100.5t-113.5 -37.5q-88 0 -142.5 64t-54.5 167q0 101 53.5 166t142.5 65q86 0 133 -59.5t47 -157.5v-18h-327q1 -84 42 -133.5t106 -49.5q47 0 80.5 25t43.5 69zM235 409q-60 0 -98.5 -41t-46.5 -111h275q-2 64 -35 108t-95 44zM237 506
q-46 0 -74 31.5t-28 88.5h40q0 -39 17 -61t45 -22t45 22t17 61h40q0 -57 -28 -88.5t-74 -31.5z" />
    <glyph glyph-name="Edotaccent" unicode="&#x116;" horiz-adv-x="515" 
d="M308 714q0 -14 -10 -24t-24 -10t-24 10t-10 24t10 24t24 10t24 -10t10 -24zM79 614h381v-47h-331v-227h300v-47h-300v-246h331v-47h-381v614z" />
    <glyph glyph-name="edotaccent" unicode="&#x117;" horiz-adv-x="453" 
d="M360 129h48q-13 -63 -58.5 -100.5t-113.5 -37.5q-88 0 -142.5 64t-54.5 167q0 101 53.5 166t142.5 65q86 0 133 -59.5t47 -157.5v-18h-327q1 -84 42 -133.5t106 -49.5q47 0 80.5 25t43.5 69zM235 409q-60 0 -98.5 -41t-46.5 -111h275q-2 64 -35 108t-95 44zM271 579
q0 -14 -10 -24t-24 -10t-24 10t-10 24t10 24t24 10t24 -10t10 -24z" />
    <glyph glyph-name="Eogonek" unicode="&#x118;" horiz-adv-x="515" 
d="M79 614h381v-47h-331v-227h300v-47h-300v-246h331v-47h-35q-30 -51 -39.5 -74t-9.5 -43q0 -28 25 -28q17 0 37 14v-36q-22 -15 -45 -15q-26 0 -41.5 15.5t-15.5 44.5q0 22 10.5 46.5t38.5 75.5h-306v614z" />
    <glyph glyph-name="eogonek" unicode="&#x119;" horiz-adv-x="453" 
d="M235 409q-60 0 -98.5 -41t-46.5 -111h275q-2 64 -35 108t-95 44zM292 3q-26 -12 -56 -12q-88 0 -142.5 64t-54.5 167q0 101 53.5 166t142.5 65q86 0 133 -59.5t47 -157.5v-18h-327q1 -84 42 -133.5t106 -49.5q47 0 80.5 25t43.5 69h48q-12 -54 -61 -106q-77 -82 -77 -134
q0 -34 26 -34q15 0 37 14v-36q-23 -15 -45 -15q-26 0 -42.5 16.5t-16.5 45.5q0 50 63 123z" />
    <glyph glyph-name="Ecaron" unicode="&#x11a;" horiz-adv-x="515" 
d="M254 660l-92 119h47l67 -83l67 83h47l-92 -119h-44zM79 614h381v-47h-331v-227h300v-47h-300v-246h331v-47h-381v614z" />
    <glyph glyph-name="ecaron" unicode="&#x11b;" horiz-adv-x="453" 
d="M351 645l-92 -130h-44l-92 130h46l68 -95l68 95h46zM360 129h48q-13 -63 -58.5 -100.5t-113.5 -37.5q-88 0 -142.5 64t-54.5 167q0 101 53.5 166t142.5 65q86 0 133 -59.5t47 -157.5v-18h-327q1 -84 42 -133.5t106 -49.5q47 0 80.5 25t43.5 69zM235 409q-60 0 -98.5 -41
t-46.5 -111h275q-2 64 -35 108t-95 44z" />
    <glyph glyph-name="Gcircumflex" unicode="&#x11c;" horiz-adv-x="598" 
d="M338 786l92 -119h-47l-67 84l-67 -84h-47l92 119h44zM511 243h-160v45h209v-36q0 -118 -67 -189.5t-179 -71.5q-118 0 -196.5 86.5t-78.5 229.5t78.5 229.5t195.5 86.5q89 0 150 -47.5t81 -128.5h-51q-44 128 -180 128q-98 0 -160 -73t-62 -195q0 -123 62 -196t161 -73
q91 0 142 54t55 151z" />
    <glyph glyph-name="gcircumflex" unicode="&#x11d;" horiz-adv-x="488" 
d="M272 644l92 -131h-46l-68 97l-68 -97h-46l92 131h44zM367 29v47q-20 -31 -57 -52t-80 -21q-92 0 -141.5 65t-49.5 160t49.5 160t141.5 65q43 0 80 -21.5t57 -52.5v65h50v-412q0 -102 -50.5 -156.5t-136.5 -54.5q-76 0 -123 35.5t-59 99.5h50q22 -92 132 -92
q66 0 101.5 42t35.5 123zM367 134v187q-22 41 -56.5 63.5t-75.5 22.5q-68 0 -107 -49.5t-39 -129.5q0 -81 39 -130.5t107 -49.5q41 0 75.5 22.5t56.5 63.5z" />
    <glyph glyph-name="Gbreve" unicode="&#x11e;" horiz-adv-x="598" 
d="M317 664q-46 0 -74.5 30.5t-28.5 86.5h40q0 -37 17.5 -58t45.5 -21t45.5 21t17.5 58h39q0 -56 -28 -86.5t-74 -30.5zM511 243h-160v45h209v-36q0 -118 -67 -189.5t-179 -71.5q-118 0 -196.5 86.5t-78.5 229.5t78.5 229.5t195.5 86.5q89 0 150 -47.5t81 -128.5h-51
q-44 128 -180 128q-98 0 -160 -73t-62 -195q0 -123 62 -196t161 -73q91 0 142 54t55 151z" />
    <glyph glyph-name="gbreve" unicode="&#x11f;" horiz-adv-x="488" 
d="M367 29v47q-20 -31 -57 -52t-80 -21q-92 0 -141.5 65t-49.5 160t49.5 160t141.5 65q43 0 80 -21.5t57 -52.5v65h50v-412q0 -102 -50.5 -156.5t-136.5 -54.5q-76 0 -123 35.5t-59 99.5h50q22 -92 132 -92q66 0 101.5 42t35.5 123zM367 134v187q-22 41 -56.5 63.5
t-75.5 22.5q-68 0 -107 -49.5t-39 -129.5q0 -81 39 -130.5t107 -49.5q41 0 75.5 22.5t56.5 63.5zM250 506q-46 0 -74 31.5t-28 88.5h40q0 -39 17 -61t45 -22t45 22t17 61h40q0 -57 -28 -88.5t-74 -31.5z" />
    <glyph glyph-name="Gdotaccent" unicode="&#x120;" horiz-adv-x="598" 
d="M351 714q0 -14 -10 -24t-24 -10t-24 10t-10 24t10 24t24 10t24 -10t10 -24zM511 243h-160v45h209v-36q0 -118 -67 -189.5t-179 -71.5q-118 0 -196.5 86.5t-78.5 229.5t78.5 229.5t195.5 86.5q89 0 150 -47.5t81 -128.5h-51q-44 128 -180 128q-98 0 -160 -73t-62 -195
q0 -123 62 -196t161 -73q91 0 142 54t55 151z" />
    <glyph glyph-name="gdotaccent" unicode="&#x121;" horiz-adv-x="488" 
d="M284 579q0 -14 -10 -24t-24 -10t-24 10t-10 24t10 24t24 10t24 -10t10 -24zM367 29v47q-20 -31 -57 -52t-80 -21q-92 0 -141.5 65t-49.5 160t49.5 160t141.5 65q43 0 80 -21.5t57 -52.5v65h50v-412q0 -102 -50.5 -156.5t-136.5 -54.5q-76 0 -123 35.5t-59 99.5h50
q22 -92 132 -92q66 0 101.5 42t35.5 123zM367 134v187q-22 41 -56.5 63.5t-75.5 22.5q-68 0 -107 -49.5t-39 -129.5q0 -81 39 -130.5t107 -49.5q41 0 75.5 22.5t56.5 63.5z" />
    <glyph glyph-name="Gcommaaccent" unicode="&#x122;" horiz-adv-x="598" 
d="M279 -183l36 67q-30 6 -30 34q0 15 10.5 25t26.5 10q15 0 25 -10.5t10 -26.5q0 -15 -14 -41l-31 -58h-33zM511 243h-160v45h209v-36q0 -118 -67 -189.5t-179 -71.5q-118 0 -196.5 86.5t-78.5 229.5t78.5 229.5t195.5 86.5q89 0 150 -47.5t81 -128.5h-51q-44 128 -180 128
q-98 0 -160 -73t-62 -195q0 -123 62 -196t161 -73q91 0 142 54t55 151z" />
    <glyph glyph-name="gcommaaccent" unicode="&#x123;" horiz-adv-x="488" 
d="M289 663l-36 -68q29 -5 29 -34q0 -15 -10.5 -25.5t-25.5 -10.5q-16 0 -26.5 10.5t-10.5 26.5q0 18 15 42l31 59h34zM367 29v47q-20 -31 -57 -52t-80 -21q-92 0 -141.5 65t-49.5 160t49.5 160t141.5 65q43 0 80 -21.5t57 -52.5v65h50v-412q0 -102 -50.5 -156.5
t-136.5 -54.5q-76 0 -123 35.5t-59 99.5h50q22 -92 132 -92q66 0 101.5 42t35.5 123zM367 134v187q-22 41 -56.5 63.5t-75.5 22.5q-68 0 -107 -49.5t-39 -129.5q0 -81 39 -130.5t107 -49.5q41 0 75.5 22.5t56.5 63.5z" />
    <glyph glyph-name="Hcircumflex" unicode="&#x124;" horiz-adv-x="649" 
d="M519 614h51v-614h-51v293h-389v-293h-51v614h51v-274h389v274zM347 786l92 -119h-47l-67 84l-67 -84h-47l92 119h44z" />
    <glyph glyph-name="hcircumflex" unicode="&#x125;" horiz-adv-x="483" 
d="M71 0v650h50v-277q22 34 59.5 57t82.5 23q74 0 114 -43.5t40 -115.5v-294h-49v287q0 54 -28.5 87t-85.5 33q-44 0 -80 -27t-53 -69v-311h-50zM266 791l92 -119h-47l-67 84l-67 -84h-47l92 119h44z" />
    <glyph glyph-name="Hbar" unicode="&#x126;" horiz-adv-x="675" 
d="M34 438v44h58v132h51v-132h389v132h51v-132h58v-44h-58v-438h-51v260h-389v-260h-51v438h-58zM143 304h389v134h-389v-134z" />
    <glyph glyph-name="hbar" unicode="&#x127;" horiz-adv-x="483" 
d="M19 520v37h52v93h50v-93h115v-37h-115v-147q22 34 59.5 57t82.5 23q74 0 114 -43.5t40 -115.5v-294h-49v287q0 54 -28.5 87t-85.5 33q-44 0 -80 -27t-53 -69v-311h-50v520h-52z" />
    <glyph glyph-name="Itilde" unicode="&#x128;" horiz-adv-x="209" 
d="M130 614v-614h-51v614h51zM195 769h35q0 -48 -18 -76t-51 -28q-27 0 -60 32t-50 32q-36 0 -36 -61h-36q0 48 18 76t51 28q28 0 60.5 -32t49.5 -32q35 0 37 61z" />
    <glyph glyph-name="itilde" unicode="&#x129;" horiz-adv-x="192" 
d="M162 625h32q0 -48 -14 -76.5t-40 -28.5q-13 0 -26 10t-21.5 22t-18.5 22t-19 10q-25 0 -25 -61h-33q0 48 14.5 76.5t39.5 28.5q18 0 33.5 -16t28.5 -32t23 -16q24 0 26 61zM121 444v-444h-50v444h50z" />
    <glyph glyph-name="Imacron" unicode="&#x12a;" horiz-adv-x="209" 
d="M130 614v-614h-51v614h51zM4 670v42h201v-42h-201z" />
    <glyph glyph-name="imacron" unicode="&#x12b;" horiz-adv-x="192" 
d="M121 444v-444h-50v444h50zM19 537v41h157v-41h-157z" />
    <glyph glyph-name="Ibreve" unicode="&#x12c;" horiz-adv-x="209" 
d="M130 614v-614h-51v614h51zM104 664q-46 0 -74.5 30.5t-28.5 86.5h40q0 -37 17.5 -58t45.5 -21t45.5 21t17.5 58h39q0 -56 -28 -86.5t-74 -30.5z" />
    <glyph glyph-name="ibreve" unicode="&#x12d;" horiz-adv-x="192" 
d="M97 506q-41 0 -65.5 31.5t-24.5 88.5h38q0 -39 13.5 -61t38.5 -22q24 0 38 22t14 61h38q0 -57 -25 -88.5t-65 -31.5zM121 444v-444h-50v444h50z" />
    <glyph glyph-name="Iogonek" unicode="&#x12e;" horiz-adv-x="209" 
d="M130 614v-614q-31 -53 -40.5 -75.5t-9.5 -41.5q0 -28 25 -28q17 0 37 14v-36q-22 -15 -45 -15q-26 0 -41.5 15.5t-15.5 44.5q0 35 50 122h-11v614h51z" />
    <glyph glyph-name="iogonek" unicode="&#x12f;" horiz-adv-x="192" 
d="M121 444v-444q-31 -53 -40.5 -75.5t-9.5 -41.5q0 -28 25 -28q15 0 37 14v-36q-23 -15 -45 -15q-26 0 -42 15.5t-16 44.5q0 36 51 122h-10v444h50zM130 579q0 -14 -10 -24t-24 -10t-24 10t-10 24t10 24t24 10t24 -10t10 -24z" />
    <glyph glyph-name="Idotaccent" unicode="&#x130;" horiz-adv-x="209" 
d="M130 614v-614h-51v614h51zM138 714q0 -14 -10 -24t-24 -10t-24 10t-10 24t10 24t24 10t24 -10t10 -24z" />
    <glyph glyph-name="dotlessi" unicode="&#x131;" horiz-adv-x="192" 
d="M121 444v-444h-50v444h50z" />
    <glyph glyph-name="IJ" unicode="&#x132;" horiz-adv-x="650" 
d="M197 170h53q7 -61 44.5 -96t96.5 -35q64 0 102.5 38.5t38.5 117.5v419h51v-419q0 -99 -53.5 -151.5t-138.5 -52.5q-82 0 -135 48.5t-59 130.5zM130 614v-614h-51v614h51z" />
    <glyph glyph-name="ij" unicode="&#x133;" horiz-adv-x="384" 
d="M121 444v-444h-50v444h50zM130 579q0 -14 -10 -24t-24 -10t-24 10t-10 24t10 24t24 10t24 -10t10 -24zM313 444v-508q0 -56 -29.5 -85.5t-82.5 -29.5q-15 0 -23 3v44q8 -3 20 -3q33 0 49 16.5t16 59.5v503h50zM322 579q0 -14 -10 -24t-24 -10t-24 10t-10 24t10 24t24 10
t24 -10t10 -24z" />
    <glyph glyph-name="Jcircumflex" unicode="&#x134;" horiz-adv-x="472" 
d="M19 170h53q7 -60 44 -95.5t96 -35.5q64 0 103 38.5t39 117.5v419h51v-419q0 -99 -53.5 -151.5t-138.5 -52.5q-83 0 -135.5 48.5t-58.5 130.5zM403 786l92 -119h-47l-67 84l-67 -84h-47l92 119h44z" />
    <glyph glyph-name="jcircumflex" unicode="&#x135;" horiz-adv-x="192" 
d="M118 644l72 -131h-44l-50 94l-50 -94h-44l72 131h44zM121 444v-508q0 -56 -29.5 -85.5t-82.5 -29.5q-15 0 -23 3v44q7 -3 20 -3q33 0 49 16.5t16 59.5v503h50z" />
    <glyph glyph-name="Kcommaaccent" unicode="&#x136;" horiz-adv-x="544" 
d="M214 -183l36 67q-30 6 -30 34q0 15 10.5 25t26.5 10q15 0 25 -10.5t10 -26.5q0 -15 -14 -41l-31 -58h-33zM130 614v-322l320 322h66l-280 -280l290 -334h-64l-263 299l-69 -70v-229h-51v614h51z" />
    <glyph glyph-name="kcommaaccent" unicode="&#x137;" horiz-adv-x="446" 
d="M174 -183l36 67q-30 6 -30 34q0 15 10.5 25t26.5 10q15 0 25 -10.5t10 -26.5q0 -15 -14 -41l-31 -58h-33zM368 0l-193 222l-54 -50v-172h-50v650h50v-420l235 214h66l-211 -191l218 -253h-61z" />
    <glyph glyph-name="kgreenlandic" unicode="&#x138;" horiz-adv-x="446" 
d="M368 0l-193 222l-54 -50v-172h-50v444h50v-214l235 214h66l-211 -191l218 -253h-61z" />
    <glyph glyph-name="Lacute" unicode="&#x139;" horiz-adv-x="503" 
d="M136 665h-50l82 117h56zM79 0v614h51v-567h333v-47h-384z" />
    <glyph glyph-name="lacute" unicode="&#x13a;" horiz-adv-x="192" 
d="M122 688h-50l82 117h56zM121 650v-650h-50v650h50z" />
    <glyph glyph-name="Lcommaaccent" unicode="&#x13b;" horiz-adv-x="503" 
d="M237 -183l36 67q-30 6 -30 34q0 15 10.5 25t26.5 10q15 0 25 -10.5t10 -26.5q0 -15 -14 -41l-31 -58h-33zM79 0v614h51v-567h333v-47h-384z" />
    <glyph glyph-name="lcommaaccent" unicode="&#x13c;" horiz-adv-x="192" 
d="M54 -183l36 67q-30 6 -30 34q0 15 10.5 25t26.5 10q15 0 25 -10.5t10 -26.5q0 -15 -14 -41l-31 -58h-33zM121 650v-650h-50v650h50z" />
    <glyph glyph-name="Lcaron" unicode="&#x13d;" horiz-adv-x="503" 
d="M302 454h-41l33 160h40zM79 0v614h51v-567h333v-47h-384z" />
    <glyph glyph-name="lcaron" unicode="&#x13e;" horiz-adv-x="192" 
d="M219 490h-41l33 160h40zM121 650v-650h-50v650h50z" />
    <glyph glyph-name="Ldot" unicode="&#x13f;" horiz-adv-x="503" 
d="M79 0v614h51v-567h333v-47h-384zM394 307q0 -14 -10 -24t-24 -10t-24 10t-10 24t10 24t24 10t24 -10t10 -24z" />
    <glyph glyph-name="ldot" unicode="&#x140;" horiz-adv-x="297" 
d="M121 650v-650h-50v650h50zM278 325q0 -14 -10 -24t-24 -10t-24 10t-10 24t10 24t24 10t24 -10t10 -24z" />
    <glyph glyph-name="Lslash" unicode="&#x141;" horiz-adv-x="515" 
d="M30 246v49l61 24v295h51v-276l157 64v-49l-157 -63v-243h333v-47h-384v271z" />
    <glyph glyph-name="lslash" unicode="&#x142;" horiz-adv-x="231" 
d="M140 650v-243l66 46v-49l-66 -46v-358h-50v330l-60 -41v49l60 41v271h50z" />
    <glyph glyph-name="Nacute" unicode="&#x143;" horiz-adv-x="616" 
d="M328 665h-50l82 117h56zM537 614v-614h-34l-375 533v-533h-49v614h49l360 -512v512h49z" />
    <glyph glyph-name="nacute" unicode="&#x144;" horiz-adv-x="483" 
d="M265 520h-49l83 130h53zM71 0v444h50v-71q22 34 59.5 57t82.5 23q74 0 114 -43.5t40 -115.5v-294h-49v287q0 54 -28.5 87t-85.5 33q-44 0 -80 -27t-53 -69v-311h-50z" />
    <glyph glyph-name="Ncommaaccent" unicode="&#x145;" horiz-adv-x="616" 
d="M270 -183l36 67q-30 6 -30 34q0 15 10.5 25t26.5 10q15 0 25 -10.5t10 -26.5q0 -15 -14 -41l-31 -58h-33zM537 614v-614h-34l-375 533v-533h-49v614h49l360 -512v512h49z" />
    <glyph glyph-name="ncommaaccent" unicode="&#x146;" horiz-adv-x="483" 
d="M209 -183l36 67q-30 6 -30 34q0 15 10.5 25t26.5 10q15 0 25 -10.5t10 -26.5q0 -15 -14 -41l-31 -58h-33zM71 0v444h50v-71q22 34 59.5 57t82.5 23q74 0 114 -43.5t40 -115.5v-294h-49v287q0 54 -28.5 87t-85.5 33q-44 0 -80 -27t-53 -69v-311h-50z" />
    <glyph glyph-name="Ncaron" unicode="&#x147;" horiz-adv-x="616" 
d="M286 660l-92 119h47l67 -83l67 83h47l-92 -119h-44zM537 614v-614h-34l-375 533v-533h-49v614h49l360 -512v512h49z" />
    <glyph glyph-name="ncaron" unicode="&#x148;" horiz-adv-x="483" 
d="M360 645l-92 -130h-44l-92 130h46l68 -95l68 95h46zM71 0v444h50v-71q22 34 59.5 57t82.5 23q74 0 114 -43.5t40 -115.5v-294h-49v287q0 54 -28.5 87t-85.5 33q-44 0 -80 -27t-53 -69v-311h-50z" />
    <glyph glyph-name="Eng" unicode="&#x14a;" horiz-adv-x="616" 
d="M262 -149v53q50 -39 108 -39q60 0 89 36.5t29 119.5l-360 512v-533h-49v614h49l360 -512v512h49v-593q0 -204 -166 -204q-61 0 -109 34z" />
    <glyph glyph-name="eng" unicode="&#x14b;" horiz-adv-x="483" 
d="M368 -59v346q0 54 -28.5 87t-85.5 33q-44 0 -80 -27t-53 -69v-311h-50v444h50v-71q22 34 59.5 57t82.5 23q74 0 114 -43.5t40 -115.5v-358q0 -56 -29 -85.5t-82 -29.5q-15 0 -24 3v44q8 -3 21 -3q33 0 49 16.5t16 59.5z" />
    <glyph glyph-name="Omacron" unicode="&#x14c;" horiz-adv-x="620" 
d="M210 670v42h201v-42h-201zM582 307q0 -140 -76.5 -228t-195.5 -88q-118 0 -194.5 88t-76.5 228t76.5 228t194.5 88q119 0 195.5 -88t76.5 -228zM530 307q0 119 -61 193.5t-159 74.5q-97 0 -158 -74.5t-61 -193.5t61 -193.5t158 -74.5q98 0 159 74.5t61 193.5z" />
    <glyph glyph-name="omacron" unicode="&#x14d;" horiz-adv-x="471" 
d="M135 537v41h201v-41h-201zM432 222q0 -103 -54.5 -167t-142.5 -64t-142 64t-54 167t54 167t142 64t142.5 -64t54.5 -167zM382 222q0 84 -40 135.5t-107 51.5q-66 0 -106 -51.5t-40 -135.5t40 -135.5t106 -51.5q67 0 107 51.5t40 135.5z" />
    <glyph glyph-name="Obreve" unicode="&#x14e;" horiz-adv-x="620" 
d="M310 664q-46 0 -74.5 30.5t-28.5 86.5h40q0 -37 17.5 -58t45.5 -21t45.5 21t17.5 58h39q0 -56 -28 -86.5t-74 -30.5zM582 307q0 -140 -76.5 -228t-195.5 -88q-118 0 -194.5 88t-76.5 228t76.5 228t194.5 88q119 0 195.5 -88t76.5 -228zM530 307q0 119 -61 193.5
t-159 74.5q-97 0 -158 -74.5t-61 -193.5t61 -193.5t158 -74.5q98 0 159 74.5t61 193.5z" />
    <glyph glyph-name="obreve" unicode="&#x14f;" horiz-adv-x="471" 
d="M432 222q0 -103 -54.5 -167t-142.5 -64t-142 64t-54 167t54 167t142 64t142.5 -64t54.5 -167zM382 222q0 84 -40 135.5t-107 51.5q-66 0 -106 -51.5t-40 -135.5t40 -135.5t106 -51.5q67 0 107 51.5t40 135.5zM235 506q-46 0 -74 31.5t-28 88.5h40q0 -39 17 -61t45 -22
t45 22t17 61h40q0 -57 -28 -88.5t-74 -31.5z" />
    <glyph glyph-name="Ohungarumlaut" unicode="&#x150;" horiz-adv-x="620" 
d="M582 307q0 -140 -76.5 -228t-195.5 -88q-118 0 -194.5 88t-76.5 228t76.5 228t194.5 88q119 0 195.5 -88t76.5 -228zM530 307q0 119 -61 193.5t-159 74.5q-97 0 -158 -74.5t-61 -193.5t61 -193.5t158 -74.5q98 0 159 74.5t61 193.5zM279 665h-45l74 117h46zM391 665h-46
l74 117h46z" />
    <glyph glyph-name="ohungarumlaut" unicode="&#x151;" horiz-adv-x="471" 
d="M201 520h-45l74 130h45zM311 520h-45l74 130h45zM432 222q0 -103 -54.5 -167t-142.5 -64t-142 64t-54 167t54 167t142 64t142.5 -64t54.5 -167zM382 222q0 84 -40 135.5t-107 51.5q-66 0 -106 -51.5t-40 -135.5t40 -135.5t106 -51.5q67 0 107 51.5t40 135.5z" />
    <glyph glyph-name="OE" unicode="&#x152;" horiz-adv-x="840" 
d="M784 614v-47h-317v-227h286v-47h-286v-246h317v-47h-447q-134 0 -216 83.5t-82 223.5t82 223.5t216 83.5h447zM336 47h80v520h-80q-112 0 -179 -71t-67 -189t67 -189t179 -71z" />
    <glyph glyph-name="oe" unicode="&#x153;" horiz-adv-x="793" 
d="M576 -9q-58 0 -102.5 30t-68.5 84q-24 -53 -68.5 -83.5t-101.5 -30.5q-88 0 -142 64t-54 167t54 167t142 64q58 0 102.5 -31.5t67.5 -85.5q23 54 67 85.5t103 31.5q86 0 133.5 -60t47.5 -157v-18h-327q1 -84 41.5 -133.5t105.5 -49.5q47 0 80.5 25t43.5 69h48
q-13 -63 -58.5 -100.5t-113.5 -37.5zM382 222q0 84 -40 135.5t-107 51.5q-66 0 -106 -51.5t-40 -135.5t40 -135.5t106 -51.5q67 0 107 51.5t40 135.5zM575 409q-60 0 -98.5 -41.5t-46.5 -110.5h275q-2 64 -34.5 108t-95.5 44z" />
    <glyph glyph-name="Racute" unicode="&#x154;" horiz-adv-x="549" 
d="M277 271h-147v-271h-51v614h217q91 0 142 -44.5t51 -127.5q0 -74 -41 -117t-115 -52l185 -273h-59zM130 568v-252h164q70 0 107.5 33t37.5 93q0 61 -37.5 93.5t-107.5 32.5h-164zM284 665h-50l82 117h56z" />
    <glyph glyph-name="racute" unicode="&#x155;" horiz-adv-x="301" 
d="M195 520h-49l83 130h53zM280 447v-49q-19 8 -41 8q-40 0 -71 -26t-47 -70v-310h-50v444h50v-71q16 35 48 57.5t72 22.5q19 0 39 -6z" />
    <glyph glyph-name="Rcommaaccent" unicode="&#x156;" horiz-adv-x="549" 
d="M277 271h-147v-271h-51v614h217q91 0 142 -44.5t51 -127.5q0 -74 -41 -117t-115 -52l185 -273h-59zM130 568v-252h164q70 0 107.5 33t37.5 93q0 61 -37.5 93.5t-107.5 32.5h-164zM227 -183l36 67q-30 6 -30 34q0 15 10.5 25t26.5 10q15 0 25 -10.5t10 -26.5
q0 -15 -14 -41l-31 -58h-33z" />
    <glyph glyph-name="rcommaaccent" unicode="&#x157;" horiz-adv-x="301" 
d="M52 -183l36 67q-30 6 -30 34q0 15 10.5 25t26.5 10q15 0 25 -10.5t10 -26.5q0 -15 -14 -41l-31 -58h-33zM280 447v-49q-19 8 -41 8q-40 0 -71 -26t-47 -70v-310h-50v444h50v-71q16 35 48 57.5t72 22.5q19 0 39 -6z" />
    <glyph glyph-name="Rcaron" unicode="&#x158;" horiz-adv-x="549" 
d="M277 271h-147v-271h-51v614h217q91 0 142 -44.5t51 -127.5q0 -74 -41 -117t-115 -52l185 -273h-59zM130 568v-252h164q70 0 107.5 33t37.5 93q0 61 -37.5 93.5t-107.5 32.5h-164zM242 660l-92 119h47l67 -83l67 83h47l-92 -119h-44z" />
    <glyph glyph-name="rcaron" unicode="&#x159;" horiz-adv-x="301" 
d="M289 645l-92 -130h-44l-92 130h46l68 -95l68 95h46zM280 447v-49q-19 8 -41 8q-40 0 -71 -26t-47 -70v-310h-50v444h50v-71q16 35 48 57.5t72 22.5q19 0 39 -6z" />
    <glyph glyph-name="Sacute" unicode="&#x15a;" horiz-adv-x="497" 
d="M26 150h53q18 -55 64 -84t110 -29q68 0 110.5 33t42.5 90q0 84 -106 114l-117 33q-70 19 -105.5 53.5t-35.5 96.5q0 76 56 121t138 45q87 0 142 -41.5t74 -112.5h-51q-38 108 -165 108q-62 0 -103.5 -31.5t-41.5 -85.5q0 -46 27.5 -69t89.5 -40l103 -30q75 -21 110 -59.5
t35 -99.5q0 -79 -57 -125t-146 -46q-86 0 -147.5 42t-79.5 117zM260 665h-50l82 117h56z" />
    <glyph glyph-name="sacute" unicode="&#x15b;" horiz-adv-x="399" 
d="M217 520h-49l83 130h53zM30 115h50q27 -81 124 -81q48 0 78 21t30 61q0 56 -82 79l-83 23q-105 28 -105 112q0 56 43 89.5t107 33.5q68 0 110.5 -32t54.5 -89h-49q-26 78 -116 78q-44 0 -73 -20.5t-29 -57.5q0 -30 18.5 -45t61.5 -27l79 -22q111 -29 111 -121
q0 -59 -44 -92.5t-113 -33.5q-68 0 -115.5 33t-57.5 91z" />
    <glyph glyph-name="Scircumflex" unicode="&#x15c;" horiz-adv-x="497" 
d="M26 150h53q18 -55 64 -84t110 -29q68 0 110.5 33t42.5 90q0 84 -106 114l-117 33q-70 19 -105.5 53.5t-35.5 96.5q0 76 56 121t138 45q87 0 142 -41.5t74 -112.5h-51q-38 108 -165 108q-62 0 -103.5 -31.5t-41.5 -85.5q0 -46 27.5 -69t89.5 -40l103 -30q75 -21 110 -59.5
t35 -99.5q0 -79 -57 -125t-146 -46q-86 0 -147.5 42t-79.5 117zM264 786l92 -119h-47l-67 84l-67 -84h-47l92 119h44z" />
    <glyph glyph-name="scircumflex" unicode="&#x15d;" horiz-adv-x="399" 
d="M219 644l92 -131h-46l-68 97l-68 -97h-46l92 131h44zM30 115h50q27 -81 124 -81q48 0 78 21t30 61q0 56 -82 79l-83 23q-105 28 -105 112q0 56 43 89.5t107 33.5q68 0 110.5 -32t54.5 -89h-49q-26 78 -116 78q-44 0 -73 -20.5t-29 -57.5q0 -30 18.5 -45t61.5 -27l79 -22
q111 -29 111 -121q0 -59 -44 -92.5t-113 -33.5q-68 0 -115.5 33t-57.5 91z" />
    <glyph glyph-name="Scedilla" unicode="&#x15e;" horiz-adv-x="497" 
d="M26 150h53q18 -55 64 -84t110 -29q68 0 110.5 33t42.5 90q0 84 -106 114l-117 33q-70 19 -105.5 53.5t-35.5 96.5q0 76 56 121t138 45q87 0 142 -41.5t74 -112.5h-51q-38 108 -165 108q-62 0 -103.5 -31.5t-41.5 -85.5q0 -46 27.5 -69t89.5 -40l103 -30q75 -21 110 -59.5
t35 -99.5q0 -79 -57 -125t-146 -46q-86 0 -147.5 42t-79.5 117zM205 -175h-46l59 127h48z" />
    <glyph glyph-name="scedilla" unicode="&#x15f;" horiz-adv-x="399" 
d="M30 115h50q27 -81 124 -81q48 0 78 21t30 61q0 56 -82 79l-83 23q-105 28 -105 112q0 56 43 89.5t107 33.5q68 0 110.5 -32t54.5 -89h-49q-26 78 -116 78q-44 0 -73 -20.5t-29 -57.5q0 -30 18.5 -45t61.5 -27l79 -22q111 -29 111 -121q0 -59 -44 -92.5t-113 -33.5
q-68 0 -115.5 33t-57.5 91zM162 -175h-46l59 127h48z" />
    <glyph glyph-name="Scaron" unicode="&#x160;" horiz-adv-x="497" 
d="M220 660l-92 119h47l67 -83l67 83h47l-92 -119h-44zM26 150h53q18 -55 64 -84t110 -29q68 0 110.5 33t42.5 90q0 84 -106 114l-117 33q-70 19 -105.5 53.5t-35.5 96.5q0 76 56 121t138 45q87 0 142 -41.5t74 -112.5h-51q-38 108 -165 108q-62 0 -103.5 -31.5t-41.5 -85.5
q0 -46 27.5 -69t89.5 -40l103 -30q75 -21 110 -59.5t35 -99.5q0 -79 -57 -125t-146 -46q-86 0 -147.5 42t-79.5 117z" />
    <glyph glyph-name="scaron" unicode="&#x161;" horiz-adv-x="399" 
d="M311 645l-92 -130h-44l-92 130h46l68 -95l68 95h46zM30 115h50q27 -81 124 -81q48 0 78 21t30 61q0 56 -82 79l-83 23q-105 28 -105 112q0 56 43 89.5t107 33.5q68 0 110.5 -32t54.5 -89h-49q-26 78 -116 78q-44 0 -73 -20.5t-29 -57.5q0 -30 18.5 -45t61.5 -27l79 -22
q111 -29 111 -121q0 -59 -44 -92.5t-113 -33.5q-68 0 -115.5 33t-57.5 91z" />
    <glyph glyph-name="Tcedilla" unicode="&#x162;" horiz-adv-x="562" 
d="M244 -183l36 67q-30 6 -30 34q0 15 10.5 25t26.5 10q15 0 25 -10.5t10 -26.5q0 -15 -14 -41l-31 -58h-33zM31 567v47h500v-47h-225v-567h-51v567h-224z" />
    <glyph glyph-name="tcedilla" unicode="&#x163;" horiz-adv-x="297" 
d="M91 103v298h-75v43h75v114h49v-114h115v-43h-115v-293q0 -72 64 -72q32 0 61 17v-47q-28 -15 -66 -15q-50 0 -79 28.5t-29 83.5zM136 -183l36 67q-30 6 -30 34q0 15 10.5 25t26.5 10q15 0 25 -10.5t10 -26.5q0 -15 -14 -41l-31 -58h-33z" />
    <glyph glyph-name="Tcaron" unicode="&#x164;" horiz-adv-x="562" 
d="M259 660l-92 119h47l67 -83l67 83h47l-92 -119h-44zM31 567v47h500v-47h-225v-567h-51v567h-224z" />
    <glyph glyph-name="tcaron" unicode="&#x165;" horiz-adv-x="297" 
d="M91 103v298h-75v43h75v114h49v-114h115v-43h-115v-293q0 -72 64 -72q32 0 61 17v-47q-28 -15 -66 -15q-50 0 -79 28.5t-29 83.5zM238 500h-41l33 160h40z" />
    <glyph glyph-name="Tbar" unicode="&#x166;" horiz-adv-x="562" 
d="M31 567v47h500v-47h-225v-227h117v-45h-117v-295h-51v295h-117v45h117v227h-224z" />
    <glyph glyph-name="tbar" unicode="&#x167;" horiz-adv-x="299" 
d="M28 241v41h64v119h-74v43h74v114h50v-114h114v-43h-114v-119h94v-41h-94v-133q0 -72 64 -72q31 0 60 17v-47q-28 -15 -65 -15q-51 0 -80 28t-29 84v138h-64z" />
    <glyph glyph-name="Utilde" unicode="&#x168;" horiz-adv-x="605" 
d="M393 769h35q0 -48 -18 -76t-51 -28q-27 0 -60 32t-50 32q-36 0 -36 -61h-36q0 48 18 76t51 28q28 0 60.5 -32t49.5 -32q35 0 37 61zM302 -9q-104 0 -169.5 64.5t-65.5 186.5v372h51v-365q0 -104 50.5 -157.5t133.5 -53.5t134 53.5t51 157.5v365h51v-372
q0 -122 -66 -186.5t-170 -64.5z" />
    <glyph glyph-name="utilde" unicode="&#x169;" horiz-adv-x="481" 
d="M410 444v-444h-49v71q-22 -34 -59 -57t-82 -23q-74 0 -114 43.5t-40 115.5v294h49v-287q0 -54 28.5 -87t85.5 -33q44 0 79.5 27t52.5 69v311h49zM328 625h35q0 -48 -17.5 -76.5t-50.5 -28.5q-27 0 -59.5 32.5t-48.5 32.5q-36 0 -36 -62h-35q0 48 17.5 76.5t50.5 28.5
q28 0 60 -32.5t48 -32.5q17 0 26.5 17t9.5 45z" />
    <glyph glyph-name="Umacron" unicode="&#x16a;" horiz-adv-x="605" 
d="M203 670v42h201v-42h-201zM302 -9q-104 0 -169.5 64.5t-65.5 186.5v372h51v-365q0 -104 50.5 -157.5t133.5 -53.5t134 53.5t51 157.5v365h51v-372q0 -122 -66 -186.5t-170 -64.5z" />
    <glyph glyph-name="umacron" unicode="&#x16b;" horiz-adv-x="481" 
d="M410 444v-444h-49v71q-22 -34 -59 -57t-82 -23q-74 0 -114 43.5t-40 115.5v294h49v-287q0 -54 28.5 -87t85.5 -33q44 0 79.5 27t52.5 69v311h49zM139 537v41h201v-41h-201z" />
    <glyph glyph-name="Ubreve" unicode="&#x16c;" horiz-adv-x="605" 
d="M303 664q-46 0 -74.5 30.5t-28.5 86.5h40q0 -37 17.5 -58t45.5 -21t45.5 21t17.5 58h39q0 -56 -28 -86.5t-74 -30.5zM302 -9q-104 0 -169.5 64.5t-65.5 186.5v372h51v-365q0 -104 50.5 -157.5t133.5 -53.5t134 53.5t51 157.5v365h51v-372q0 -122 -66 -186.5t-170 -64.5z
" />
    <glyph glyph-name="ubreve" unicode="&#x16d;" horiz-adv-x="481" 
d="M410 444v-444h-49v71q-22 -34 -59 -57t-82 -23q-74 0 -114 43.5t-40 115.5v294h49v-287q0 -54 28.5 -87t85.5 -33q44 0 79.5 27t52.5 69v311h49zM239 506q-46 0 -74 31.5t-28 88.5h40q0 -39 17 -61t45 -22t45 22t17 61h40q0 -57 -28 -88.5t-74 -31.5z" />
    <glyph glyph-name="Uring" unicode="&#x16e;" horiz-adv-x="605" 
d="M302 -9q-104 0 -169.5 64.5t-65.5 186.5v372h51v-365q0 -104 50.5 -157.5t133.5 -53.5t134 53.5t51 157.5v365h51v-372q0 -122 -66 -186.5t-170 -64.5zM384 728q0 -34 -23.5 -57t-57.5 -23t-57.5 23t-23.5 57t23.5 57.5t57.5 23.5t57.5 -23.5t23.5 -57.5zM352 728
q0 21 -14.5 35.5t-34.5 14.5t-34.5 -14.5t-14.5 -35.5q0 -20 14.5 -34.5t34.5 -14.5t34.5 14.5t14.5 34.5z" />
    <glyph glyph-name="uring" unicode="&#x16f;" horiz-adv-x="481" 
d="M320 580q0 -34 -23.5 -57.5t-57.5 -23.5t-57.5 23.5t-23.5 57.5t23.5 57.5t57.5 23.5t57.5 -23.5t23.5 -57.5zM288 580q0 21 -14.5 35t-34.5 14t-34.5 -14t-14.5 -35t14.5 -35t34.5 -14t34.5 14t14.5 35zM410 444v-444h-49v71q-22 -34 -59 -57t-82 -23q-74 0 -114 43.5
t-40 115.5v294h49v-287q0 -54 28.5 -87t85.5 -33q44 0 79.5 27t52.5 69v311h49z" />
    <glyph glyph-name="Uhungarumlaut" unicode="&#x170;" horiz-adv-x="605" 
d="M302 -9q-104 0 -169.5 64.5t-65.5 186.5v372h51v-365q0 -104 50.5 -157.5t133.5 -53.5t134 53.5t51 157.5v365h51v-372q0 -122 -66 -186.5t-170 -64.5zM272 665h-45l74 117h46zM384 665h-46l74 117h46z" />
    <glyph glyph-name="uhungarumlaut" unicode="&#x171;" horiz-adv-x="481" 
d="M410 444v-444h-49v71q-22 -34 -59 -57t-82 -23q-74 0 -114 43.5t-40 115.5v294h49v-287q0 -54 28.5 -87t85.5 -33q44 0 79.5 27t52.5 69v311h49zM204 520h-45l74 130h45zM314 520h-45l74 130h45z" />
    <glyph glyph-name="Uogonek" unicode="&#x172;" horiz-adv-x="605" 
d="M302 -9q-104 0 -169.5 64.5t-65.5 186.5v372h51v-365q0 -104 50.5 -157.5t133.5 -53.5t134 53.5t51 157.5v365h51v-372q0 -143 -110 -221q-90 -65 -90 -136q0 -30 24 -30q17 0 37 14v-36q-22 -15 -44 -15q-26 0 -42 16t-16 45q0 62 61 119q-28 -7 -56 -7z" />
    <glyph glyph-name="uogonek" unicode="&#x173;" horiz-adv-x="481" 
d="M410 444v-444q-31 -53 -40.5 -75.5t-9.5 -41.5q0 -28 25 -28q17 0 37 14v-36q-22 -15 -45 -15q-26 0 -41.5 15.5t-15.5 44.5q0 35 50 122h-9v71q-22 -34 -59 -57t-82 -23q-74 0 -114 43.5t-40 115.5v294h49v-287q0 -54 28.5 -87t85.5 -33q44 0 79.5 27t52.5 69v311h49z
" />
    <glyph glyph-name="Wcircumflex" unicode="&#x174;" horiz-adv-x="759" 
d="M359 614h42l144 -528l142 528h50l-167 -614h-46l-145 523l-144 -523h-45l-168 614h51l142 -528zM401 786l92 -119h-47l-67 84l-67 -84h-47l92 119h44z" />
    <glyph glyph-name="wcircumflex" unicode="&#x175;" horiz-adv-x="604" 
d="M324 644l92 -131h-46l-68 97l-68 -97h-46l92 131h44zM323 444l106 -366l109 366h48l-134 -444h-43l-107 367l-107 -367h-43l-134 444h49l109 -366l106 366h41z" />
    <glyph glyph-name="Ycircumflex" unicode="&#x176;" horiz-adv-x="535" 
d="M269 309l193 305h55l-224 -352v-262h-51v262l-223 352h56zM289 786l92 -119h-47l-67 84l-67 -84h-47l92 119h44z" />
    <glyph glyph-name="ycircumflex" unicode="&#x177;" horiz-adv-x="432" 
d="M170 -170h-50l72 176l-174 438h53l146 -376l146 376h51zM238 644l92 -131h-46l-68 97l-68 -97h-46l92 131h44z" />
    <glyph glyph-name="Ydieresis" unicode="&#x178;" horiz-adv-x="535" 
d="M269 309l193 305h55l-224 -352v-262h-51v262l-223 352h56zM173 715q0 14 9.5 23.5t23.5 9.5t23 -9.5t9 -23.5t-9.5 -23.5t-22.5 -9.5q-14 0 -23.5 9.5t-9.5 23.5zM298 715q0 14 9 23.5t23 9.5t23.5 -9.5t9.5 -23.5q0 -13 -9.5 -23t-23.5 -10q-13 0 -22.5 9.5t-9.5 23.5z
" />
    <glyph glyph-name="Zacute" unicode="&#x179;" horiz-adv-x="519" 
d="M479 47v-47h-442v39l375 528h-370v47h433v-39l-374 -528h378zM298 665h-50l82 117h56z" />
    <glyph glyph-name="zacute" unicode="&#x17a;" horiz-adv-x="416" 
d="M233 520h-49l83 130h53zM375 43v-43h-336v35l271 366h-266v43h328v-35l-270 -366h273z" />
    <glyph glyph-name="Zdotaccent" unicode="&#x17b;" horiz-adv-x="519" 
d="M312 714q0 -14 -10 -24t-24 -10t-24 10t-10 24t10 24t24 10t24 -10t10 -24zM479 47v-47h-442v39l375 528h-370v47h433v-39l-374 -528h378z" />
    <glyph glyph-name="zdotaccent" unicode="&#x17c;" horiz-adv-x="416" 
d="M375 43v-43h-336v35l271 366h-266v43h328v-35l-270 -366h273zM247 579q0 -14 -10 -24t-24 -10t-24 10t-10 24t10 24t24 10t24 -10t10 -24z" />
    <glyph glyph-name="Zcaron" unicode="&#x17d;" horiz-adv-x="519" 
d="M256 660l-92 119h47l67 -83l67 83h47l-92 -119h-44zM479 47v-47h-442v39l375 528h-370v47h433v-39l-374 -528h378z" />
    <glyph glyph-name="zcaron" unicode="&#x17e;" horiz-adv-x="416" 
d="M327 645l-92 -130h-44l-92 130h46l68 -95l68 95h46zM375 43v-43h-336v35l271 366h-266v43h328v-35l-270 -366h273z" />
    <glyph glyph-name="florin" unicode="&#x192;" horiz-adv-x="384" 
d="M66 295v42h79l27 151q11 62 46 98.5t90 36.5q30 0 59 -12v-46q-28 14 -59 14q-69 0 -87 -96l-26 -146h103v-42h-111l-60 -340q-22 -128 -122 -128q-33 0 -58 12v46q28 -14 57 -14q34 0 50.5 22.5t24.5 66.5l59 335h-72z" />
    <glyph glyph-name="Aringacute" unicode="&#x1fa;" horiz-adv-x="579" 
d="M266 614h47l243 -614h-51l-80 202h-272l-79 -202h-51zM289 548l-118 -300h236zM373 711q0 -29 -24.5 -49.5t-59.5 -20.5t-59.5 20.5t-24.5 49.5q0 30 24.5 51t59.5 21t59.5 -20.5t24.5 -51.5zM340 711q0 19 -14.5 30.5t-36.5 11.5q-21 0 -36 -12t-15 -30q0 -17 15 -28.5
t36 -11.5q22 0 36.5 11.5t14.5 28.5zM315 810h-48l58 83h53z" />
    <glyph glyph-name="aringacute" unicode="&#x1fb;" horiz-adv-x="439" 
d="M304 550q0 -29 -25 -49.5t-60 -20.5t-59 20.5t-24 49.5q0 30 24 50.5t59 20.5t60 -20.5t25 -50.5zM271 550q0 18 -15 29.5t-37 11.5q-21 0 -35.5 -11.5t-14.5 -29.5t14.5 -29.5t35.5 -11.5q22 0 37 11.5t15 29.5zM245 648h-48l58 84h53zM373 0h-48v42q-16 -19 -50 -34
t-73 -15q-70 0 -117 37.5t-47 99.5q0 60 48 98t118 38q36 0 70 -14.5t51 -32.5v79q0 50 -29.5 80.5t-81.5 30.5q-83 0 -108 -76h-49q13 56 55.5 88t101.5 32q74 0 116.5 -41.5t42.5 -111.5v-300zM325 101v57q-11 29 -44.5 47.5t-73.5 18.5q-51 0 -86.5 -24.5t-35.5 -69.5
t35.5 -70t86.5 -25q40 0 73.5 18.5t44.5 47.5z" />
    <glyph glyph-name="AEacute" unicode="&#x1fc;" horiz-adv-x="858" 
d="M405 614h397v-47h-318v-227h287v-47h-287v-246h318v-47h-368v202h-231l-126 -202h-54zM434 569l-202 -321h202v321zM619 665h-50l82 117h56z" />
    <glyph glyph-name="aeacute" unicode="&#x1fd;" horiz-adv-x="731" 
d="M400 520h-49l83 130h53zM188 35q50 0 85 29t49 74v79h-119q-51 0 -86 -23.5t-35 -67.5t30 -67.5t76 -23.5zM638 129h48q-13 -63 -58 -100.5t-114 -37.5q-112 0 -166 104q-56 -102 -162 -102q-66 0 -109 36t-43 95q0 61 48 97.5t119 36.5h121v40q0 50 -29.5 80.5
t-81.5 30.5q-84 0 -109 -76h-48q13 56 55.5 88t101.5 32q56 0 94 -26.5t51 -72.5q55 99 157 99q87 0 134 -59.5t47 -157.5v-18h-327q1 -85 41.5 -134t105.5 -49q48 0 80.5 25t43.5 69zM513 409q-60 0 -99 -41t-46 -111h275q-2 64 -34.5 108t-95.5 44z" />
    <glyph glyph-name="Oslashacute" unicode="&#x1fe;" horiz-adv-x="630" 
d="M50 7l64 79q-70 88 -70 221q0 140 76.5 228t194.5 88q105 0 177 -69l52 64l32 -24l-57 -70q68 -87 68 -217q0 -140 -76.5 -228t-195.5 -88q-101 0 -173 66l-60 -74zM96 307q0 -109 50 -181l315 390q-59 59 -146 59q-97 0 -158 -74.5t-61 -193.5zM535 307q0 106 -48 177
l-315 -389q58 -56 143 -56q98 0 159 74.5t61 193.5zM335 665h-50l82 117h56z" />
    <glyph glyph-name="oslashacute" unicode="&#x1ff;" horiz-adv-x="481" 
d="M44 -1l49 62q-49 61 -49 161q0 103 54 167t142 64q72 0 123 -45l42 54l29 -21l-46 -59q49 -63 49 -160q0 -103 -54.5 -167t-142.5 -64q-71 0 -123 44l-44 -57zM93 222q0 -76 30 -122l212 272q-39 37 -95 37q-66 0 -106.5 -51.5t-40.5 -135.5zM388 222q0 72 -30 121
l-212 -271q37 -37 94 -37q67 0 107.5 51.5t40.5 135.5zM259 520h-49l83 130h53z" />
    <glyph glyph-name="Scommaaccent" unicode="&#x218;" horiz-adv-x="497" 
d="M203 -183l36 67q-30 6 -30 34q0 15 10.5 25t26.5 10q15 0 25 -10.5t10 -26.5q0 -15 -14 -41l-31 -58h-33zM26 150h53q18 -55 64 -84t110 -29q68 0 110.5 33t42.5 90q0 84 -106 114l-117 33q-70 19 -105.5 53.5t-35.5 96.5q0 76 56 121t138 45q87 0 142 -41.5t74 -112.5
h-51q-38 108 -165 108q-62 0 -103.5 -31.5t-41.5 -85.5q0 -46 27.5 -69t89.5 -40l103 -30q75 -21 110 -59.5t35 -99.5q0 -79 -57 -125t-146 -46q-86 0 -147.5 42t-79.5 117z" />
    <glyph glyph-name="scommaaccent" unicode="&#x219;" horiz-adv-x="399" 
d="M160 -183l36 67q-30 6 -30 34q0 15 10.5 25t26.5 10q15 0 25 -10.5t10 -26.5q0 -15 -14 -41l-31 -58h-33zM30 115h50q27 -81 124 -81q48 0 78 21t30 61q0 56 -82 79l-83 23q-105 28 -105 112q0 56 43 89.5t107 33.5q68 0 110.5 -32t54.5 -89h-49q-26 78 -116 78
q-44 0 -73 -20.5t-29 -57.5q0 -30 18.5 -45t61.5 -27l79 -22q111 -29 111 -121q0 -59 -44 -92.5t-113 -33.5q-68 0 -115.5 33t-57.5 91z" />
    <glyph glyph-name="uni0237" unicode="&#x237;" horiz-adv-x="192" 
d="M121 444v-508q0 -56 -29.5 -85.5t-82.5 -29.5q-15 0 -23 3v44q7 -3 20 -3q33 0 49 16.5t16 59.5v503h50z" />
    <glyph glyph-name="circumflex" unicode="&#x2c6;" 
d="M272 644l92 -131h-46l-68 97l-68 -97h-46l92 131h44z" />
    <glyph glyph-name="caron" unicode="&#x2c7;" 
d="M364 645l-92 -130h-44l-92 130h46l68 -95l68 95h46z" />
    <glyph glyph-name="breve" unicode="&#x2d8;" 
d="M250 506q-46 0 -74 31.5t-28 88.5h40q0 -39 17 -61t45 -22t45 22t17 61h40q0 -57 -28 -88.5t-74 -31.5z" />
    <glyph glyph-name="dotaccent" unicode="&#x2d9;" 
d="M284 579q0 -14 -10 -24t-24 -10t-24 10t-10 24t10 24t24 10t24 -10t10 -24z" />
    <glyph glyph-name="ring" unicode="&#x2da;" 
d="M331 580q0 -34 -23.5 -57.5t-57.5 -23.5t-57.5 23.5t-23.5 57.5t23.5 57.5t57.5 23.5t57.5 -23.5t23.5 -57.5zM299 580q0 21 -14.5 35t-34.5 14t-34.5 -14t-14.5 -35t14.5 -35t34.5 -14t34.5 14t14.5 35z" />
    <glyph glyph-name="ogonek" unicode="&#x2db;" 
d="M263 4h40q-32 -56 -42 -79t-10 -42q0 -28 25 -28q17 0 37 14v-36q-22 -15 -45 -15q-26 0 -41.5 15.5t-15.5 44.5q0 22 11 46.5t41 79.5z" />
    <glyph glyph-name="tilde" unicode="&#x2dc;" 
d="M338 625h35q0 -48 -17.5 -76.5t-50.5 -28.5q-27 0 -59.5 32.5t-48.5 32.5q-36 0 -36 -62h-35q0 48 17.5 76.5t50.5 28.5q28 0 60 -32.5t48 -32.5q17 0 26.5 17t9.5 45z" />
    <glyph glyph-name="hungarumlaut" unicode="&#x2dd;" 
d="M180 520h-45l74 130h45zM290 520h-45l74 130h45z" />
    <glyph glyph-name="Wgrave" unicode="&#x1e80;" horiz-adv-x="759" 
d="M405 665h-51l-87 117h55zM359 614h42l144 -528l142 528h50l-167 -614h-46l-145 523l-144 -523h-45l-168 614h51l142 -528z" />
    <glyph glyph-name="wgrave" unicode="&#x1e81;" horiz-adv-x="604" 
d="M323 444l106 -366l109 366h48l-134 -444h-43l-107 367l-107 -367h-43l-134 444h49l109 -366l106 366h41zM329 520h-49l-87 130h53z" />
    <glyph glyph-name="Wacute" unicode="&#x1e82;" horiz-adv-x="759" 
d="M401 665h-50l82 117h56zM359 614h42l144 -528l142 528h50l-167 -614h-46l-145 523l-144 -523h-45l-168 614h51l142 -528z" />
    <glyph glyph-name="wacute" unicode="&#x1e83;" horiz-adv-x="604" 
d="M322 520h-49l83 130h53zM323 444l106 -366l109 366h48l-134 -444h-43l-107 367l-107 -367h-43l-134 444h49l109 -366l106 366h41z" />
    <glyph glyph-name="Wdieresis" unicode="&#x1e84;" horiz-adv-x="759" 
d="M284 715q0 14 9.5 23.5t23.5 9.5t23 -9.5t9 -23.5t-9.5 -23.5t-22.5 -9.5q-14 0 -23.5 9.5t-9.5 23.5zM409 715q0 14 9 23.5t23 9.5t23.5 -9.5t9.5 -23.5q0 -13 -10 -23t-23 -10t-22.5 9.5t-9.5 23.5zM359 614h42l144 -528l142 528h50l-167 -614h-46l-145 523l-144 -523
h-45l-168 614h51l142 -528z" />
    <glyph glyph-name="wdieresis" unicode="&#x1e85;" horiz-adv-x="604" 
d="M207 571q0 14 9.5 23t23.5 9t23 -9.5t9 -22.5q0 -14 -9 -23.5t-23 -9.5t-23.5 9.5t-9.5 23.5zM332 571q0 13 9 22.5t23 9.5t23.5 -9.5t9.5 -22.5q0 -14 -9.5 -23.5t-23.5 -9.5t-23 9.5t-9 23.5zM323 444l106 -366l109 366h48l-134 -444h-43l-107 367l-107 -367h-43
l-134 444h49l109 -366l106 366h41z" />
    <glyph glyph-name="Ygrave" unicode="&#x1ef2;" horiz-adv-x="535" 
d="M269 309l193 305h55l-224 -352v-262h-51v262l-223 352h56zM294 665h-51l-87 117h55z" />
    <glyph glyph-name="ygrave" unicode="&#x1ef3;" horiz-adv-x="432" 
d="M170 -170h-50l72 176l-174 438h53l146 -376l146 376h51zM243 520h-49l-87 130h53z" />
    <glyph glyph-name="endash" unicode="&#x2013;" horiz-adv-x="475" 
d="M40 239v41h395v-41h-395z" />
    <glyph glyph-name="emdash" unicode="&#x2014;" horiz-adv-x="846" 
d="M40 239v41h766v-41h-766z" />
    <glyph glyph-name="quoteleft" unicode="&#x2018;" horiz-adv-x="141" 
d="M121 614l-52 -97q31 -5 31 -36q0 -16 -10.5 -27t-26.5 -11q-17 0 -27.5 11t-10.5 29q0 20 14 44l47 87h35z" />
    <glyph glyph-name="quoteright" unicode="&#x2019;" horiz-adv-x="141" 
d="M20 452l52 97q-31 5 -31 36q0 16 10.5 27t26.5 11q17 0 27.5 -11t10.5 -29q0 -19 -14 -44l-47 -87h-35z" />
    <glyph glyph-name="quotesinglbase" unicode="&#x201a;" horiz-adv-x="126" 
d="M20 -98l52 97q-31 5 -31 36q0 16 10.5 27t26.5 11q17 0 27.5 -11t10.5 -29q0 -20 -14 -44l-47 -87h-35z" />
    <glyph glyph-name="quotedblleft" unicode="&#x201c;" horiz-adv-x="264" 
d="M121 614l-52 -97q31 -5 31 -36q0 -16 -10.5 -27t-26.5 -11q-17 0 -27.5 11t-10.5 29q0 20 14 44l47 87h35zM244 614l-52 -97q31 -5 31 -36q0 -16 -10.5 -27t-26.5 -11q-17 0 -27.5 11t-10.5 29q0 20 14 44l47 87h35z" />
    <glyph glyph-name="quotedblright" unicode="&#x201d;" horiz-adv-x="264" 
d="M20 452l52 97q-31 5 -31 36q0 16 10.5 27t26.5 11q17 0 27.5 -11t10.5 -29q0 -19 -14 -44l-47 -87h-35zM143 452l52 97q-31 5 -31 36q0 16 10.5 27t26.5 11q17 0 27.5 -11t10.5 -29q0 -19 -14 -44l-47 -87h-35z" />
    <glyph glyph-name="quotedblbase" unicode="&#x201e;" horiz-adv-x="264" 
d="M20 -98l52 97q-31 5 -31 36q0 16 10.5 27t26.5 11q17 0 27.5 -11t10.5 -29q0 -20 -14 -44l-47 -87h-35zM143 -98l52 97q-31 5 -31 36q0 16 10.5 27t26.5 11q17 0 27.5 -11t10.5 -29q0 -20 -14 -44l-47 -87h-35z" />
    <glyph glyph-name="dagger" unicode="&#x2020;" horiz-adv-x="300" 
d="M31 519v39h99v92h40v-92h99v-39h-99v-204h-40v204h-99z" />
    <glyph glyph-name="daggerdbl" unicode="&#x2021;" horiz-adv-x="304" 
d="M32 522v38h99v90h41v-90h100v-38h-100v-79h100v-38h-100v-90h-41v90h-99v38h99v79h-99z" />
    <glyph glyph-name="bullet" unicode="&#x2022;" horiz-adv-x="332" 
d="M295 260q0 -56 -37 -92t-92 -36q-54 0 -91 36t-37 92t37 92t91 36q55 0 92 -36t37 -92z" />
    <glyph glyph-name="ellipsis" unicode="&#x2026;" horiz-adv-x="462" 
d="M33 35q0 16 11 27.5t26 11.5q16 0 27 -11.5t11 -27.5t-11 -27t-27 -11q-15 0 -26 11t-11 27zM193 35q0 16 11 27.5t27 11.5q15 0 26 -11.5t11 -27.5t-11 -27t-26 -11q-16 0 -27 11t-11 27zM354 35q0 16 11 27.5t26 11.5q16 0 27 -11.5t11 -27.5t-11 -27t-27 -11
q-15 0 -26 11t-11 27z" />
    <glyph glyph-name="perthousand" unicode="&#x2030;" horiz-adv-x="907" 
d="M90 0l398 614h43l-398 -614h-43zM37 495q0 53 37 90.5t90 37.5t90 -37.5t37 -90.5q0 -52 -37 -89t-90 -37t-90 36.5t-37 89.5zM583 119q0 -53 -37 -90.5t-89 -37.5q-53 0 -90 37.5t-37 90.5q0 52 37 89t90 37t89.5 -36.5t36.5 -89.5zM542 119q0 35 -25 60t-60 25
q-36 0 -61 -25t-25 -60q0 -36 25 -61.5t61 -25.5q35 0 60 25.5t25 61.5zM870 119q0 -53 -37 -90.5t-89 -37.5q-53 0 -90.5 37.5t-37.5 90.5q0 52 37.5 89t90.5 37q52 0 89 -36.5t37 -89.5zM829 119q0 35 -25 60t-60 25q-36 0 -61.5 -25t-25.5 -60q0 -36 25.5 -61.5
t61.5 -25.5q35 0 60 25.5t25 61.5zM78 495q0 -35 25 -60t61 -25t61 25t25 60q0 36 -25 61.5t-61 25.5t-61 -25.5t-25 -61.5z" />
    <glyph glyph-name="guilsinglleft" unicode="&#x2039;" horiz-adv-x="192" 
d="M167 86h-50l-92 136l92 136h50l-92 -136z" />
    <glyph glyph-name="guilsinglright" unicode="&#x203a;" horiz-adv-x="192" 
d="M75 86h-50l92 136l-92 136h50l92 -136z" />
    <glyph glyph-name="fraction" unicode="&#x2044;" horiz-adv-x="204" 
d="M324 614l-398 -614h-46l398 614h46z" />
    <glyph glyph-name="Euro" unicode="&#x20ac;" horiz-adv-x="539" 
d="M29 343v41h61q17 111 79 175t149 64q72 0 122.5 -45t67.5 -122h-48q-16 57 -52.5 89t-89.5 32q-68 0 -115 -51.5t-61 -141.5h221l-9 -41h-217q-1 -12 -1 -36q0 -28 1 -41h205l-9 -41h-190q15 -88 61.5 -138t113.5 -50q53 0 89.5 32t52.5 89h48q-17 -77 -67.5 -122
t-122.5 -45q-86 0 -147.5 62.5t-79.5 171.5h-62v41h57q-1 13 -1 41q0 24 1 36h-57z" />
    <glyph glyph-name="uni2117" unicode="&#x2117;" horiz-adv-x="708" 
d="M670 307q0 -136 -92 -226t-224 -90q-131 0 -223 90t-92 226t92 226t223 90q132 0 224 -90t92 -226zM638 307q0 122 -82.5 203t-201.5 81t-201.5 -81t-82.5 -203t82.5 -203t201.5 -81t201.5 81t82.5 203zM388 270h-94v-146h-47v369h141q57 0 89.5 -28.5t32.5 -82.5
t-32.5 -83t-89.5 -29zM464 382q0 32 -19.5 50.5t-57.5 18.5h-93v-138h93q77 0 77 69z" />
    <glyph glyph-name="trademark" unicode="&#x2122;" horiz-adv-x="574" 
d="M16 581v33h211v-33h-86v-221h-39v221h-86zM413 360h-28l-76 188v-188h-37v254h46l82 -202l81 202h46v-254h-38v188z" />
    <glyph glyph-name="uni2153" unicode="&#x2153;" horiz-adv-x="662" 
d="M539 614l-417 -614h-45l417 614h45zM474 151v35h24q26 0 43.5 15t17.5 41q0 24 -17 39.5t-44 15.5q-25 0 -42.5 -16t-21.5 -42h-43q6 43 34.5 69.5t71.5 26.5q48 0 75.5 -25.5t27.5 -66.5q0 -27 -15 -47.5t-38 -26.5q27 -7 43.5 -27t16.5 -49q0 -42 -29 -70t-79 -28
q-48 0 -78.5 26.5t-35.5 72.5h45q10 -61 70 -61q29 0 46.5 16.5t17.5 43.5t-18.5 42.5t-46.5 15.5h-25zM177 615v-330h-44v279l-86 -44v45l102 50h28z" />
    <glyph glyph-name="uni2154" unicode="&#x2154;" horiz-adv-x="715" 
d="M593 614l-417 -614h-46l417 614h46zM216 525q0 25 -16 40t-42 15q-28 0 -45 -18t-19 -48h-45q5 47 34 76.5t75 29.5t73.5 -26t27.5 -69q0 -20 -11.5 -41.5t-20 -31.5t-33.5 -37l-86 -92h154v-38h-213v29l112 122q20 22 29.5 33t17.5 26.5t8 29.5zM528 151v35h24
q26 0 43 15t17 41q0 24 -16.5 39.5t-43.5 15.5q-25 0 -42.5 -16t-22.5 -42h-43q6 43 35 69.5t72 26.5q47 0 75 -25.5t28 -66.5q0 -27 -15 -47.5t-38 -26.5q26 -7 42.5 -27t16.5 -49q0 -43 -28.5 -70.5t-78.5 -27.5q-49 0 -79 26.5t-35 72.5h45q10 -61 69 -61q29 0 47 16.5
t18 43.5t-18.5 42.5t-46.5 15.5h-25z" />
    <glyph glyph-name="uni215B" unicode="&#x215b;" horiz-adv-x="660" 
d="M539 614l-417 -614h-45l417 614h45zM494 31q31 0 51.5 18t20.5 44q0 27 -20.5 45t-51.5 18q-32 0 -52 -18t-20 -45t20 -44.5t52 -17.5zM494 192q26 0 43.5 15.5t17.5 38.5t-17.5 38.5t-43.5 15.5q-27 0 -44.5 -15.5t-17.5 -38.5t17.5 -38.5t44.5 -15.5zM494 -5
q-49 0 -82 27t-33 69q0 30 18 52t46 30q-51 20 -51 74q0 39 29 63.5t73 24.5t73 -24.5t29 -63.5q0 -25 -14 -45t-38 -29q28 -8 46 -30t18 -52q0 -42 -32.5 -69t-81.5 -27zM177 615v-330h-44v279l-86 -44v45l102 50h28z" />
    <glyph glyph-name="uni215C" unicode="&#x215c;" horiz-adv-x="701" 
d="M535 31q31 0 51.5 18t20.5 44q0 27 -20.5 45t-51.5 18q-32 0 -52 -18t-20 -45t20 -44.5t52 -17.5zM535 192q26 0 43.5 15.5t17.5 38.5t-17.5 38.5t-43.5 15.5q-27 0 -44.5 -15.5t-17.5 -38.5t17.5 -38.5t44.5 -15.5zM535 -5q-50 0 -82.5 27t-32.5 69q0 30 18 52t46 30
q-24 9 -38 29t-14 45q0 39 29.5 63.5t73.5 24.5q43 0 72 -24.5t29 -63.5q0 -54 -51 -74q28 -8 46 -30t18 -52q0 -42 -32.5 -69t-81.5 -27zM580 614l-417 -614h-46l417 614h46zM136 436v35h24q26 0 43.5 15t17.5 41q0 23 -17 38.5t-44 15.5q-25 0 -42 -15.5t-22 -41.5h-43
q6 42 35 69t72 27q47 0 75 -25.5t28 -66.5q0 -26 -15.5 -47t-38.5 -27q27 -7 43.5 -27.5t16.5 -48.5q0 -42 -29 -70t-79 -28q-48 0 -78.5 26.5t-35.5 71.5h45q10 -60 70 -60q29 0 46.5 16t17.5 44q0 26 -18.5 42t-46.5 16h-25z" />
    <glyph glyph-name="uni215D" unicode="&#x215d;" horiz-adv-x="703" 
d="M536 31q31 0 51.5 18t20.5 44q0 27 -20.5 45t-51.5 18t-51 -18t-20 -45t20 -44.5t51 -17.5zM536 192q26 0 43.5 15.5t17.5 38.5t-17.5 38.5t-43.5 15.5t-43.5 -15.5t-17.5 -38.5t17.5 -38.5t43.5 -15.5zM536 -5q-49 0 -81.5 27t-32.5 69q0 30 17.5 52t45.5 30
q-23 9 -37 29t-14 45q0 39 29 63.5t73 24.5t73 -24.5t29 -63.5q0 -25 -14 -45t-37 -29q28 -8 45.5 -30t17.5 -52q0 -42 -32.5 -69t-81.5 -27zM582 614l-418 -614h-45l417 614h46zM165 460q-35 0 -57 -28h-37v183h183v-39h-146v-100q23 21 60 21q46 0 75.5 -30.5t29.5 -77.5
q0 -48 -30 -78.5t-78 -30.5t-78.5 26t-37.5 72h45q11 -60 71 -60q28 0 47 20.5t19 50.5t-18.5 50.5t-47.5 20.5z" />
    <glyph glyph-name="uni215E" unicode="&#x215e;" horiz-adv-x="641" 
d="M475 31q31 0 51.5 18t20.5 44q0 27 -20.5 45t-51.5 18t-51.5 -18t-20.5 -45q0 -26 20.5 -44t51.5 -18zM475 192q26 0 43.5 15.5t17.5 38.5t-17.5 38.5t-43.5 15.5q-27 0 -44.5 -15.5t-17.5 -38.5t17.5 -38.5t44.5 -15.5zM475 -5q-49 0 -82 27t-33 69q0 30 18 52t46 30
q-51 20 -51 74q0 39 29 63.5t73 24.5t73 -24.5t29 -63.5q0 -25 -14 -45t-38 -29q28 -8 46 -30t18 -52q0 -42 -32.5 -69t-81.5 -27zM521 614l-418 -614h-45l417 614h46zM261 581l-116 -297h-44l114 291h-169v39h215v-33z" />
    <glyph glyph-name="minus" unicode="&#x2212;" horiz-adv-x="514" 
d="M71 273v43h372v-43h-372z" />
    <glyph glyph-name="approxequal" unicode="&#x2248;" horiz-adv-x="521" 
d="M75 304v46q49 45 99 45q33 0 86.5 -23.5t83.5 -23.5q51 0 103 48v-46q-50 -45 -103 -45q-32 0 -85.5 23.5t-84.5 23.5q-48 0 -99 -48zM75 195v45q49 46 99 46q33 0 86.5 -24t83.5 -24q51 0 103 49v-46q-49 -45 -103 -45q-32 0 -85.5 23.5t-84.5 23.5q-48 0 -99 -48z" />
    <glyph glyph-name="notequal" unicode="&#x2260;" horiz-adv-x="521" 
d="M75 338v41h228l69 89h45l-69 -89h99v-41h-131l-66 -86h197v-41h-229l-69 -90h-45l69 90h-98v41h130l66 86h-196z" />
    <glyph glyph-name="lessequal" unicode="&#x2264;" horiz-adv-x="399" 
d="M58 308v46l275 115v-46l-224 -92l224 -92v-46zM58 111v43h275v-43h-275z" />
    <glyph glyph-name="greaterequal" unicode="&#x2265;" horiz-adv-x="399" 
d="M341 354v-46l-274 -115v46l223 92l-223 92v46zM341 154v-43h-274v43h274z" />
    <glyph glyph-name="fi" unicode="&#xfb01;" horiz-adv-x="450" 
d="M379 444v-444h-50v444h50zM388 579q0 -14 -10 -24t-24 -10t-24 10t-10 24t10 24t24 10t24 -10t10 -24zM269 650v-46q-20 11 -45 11q-36 0 -58.5 -25.5t-22.5 -70.5v-75h104v-43h-104v-401h-49v401h-72v43h72v80q0 60 35 97.5t90 37.5q27 0 50 -9z" />
    <glyph glyph-name="fl" unicode="&#xfb02;" horiz-adv-x="450" 
d="M379 650v-650h-50v650h50zM269 650v-46q-20 11 -45 11q-36 0 -58.5 -25.5t-22.5 -70.5v-75h104v-43h-104v-401h-49v401h-72v43h72v80q0 60 35 97.5t90 37.5q27 0 50 -9z" />
    <glyph glyph-name="i.dot" horiz-adv-x="192" 
d="M121 444v-444h-50v444h50zM130 579q0 -14 -10 -24t-24 -10t-24 10t-10 24t10 24t24 10t24 -10t10 -24z" />
    <glyph glyph-name="space_uni0326" 
d="M212 -183l36 67q-30 6 -30 34q0 15 10.5 25t26.5 10q15 0 25 -10.5t10 -26.5q0 -15 -14 -41l-31 -58h-33z" />
    <glyph glyph-name="space_uni0326.alt" 
d="M288 663l-36 -68q29 -5 29 -34q0 -15 -10.5 -25.5t-25.5 -10.5q-16 0 -26.5 10.5t-10.5 26.5q0 18 15 42l31 59h34z" />
    <glyph glyph-name="space_dotbelowcomb" 
d="M284 -112q0 -14 -10 -24t-24 -10t-24 10t-10 24t10 24.5t24 10.5t24 -10.5t10 -24.5z" />
    <glyph glyph-name="caron.Slovak" 
d="M252 490h-41l33 160h40z" />
    <glyph glyph-name="cedilla.alt" 
d="M241 -175h-46l59 127h48z" />
    <glyph glyph-name="grave.cap" 
d="M319 665h-51l-87 117h55z" />
    <glyph glyph-name="acute.cap" 
d="M231 665h-50l82 117h56z" />
    <glyph glyph-name="circumflex.cap" 
d="M272 786l92 -119h-47l-67 84l-67 -84h-47l92 119h44z" />
    <glyph glyph-name="caron.cap" 
d="M228 660l-92 119h47l67 -83l67 83h47l-92 -119h-44z" />
    <glyph glyph-name="tilde.cap" 
d="M340 769h35q0 -48 -18 -76t-51 -28q-27 0 -60 32t-50 32q-36 0 -36 -61h-36q0 48 18 76t51 28q28 0 60.5 -32t49.5 -32q35 0 37 61z" />
    <glyph glyph-name="macron.cap" 
d="M149 670v42h201v-42h-201z" />
    <glyph glyph-name="breve.cap" 
d="M250 664q-46 0 -74.5 30.5t-28.5 86.5h40q0 -37 17.5 -58t45.5 -21t45.5 21t17.5 58h39q0 -56 -28 -86.5t-74 -30.5z" />
    <glyph glyph-name="dotaccent.cap" 
d="M284 714q0 -14 -10 -24t-24 -10t-24 10t-10 24t10 24t24 10t24 -10t10 -24z" />
    <glyph glyph-name="dieresis.cap" 
d="M155 715q0 14 9.5 23.5t23.5 9.5t23 -9.5t9 -23.5t-9.5 -23.5t-22.5 -9.5q-14 0 -23.5 9.5t-9.5 23.5zM280 715q0 14 9 23.5t23 9.5t23.5 -9.5t9.5 -23.5q0 -13 -9.5 -23t-23.5 -10q-13 0 -22.5 9.5t-9.5 23.5z" />
    <glyph glyph-name="ring.cap" 
d="M331 728q0 -34 -23.5 -57t-57.5 -23t-57.5 23t-23.5 57t23.5 57.5t57.5 23.5t57.5 -23.5t23.5 -57.5zM299 728q0 21 -14.5 35.5t-34.5 14.5t-34.5 -14.5t-14.5 -35.5q0 -20 14.5 -34.5t34.5 -14.5t34.5 14.5t14.5 34.5z" />
    <glyph glyph-name="hungarumlaut.cap" 
d="M179 665h-45l74 117h46zM291 665h-46l74 117h46z" />
    <glyph glyph-name="exclamdown.cap" horiz-adv-x="206" 
d="M65 579q0 16 11 27t27 11q15 0 26 -11t11 -27t-11 -27.5t-26 -11.5q-16 0 -27 11.5t-11 27.5zM75 0l10 422h36l10 -422h-56z" />
    <glyph glyph-name="questiondown.cap" horiz-adv-x="422" 
d="M237 579q0 -16 -11 -27.5t-27 -11.5q-15 0 -26 11.5t-11 27.5t11 27t26 11q16 0 27 -11t11 -27zM27 158q0 13 3 27t6 24t12 24.5t12.5 21t17 22.5t16.5 19t19.5 21t17.5 19q42 45 43 85h47q-2 -33 -14 -56.5t-39 -54.5q-5 -6 -23 -25t-26 -29t-20 -27.5t-17 -34.5t-5 -36
q0 -56 35 -88t93 -32q63 0 100.5 39t44.5 106h52q-8 -87 -61 -139.5t-136 -52.5q-82 0 -130 45.5t-48 121.5z" />
    <glyph glyph-name="guilsinglleft.cap" horiz-adv-x="192" 
d="M167 173h-50l-92 136l92 136h50l-92 -136z" />
    <glyph glyph-name="guilsinglright.cap" horiz-adv-x="192" 
d="M75 173h-50l92 136l-92 136h50l92 -136z" />
    <glyph glyph-name="guillemotleft.cap" horiz-adv-x="314" 
d="M166 173h-49l-92 136l92 136h49l-92 -136zM289 173h-49l-92 136l92 136h49l-92 -136z" />
    <glyph glyph-name="guillemotright.cap" horiz-adv-x="314" 
d="M197 173h-49l92 136l-92 136h49l92 -136zM74 173h-49l92 136l-92 136h49l92 -136z" />
    <glyph glyph-name="slash.cap" horiz-adv-x="306" 
d="M5 -64l248 734h48l-248 -734h-48z" />
    <glyph glyph-name="backslash.cap" horiz-adv-x="306" 
d="M53 670l248 -734h-48l-248 734h48z" />
    <glyph glyph-name="bar.cap" horiz-adv-x="205" 
d="M79 -64v734h47v-734h-47z" />
    <glyph glyph-name="periodcentered.cap" horiz-adv-x="151" 
d="M38 301q0 16 11 27.5t26 11.5q16 0 27 -11.5t11 -27.5t-11 -27t-27 -11q-15 0 -26 11t-11 27z" />
    <glyph glyph-name="bullet.cap" horiz-adv-x="332" 
d="M295 300q0 -56 -37 -92t-92 -36q-54 0 -91 36t-37 92t37 92t91 36q55 0 92 -36t37 -92z" />
    <glyph glyph-name="hyphen.cap" horiz-adv-x="321" 
d="M40 277v46h241v-46h-241z" />
    <glyph glyph-name="endash.cap" horiz-adv-x="475" 
d="M40 279v41h395v-41h-395z" />
    <glyph glyph-name="emdash.cap" horiz-adv-x="846" 
d="M40 279v41h766v-41h-766z" />
    <glyph glyph-name="parenleft.cap" horiz-adv-x="325" 
d="M30 299q0 137 72.5 236t195.5 131v-50q-93 -23 -156 -108.5t-63 -208.5t63 -208.5t156 -108.5v-50q-123 32 -195.5 131t-72.5 236z" />
    <glyph glyph-name="parenright.cap" horiz-adv-x="325" 
d="M295 299q0 -137 -72.5 -236t-195.5 -131v50q93 23 156 108.5t63 208.5t-63 208.5t-156 108.5v50q123 -32 195.5 -131t72.5 -236z" />
    <glyph glyph-name="bracketleft.cap" horiz-adv-x="311" 
d="M126 621v-644h158v-45h-205v734h205v-45h-158z" />
    <glyph glyph-name="bracketright.cap" horiz-adv-x="311" 
d="M185 -23v644h-158v45h205v-734h-205v45h158z" />
    <glyph glyph-name="braceleft.cap" horiz-adv-x="334" 
d="M152 229v-207q0 -45 42 -45h113v-45h-112q-40 0 -65.5 26t-25.5 67v207q0 45 -42 45h-42v45h42q42 0 42 45v206q0 42 25.5 67.5t65.5 25.5h112v-45h-113q-42 0 -42 -45v-207q0 -46 -40 -70q40 -24 40 -70z" />
    <glyph glyph-name="braceright.cap" horiz-adv-x="334" 
d="M182 22v207q0 46 40 70q-40 24 -40 70v207q0 45 -42 45h-113v45h112q40 0 65.5 -25.5t25.5 -67.5v-206q0 -45 42 -45h42v-45h-42q-42 0 -42 -45v-207q0 -41 -25.5 -67t-65.5 -26h-112v45h113q42 0 42 45z" />
    <glyph glyph-name="at.cap" horiz-adv-x="774" 
d="M548 472l-45 -255q-10 -60 48 -60q62 0 103 54t41 149q0 111 -79.5 182t-205.5 71q-146 0 -238 -96t-92 -239q0 -77 28 -137t76 -94.5t105.5 -52t121.5 -17.5q116 0 210 45v-41q-98 -43 -210 -43q-74 0 -139.5 20t-119 60t-84.5 107t-31 153q0 158 104.5 267t268.5 109
q145 0 236 -83.5t91 -210.5q0 -115 -56 -178.5t-135 -63.5q-35 0 -60 16.5t-30 45.5q-18 -25 -48 -42t-61 -17q-62 0 -96 41t-34 105q0 85 51 149t130 64q34 0 59.5 -17t37.5 -40l9 49h44zM461 232l24 139q-25 67 -85 67t-98.5 -52t-38.5 -118q0 -49 24.5 -77.5t65.5 -28.5
q60 0 108 70z" />
    <glyph glyph-name="Euro.lt" horiz-adv-x="520" 
d="M21 343v41h72q16 111 75.5 175t142.5 64q69 0 118 -45t65 -122h-49q-15 57 -49.5 89t-85.5 32q-64 0 -108.5 -51.5t-58.5 -141.5h207l-9 -41h-202q-1 -12 -1 -36q0 -28 1 -41h191l-10 -41h-176q15 -88 59 -138t107 -50q51 0 85.5 32t49.5 89h49q-16 -77 -65 -122
t-118 -45q-83 0 -141.5 62.5t-75.5 171.5h-73v41h68q-1 13 -1 41q0 24 1 36h-68z" />
    <glyph glyph-name="dollar.lt" horiz-adv-x="520" 
d="M243 -85v99q-69 5 -118 41.5t-66 97.5h51q38 -96 156 -96q64 0 104.5 30t40.5 83q0 78 -98 105l-107 30q-64 18 -98.5 51t-34.5 91q0 68 48 109.5t122 44.5v89h45v-91q65 -8 107.5 -45t57.5 -95h-49q-35 99 -151 99q-58 0 -95.5 -29t-37.5 -80q0 -42 26.5 -64t82.5 -38
l94 -26q135 -38 135 -150q0 -68 -48 -110t-122 -47v-99h-45z" />
    <glyph glyph-name="cent.lt" horiz-adv-x="520" 
d="M74 232q0 98 49 161t130 69v86h45v-87q57 -7 93.5 -44t48.5 -94h-51q-9 45 -40 70t-79 25q-65 0 -105.5 -51t-40.5 -135t40.5 -135t105.5 -51q48 0 79 25t40 70h51q-12 -58 -48.5 -95t-93.5 -44v-86h-45v85q-81 7 -130 69.5t-49 161.5z" />
    <glyph glyph-name="sterling.lt" horiz-adv-x="520" 
d="M186 423v-100h169v-41h-169v-146q0 -59 -24 -91h307v-45h-421v45h65q25 38 25 91v146h-90v41h90v100q0 92 47.5 146t125.5 54q66 0 107.5 -36t53.5 -97h-50q-18 88 -111 88q-57 0 -91 -40.5t-34 -114.5z" />
    <glyph glyph-name="yen.lt" horiz-adv-x="520" 
d="M77 262v41h144l-188 311h56l172 -288l171 288h54l-189 -311h145v-41h-157v-77h157v-41h-157v-144h-51v144h-157v41h157v77h-157z" />
    <glyph glyph-name="florin.lt" horiz-adv-x="520" 
d="M168 295v42h80l27 151q11 62 45.5 98.5t89.5 36.5q30 0 59 -12v-46q-28 14 -58 14q-70 0 -88 -96l-26 -146h103v-42h-110l-60 -340q-24 -128 -123 -128q-31 0 -57 12v46q28 -14 57 -14q33 0 50 22.5t24 66.5l59 335h-72z" />
    <glyph glyph-name="zero.lt" horiz-adv-x="520" 
d="M260 -9q-101 0 -162.5 87.5t-61.5 228.5t61.5 228.5t162.5 87.5t162.5 -87.5t61.5 -228.5t-61.5 -228.5t-162.5 -87.5zM260 576q-81 0 -127.5 -74.5t-46.5 -194.5t46.5 -194.5t127.5 -74.5t127.5 74.5t46.5 194.5t-46.5 194.5t-127.5 74.5z" />
    <glyph glyph-name="one.lt" horiz-adv-x="520" 
d="M73 0v47h188v507l-182 -94v52l201 103h31v-568h163v-47h-401z" />
    <glyph glyph-name="two.lt" horiz-adv-x="520" 
d="M389 454q0 56 -36.5 89t-96.5 33q-66 0 -104 -39.5t-45 -107.5h-52q9 87 62.5 140.5t138.5 53.5q83 0 132.5 -46.5t49.5 -122.5q0 -13 -2 -25.5t-7.5 -26t-9 -23t-14 -24t-15 -21.5t-18.5 -23t-18.5 -21t-21 -23.5t-20.5 -22.5l-188 -197h329v-47h-401v35l222 236
q36 38 48 51.5t32.5 40.5t27.5 47.5t7 43.5z" />
    <glyph glyph-name="three.lt" horiz-adv-x="520" 
d="M211 293v45h48q58 0 96 32t38 87q0 53 -38.5 86.5t-99.5 33.5q-57 0 -96 -33t-50 -89h-52q13 76 67 122t131 46q86 0 137.5 -46t51.5 -118q0 -54 -33.5 -94t-82.5 -49q55 -9 92 -49t37 -100q0 -75 -53.5 -125.5t-145.5 -50.5q-88 0 -143.5 46.5t-66.5 127.5h51
q12 -61 53 -94.5t106 -33.5q67 0 107.5 35.5t40.5 94.5q0 58 -42.5 92t-104.5 34h-48z" />
    <glyph glyph-name="four.lt" horiz-adv-x="520" 
d="M329 614l-237 -418h230v152h49v-152h115v-46h-115v-150h-49v150h-288v40l241 424h54z" />
    <glyph glyph-name="five.lt" horiz-adv-x="520" 
d="M260 344q-78 0 -125 -58h-43v328h336v-47h-292v-225q50 48 126 48q85 0 142 -58t57 -142t-57.5 -141.5t-143.5 -57.5q-88 0 -143.5 46t-70.5 129h52q14 -62 55.5 -95.5t106.5 -33.5t108 44t43 109t-43 109.5t-108 44.5z" />
    <glyph glyph-name="six.lt" horiz-adv-x="520" 
d="M118 196q0 -68 45 -114t112 -46q66 0 111.5 45.5t45.5 114.5t-45.5 114.5t-111.5 45.5q-68 0 -112.5 -45.5t-44.5 -114.5zM467 475h-51q-34 103 -137 103q-77 0 -128 -73.5t-51 -194.5q0 -29 2 -44q14 60 63 97t113 37q86 0 144 -59t58 -144q0 -87 -58.5 -146.5
t-146.5 -59.5q-127 0 -185 117q-37 74 -37 191q0 150 64 237t162 87q149 0 188 -148z" />
    <glyph glyph-name="seven.lt" horiz-adv-x="520" 
d="M465 573l-229 -573h-52l229 567h-367v47h419v-41z" />
    <glyph glyph-name="eight.lt" horiz-adv-x="520" 
d="M260 35q71 0 116.5 38.5t45.5 96.5t-45.5 96.5t-116.5 38.5q-70 0 -115.5 -39t-45.5 -96t45.5 -96t115.5 -39zM260 349q60 0 98 33t38 82t-38 82t-98 33q-59 0 -97.5 -33t-38.5 -82q0 -48 38.5 -81.5t97.5 -33.5zM260 -9q-91 0 -150.5 50.5t-59.5 126.5q0 57 35.5 100.5
t93.5 58.5q-47 17 -75 54t-28 84q0 68 52 113t132 45q81 0 133 -45t52 -113q0 -47 -28 -84t-76 -54q58 -15 94 -58.5t36 -100.5q0 -77 -60 -127t-151 -50z" />
    <glyph glyph-name="nine.lt" horiz-adv-x="520" 
d="M402 418q0 68 -45 114t-112 46q-66 0 -111.5 -45.5t-45.5 -114.5t45.5 -114.5t111.5 -45.5q68 0 112.5 45.5t44.5 114.5zM53 139h51q34 -103 137 -103q77 0 128 73.5t51 194.5q0 29 -2 44q-14 -60 -63 -97t-113 -37q-86 0 -144 59t-58 144q0 87 58.5 146.5t146.5 59.5
q127 0 185 -117q37 -74 37 -191q0 -150 -64 -237t-162 -87q-149 0 -188 148z" />
    <glyph glyph-name="period.tab" horiz-adv-x="260" 
d="M92 35q0 16 11 27.5t27 11.5t27 -11.5t11 -27.5t-11 -27t-27 -11t-27 11t-11 27z" />
    <glyph glyph-name="comma.tab" horiz-adv-x="260" 
d="M69 -101l54 100q-31 5 -31 36q0 16 11 27t27 11t27 -11t11 -29t-15 -44l-49 -90h-35z" />
    <glyph glyph-name="colon.tab" horiz-adv-x="260" 
d="M93 35q0 16 11 27.5t26 11.5q16 0 27 -11.5t11 -27.5t-11 -27t-27 -11q-15 0 -26 11t-11 27zM93 364q0 16 11 27.5t26 11.5q16 0 27 -11.5t11 -27.5t-11 -27t-27 -11q-15 0 -26 11t-11 27z" />
    <glyph glyph-name="semicolon.tab" horiz-adv-x="260" 
d="M69 -101l54 100q-30 6 -30 36q0 16 10.5 27t26.5 11q17 0 27.5 -11t10.5 -29t-15 -44l-48 -90h-36zM93 364q0 16 11 27.5t26 11.5q16 0 27 -11.5t11 -27.5t-11 -27t-27 -11q-15 0 -26 11t-11 27z" />
    <glyph glyph-name="space.tab" horiz-adv-x="260" 
 />
    <glyph glyph-name="percent.lt" horiz-adv-x="520" 
d="M19 500q0 51 35.5 87t85.5 36q51 0 87 -36t36 -87t-36 -86.5t-87 -35.5q-50 0 -85.5 35.5t-35.5 86.5zM57 500q0 -34 24.5 -58.5t58.5 -24.5q35 0 60 24.5t25 58.5q0 35 -25 59.5t-60 24.5t-59 -24.5t-24 -59.5zM502 114q0 -51 -35.5 -87t-86.5 -36t-86.5 36t-35.5 87
t35.5 86.5t86.5 35.5t86.5 -35.5t35.5 -86.5zM464 114q0 35 -24.5 59t-59.5 24t-59.5 -24t-24.5 -59t24.5 -59.5t59.5 -24.5t59.5 24.5t24.5 59.5zM40 0l398 614h43l-398 -614h-43z" />
    <glyph glyph-name="perthousand.lt" horiz-adv-x="800" 
d="M41 0l398 614h44l-398 -614h-44zM59 500q0 -34 24.5 -58.5t58.5 -24.5q35 0 59.5 24t24.5 59t-24.5 59.5t-59.5 24.5t-59 -24.5t-24 -59.5zM504 114q0 -51 -35.5 -87t-86.5 -36t-87 36t-36 87t36 86.5t87 35.5t86.5 -35.5t35.5 -86.5zM465 114q0 34 -24.5 58.5
t-58.5 24.5q-35 0 -59.5 -24t-24.5 -59t24.5 -59.5t59.5 -24.5t59 24.5t24 59.5zM20 500q0 51 35.5 87t86.5 36t87 -36t36 -87t-36 -86.5t-87 -35.5t-86.5 35.5t-35.5 86.5zM780 114q0 -51 -35.5 -87t-85.5 -36q-51 0 -87 36t-36 87t36 86.5t87 35.5q50 0 85.5 -35.5
t35.5 -86.5zM742 114q0 34 -24 58.5t-59 24.5t-60 -24.5t-25 -58.5q0 -35 25 -59.5t60 -24.5t59 24.5t24 59.5z" />
    <glyph glyph-name="plus.lt" horiz-adv-x="520" 
d="M238 480h43v-164h165v-43h-165v-164h-43v164h-164v43h164v164z" />
    <glyph glyph-name="minus.lt" horiz-adv-x="520" 
d="M74 273v43h372v-43h-372z" />
    <glyph glyph-name="multiply.lt" horiz-adv-x="520" 
d="M231 292l-121 122l29 29l121 -122l120 122l30 -29l-121 -122l121 -122l-30 -29l-120 121l-121 -121l-29 29z" />
    <glyph glyph-name="divide.lt" horiz-adv-x="520" 
d="M74 273v43h372v-43h-372zM223 447q0 16 11 27t25 11q15 0 26 -11t11 -27q0 -15 -11 -25.5t-26 -10.5q-14 0 -25 10.5t-11 25.5zM223 142q0 15 11 26t25 11q15 0 26 -11t11 -26q0 -16 -11 -26.5t-26 -10.5t-25.5 10.5t-10.5 26.5z" />
    <glyph glyph-name="equal.lt" horiz-adv-x="520" 
d="M74 210v42h372v-42h-372zM74 338v42h372v-42h-372z" />
    <glyph glyph-name="less.lt" horiz-adv-x="520" 
d="M122 269v47l275 150v-48l-232 -125l232 -125v-49z" />
    <glyph glyph-name="greater.lt" horiz-adv-x="520" 
d="M397 316v-47l-275 -150v49l232 125l-232 125v48z" />
    <glyph glyph-name="plusminus.lt" horiz-adv-x="520" 
d="M238 495h43v-126h163v-42h-163v-126h-43v126h-163v42h163v126zM75 104v43h369v-43h-369z" />
    <glyph glyph-name="lessequal.lt" horiz-adv-x="520" 
d="M122 308v46l275 115v-46l-224 -92l224 -92v-46zM122 111v43h275v-43h-275z" />
    <glyph glyph-name="greaterequal.lt" horiz-adv-x="520" 
d="M397 354v-46l-275 -115v46l224 92l-224 92v46zM397 154v-43h-275v43h275z" />
    <glyph glyph-name="notequal.lt" horiz-adv-x="520" 
d="M74 338v41h228l69 89h45l-69 -89h99v-41h-131l-66 -86h197v-41h-229l-69 -90h-45l69 90h-98v41h130l66 86h-196z" />
    <glyph glyph-name="approxequal.lt" horiz-adv-x="520" 
d="M74 304v46q49 45 99 45q33 0 86.5 -23.5t83.5 -23.5q51 0 103 48v-46q-50 -45 -103 -45q-32 0 -85.5 23.5t-84.5 23.5q-48 0 -99 -48zM74 195v45q49 46 99 46q33 0 86.5 -24t83.5 -24q51 0 103 49v-46q-49 -45 -103 -45q-32 0 -85.5 23.5t-84.5 23.5q-48 0 -99 -48z" />
    </font>
</defs>
</svg>
