<?xml version="1.0" standalone="no"?>
<!DOCTYPE svg PUBLIC "-//W3C//DTD SVG 1.1//EN" "http://www.w3.org/Graphics/SVG/1.1/DTD/svg11.dtd" >
<svg xmlns="http://www.w3.org/2000/svg">
<metadata></metadata>
<defs>
<font id="signpainter_houseslantregular" horiz-adv-x="808" >
<font-face units-per-em="2048" ascent="1638" descent="-410" />
<missing-glyph horiz-adv-x="493" />
<glyph horiz-adv-x="0" />
<glyph horiz-adv-x="682" />
<glyph unicode=" "  horiz-adv-x="493" />
<glyph unicode="&#x09;" horiz-adv-x="493" />
<glyph unicode="&#xa0;" horiz-adv-x="493" />
<glyph unicode="!" horiz-adv-x="546" d="M-47 109q13 75 74 119.5t135 17.5q46 -16 68.5 -51t20 -69.5t-10.5 -66.5q-13 -42 -57 -83t-101 -42q-64 -2 -103 49t-26 126zM68 393q-6 24 6 68q79 302 278 866q13 38 33 47.5t57 -2.5q89 -29 142 -74q28 -24 33 -48.5t-9 -59.5q-196 -488 -315 -850q-10 -33 -26 -41 t-46 0q-57 13 -119 51q-28 19 -34 43z" />
<glyph unicode="&#x22;" horiz-adv-x="765" d="M196.5 982.5q-7.5 14.5 4.5 43.5q113 254 180 453q19 62 78 24q63 -39 82 -65q21 -25 22 -52t-10 -57q-21 -68 -65 -158t-80 -143q-35 -51 -80 -59q-59 -9 -95 -4q-29 3 -36.5 17.5zM492 999q153 260 231 428q28 60 80 17q54 -43 74 -74q13 -20 15.5 -38.5t-1 -32.5 t-14.5 -39q-28 -66 -82.5 -151t-96.5 -132q-40 -46 -86 -49t-94 6q-59 12 -26 65z" />
<glyph unicode="#" horiz-adv-x="978" d="M3.5 441.5q5.5 14.5 35.5 21.5q80 20 156 37q8 27 28 90t31 98q0 1 -3 -1q-2 -1 -3 -1q-60 -13 -92 8t-58 76q-14 28 -7.5 41t38.5 20q83 19 188 37q51 151 111 291q13 31 30 35t42 -16q94 -77 53 -187q-5 -17 -18.5 -48.5t-18.5 -45.5q107 12 160 16q58 155 115 285 q25 56 71 16q93 -79 47 -186q-6 -14 -20 -49t-23 -55q59 -1 84 -20t41 -64q11 -28 4 -39.5t-39 -14.5q-70 -6 -147 -12q-12 -33 -36.5 -99.5t-37.5 -99.5q51 -1 73.5 -18t41.5 -59q12 -26 5 -39.5t-38 -16.5q-36 -3 -135 -16q-40 -113 -88 -258q-15 -52 -62 -23 q-29 18 -44.5 39t-21 57t10.5 85q2 8 9.5 31t11.5 38q-23 -5 -81 -16.5t-89 -18.5q-56 -173 -72 -223q-10 -29 -22.5 -33t-36.5 11q-46 28 -63.5 68t1.5 110l6 24q-48 -7 -75.5 13t-53.5 69q-14 28 -8.5 42.5zM387 537q97 14 164 22q26 88 65 191q-89 -12 -163 -27 q-38 -102 -66 -186z" />
<glyph unicode="$" horiz-adv-x="755" d="M6 412q37 22 82.5 17t73.5 -28q70 -54 140 -71.5t91 6.5q20 17 -12.5 48t-102 81.5t-104.5 87.5q-33 35 -52 76.5t-22 95t21 109.5q36 80 100 158t137 122q41 24 84 27q70 176 93 223q25 55 73 16q84 -64 51 -180q-16 -55 -41 -123q49 -43 52 -47q49 -56 41 -147 q-6 -57 -27 -129t-45 -117q-10 -22 -24 -27t-37 4q-115 49 -99 162q2 13 8 36.5t11 43t8.5 39t2 32.5t-8.5 17q-12 7 -38.5 -10t-53.5 -47.5t-48 -70.5t-21 -80t26 -74q19 -23 48 -48t54.5 -45t53 -43t46 -46t31 -49t12 -57.5t-15.5 -66.5q-29 -66 -96.5 -121.5 t-163.5 -56.5q-23 0 -35 2q-44 -130 -70 -223q-7 -30 -21.5 -34.5t-39.5 11.5q-79 51 -51 215q3 18 10.5 46t9.5 38q-63 40 -123 115q-62 80 -8 113z" />
<glyph unicode="%" horiz-adv-x="1214" d="M143 743q-36 110 23.5 269.5t167.5 238.5q23 17 54.5 24t55.5 1q74 -17 111 -57q20 -23 41 -70q28 -58 100 -64q62 -5 152 37t160 117q22 23 38 21.5t33 -27.5q66 -105 -10 -193q-152 -172 -427.5 -515.5t-393.5 -510.5q-20 -25 -32 -24t-32 24q-23 27 -32.5 52 t-2.5 60.5t35 76.5q86 126 273 366.5t358 446.5q-54 -31 -111.5 -37.5t-103.5 12.5q-11 -101 -51.5 -194t-104.5 -146q-61 -49 -141 -37q-60 14 -102 45q-37 29 -58 84zM279.5 812.5q-6.5 -65.5 17.5 -77.5q25 -11 60 37t67 141q28 82 37 151.5t-10 84.5q-18 10 -62.5 -51 t-69.5 -129q-33 -91 -39.5 -156.5zM611.5 291q18.5 93 74 188t127.5 148q23 17 56 23.5t57 0.5q66 -15 108 -57q42 -44 45 -115q7 -115 -39 -250.5t-131 -201.5q-65 -52 -141 -37q-54 9 -102 45q-42 32 -54 84q-19 79 -0.5 172zM748.5 187q-8.5 -66 15.5 -78q23 -9 60 39.5 t71 138.5q29 78 40.5 150t-7.5 87q-18 10 -63 -51t-72 -129q-36 -91 -44.5 -157z" />
<glyph unicode="&#x26;" horiz-adv-x="1062" d="M66 483q75 86 219 174q-21 41 -33 78q-39 107 -35 191.5t57 173.5q44 74 131 133t175 80q54 12 100 12.5t93 -27t91 -86.5q83 -108 77.5 -222t-95.5 -210q-72 -80 -264 -198q64 -119 108 -185q76 59 133 111q32 29 56 29t32 -25q34 -97 -59 -225q-31 -41 -45 -54 q50 -67 80 -102q24 -28 22.5 -44.5t-28.5 -35.5q-28 -21 -47.5 -31t-49.5 -16t-52.5 6t-57.5 49q-9 9 -33 37q-97 -66 -209 -102q-47 -16 -85.5 -22.5t-86.5 -4.5t-96.5 26t-95.5 70q-203 195 -2 420zM221 235q1 -16 6 -28q19 -28 96.5 -9.5t182.5 78.5q-46 67 -115 181 q-44 -33 -78 -67t-52 -61t-29.5 -52.5t-10.5 -41.5zM485 791l4 -13q103 61 156 109q30 27 51 64t27 82t-21 83q-58 -14 -116.5 -54t-87.5 -87q-49 -82 -13 -184z" />
<glyph unicode="'" horiz-adv-x="434" d="M182 999q170 299 230 428q28 60 80 17q52 -41 73 -74q13 -20 15.5 -38.5t-1 -32.5t-14.5 -39q-28 -67 -82.5 -152t-95.5 -131q-40 -46 -86 -49t-94 6q-58 12 -25 65z" />
<glyph unicode="(" horiz-adv-x="497" d="M76 386.5q-2 176.5 41.5 351.5t130.5 345t207 303q46 52 88 -8q96 -143 8 -278q-104 -157 -170.5 -348t-81.5 -391t43 -373q9 -28 2.5 -37t-35.5 -12q-129 -11 -178 127q-53 144 -55 320.5z" />
<glyph unicode=")" horiz-adv-x="555" d="M-121.5 -47.5q-4.5 17.5 15.5 39.5q128 149 221 377t129 480t0 460q-7 41 4.5 58t54.5 9q93 -20 145.5 -81.5t61.5 -151.5q29 -288 -84.5 -623t-304.5 -522q-81 -78 -207 -66q-31 3 -35.5 20.5z" />
<glyph unicode="*" horiz-adv-x="972" d="M105 787.5q4 13.5 36 25.5q104 41 240 84q-100 113 -160 188q-38 46 17 70q115 51 190 -39q11 -13 36.5 -43t39.5 -45q47 140 96 250q25 57 70 18q96 -79 53 -186q-39 -103 -49 -131q49 11 98 18q70 9 110.5 -10.5t63.5 -64.5q26 -51 -26 -60q-63 -12 -215 -51 q25 -26 77 -78.5t80 -81.5q22 -24 20 -35.5t-28 -27.5q-29 -19 -55 -24.5t-59.5 6.5t-71.5 46q-49 44 -90 84q-11 -35 -33 -108t-35 -113q-9 -30 -22 -33t-39 13q-45 26 -62.5 66t0.5 110q9 35 23 84q-12 -4 -55 -19t-64 -22q-59 -20 -99.5 -1t-72.5 71q-18 26 -14 39.5z " />
<glyph unicode="+" horiz-adv-x="999" d="M27 633q-6 26 10.5 41t44.5 20q112 24 287 37q64 191 104 273q11 25 30.5 36.5t41.5 1.5q27 -12 57.5 -35.5t48.5 -45.5q20 -24 22 -42t-11 -47q-51 -125 -52 -127q96 3 162 0q57 -3 76 -51q18 -48 31 -104q6 -29 -3 -40t-38 -11q-167 -3 -306 -17q-55 -172 -90 -299 q-9 -32 -21 -37t-38 9q-53 27 -92 57q-42 31 -31 86q13 66 37 158q-33 -4 -133 -23q-30 -7 -47 -1t-35 32q-42 65 -55 129z" />
<glyph unicode="," horiz-adv-x="428" d="M-170 -162q120 198 207 355q16 29 37.5 33t46.5 -13q72 -45 106 -88q19 -28 18 -46.5t-18 -49.5q-31 -58 -83 -127t-93 -111q-42 -42 -88 -45q-46 -2 -115 23q-50 17 -18 69z" />
<glyph unicode="-" d="M53 623q-17 65 45 77q89 19 229.5 32t262.5 13q61 0 78 -53q14 -42 26 -110q4 -30 -7 -41t-44 -13q-260 -14 -455 -55q-30 -6 -49.5 2.5t-36.5 36.5q-34 54 -49 111z" />
<glyph unicode="." horiz-adv-x="452" d="M-27 125q13 75 74 119.5t135 17.5q46 -16 68.5 -50.5t20 -69t-12.5 -66.5q-17 -44 -58.5 -83t-97.5 -40q-65 -2 -103.5 47.5t-25.5 124.5z" />
<glyph unicode="/" horiz-adv-x="724" d="M-80 61q0 26 21 68q79 163 320.5 579.5t354.5 581.5q42 62 97 19q67 -55 100 -92q24 -31 23.5 -51t-21.5 -52q-112 -164 -352.5 -557t-353.5 -594q-17 -31 -34 -35.5t-46 13.5q-54 34 -86 71q-23 23 -23 49z" />
<glyph unicode="0" horiz-adv-x="935" d="M12.5 386q1.5 107 33.5 228.5t81 234t121 213.5t155 167q45 35 105 51t108 8q68 -9 129 -33.5t93 -58.5q74 -74 80 -192q8 -144 -25.5 -317.5t-113.5 -347.5t-189 -280q-104 -102 -260 -86q-116 14 -195 72q-31 22 -60 61t-42 82q-22 91 -20.5 198zM279 365.5 q-10 -143.5 43 -172.5q53 -21 130 91.5t136 293.5q31 95 52.5 201t21.5 188.5t-29 91.5q-46 17 -136 -110t-149 -283q-59 -157 -69 -300.5z" />
<glyph unicode="1" horiz-adv-x="528" d="M-5.5 73.5q-6.5 25.5 3.5 69.5q29 129 98.5 377.5t132.5 440.5q-27 18 -37 26t-18 20.5t-4 25.5t16 34q45 78 125 180q26 32 45.5 39t53.5 -4q75 -25 131 -72q29 -25 34 -43t-8 -55q-72 -196 -180 -537t-168 -561q-9 -34 -23 -42t-46 1q-75 21 -123 56q-26 19 -32.5 44.5 z" />
<glyph unicode="2" horiz-adv-x="845" d="M-61 117q-38 78 16 119q157 125 333 305.5t282 323t79 167.5q-24 22 -81.5 -17t-149.5 -124q-44 -39 -115 -43t-121 20q-68 30 8 142q72 107 170 181.5t195 94.5q59 11 109.5 1t93 -36.5t71.5 -58.5t45 -66q22 -48 27 -94.5t-7.5 -94t-33.5 -90t-55 -97.5 q-75 -118 -206 -259t-265 -247q93 18 215 22q57 3 84 -53q32 -62 41 -115q7 -30 -2 -41t-41 -14q-102 -9 -249 -33t-230 -45q-60 -11 -82 -5.5t-39 28.5q-56 65 -92 129z" />
<glyph unicode="3" horiz-adv-x="886" d="M-74.5 232.5q7.5 14.5 27.5 27.5q46 28 96.5 25t89.5 -29q105 -65 178 -59.5t138 73.5q37 39 54 84t14.5 78t-17.5 49q-22 22 -54 27t-77 -2q-58 -9 -112 28.5t-83 108.5q-26 64 29 84q98 35 179.5 73.5t134 72.5t86.5 66t44.5 56.5t1.5 40.5q-26 47 -182 -55 q-61 -38 -129 -29t-113 52q-40 40 0 90q49 63 134.5 119t171.5 77q38 9 71.5 10.5t75 -7t81.5 -38.5t73 -81q49 -76 55 -157t-20 -142.5t-72 -106.5q-80 -77 -211 -135q66 -19 110 -66q61 -63 77.5 -139.5t-4 -147t-68.5 -135.5q-140 -187 -390 -190q-198 0 -348 174 q-31 36 -40 62.5t-1.5 41z" />
<glyph unicode="4" horiz-adv-x="970" d="M14 502q-30 54 17 123q100 148 273 344.5t300 306.5q30 26 52.5 30t54.5 -8q34 -10 108 -53t105 -69q29 -24 33.5 -44t-9.5 -55q-101 -271 -160 -448q54 -3 72 -58q20 -58 25 -108q3 -33 -7 -46t-42 -14q-20 -1 -62 -4t-63 -4q-66 -197 -123 -393q-9 -33 -24.5 -41.5 t-47.5 0.5q-65 19 -115 57q-26 22 -31.5 46.5t5.5 68.5q17 74 67 236q-78 -10 -231 -35q-27 -8 -54.5 -2.5t-47.5 30.5q-46 52 -95 140zM266 590q67 9 256 26q51 151 140 398q-193 -181 -396 -424z" />
<glyph unicode="5" horiz-adv-x="804" d="M-50.5 225q-1.5 26 27.5 43q47 28 104.5 25.5t90.5 -31.5q143 -126 240 10q30 42 47 98t16 93t-12 55q-20 14 -71.5 12.5t-92.5 -14.5q-43 -13 -55.5 -11.5t-34.5 21.5q-40 32 -78 70q-36 36 -10 111q68 202 201 467q33 64 102 75q180 28 373 35q70 3 88 -55 q6 -15 9.5 -34t5 -31.5t3 -35t2.5 -30.5q4 -34 -6.5 -47.5t-44.5 -16.5q-93 -10 -324 -43q-61 -116 -120 -260q116 0 211 -67q87 -63 96.5 -178.5t-66.5 -270.5q-19 -38 -48.5 -74.5t-74.5 -74.5t-109.5 -62.5t-137.5 -26.5q-89 -2 -166.5 37.5t-124.5 120.5 q-39 64 -40.5 90z" />
<glyph unicode="6" horiz-adv-x="835" d="M-12 350q13 89 47 192t94.5 227t162.5 255.5t232 243.5q32 27 51 33t58 -1q39 -8 88.5 -26.5t71.5 -34.5q19 -15 26.5 -27.5t3 -28.5t-25.5 -34q-182 -152 -334 -375q66 3 129 -26q89 -41 119.5 -100.5t25.5 -145.5q-9 -146 -83.5 -281t-168.5 -203q-139 -101 -325 -12 q-108 52 -149.5 136.5t-22.5 207.5zM252 193q38 -23 90.5 18.5t99.5 132.5q41 79 49 139t-24 82q-33 15 -88 -17t-98 -95q-91 -221 -29 -260z" />
<glyph unicode="7" horiz-adv-x="878" d="M72.5 110.5q0.5 25.5 21.5 65.5q208 415 545 864q-187 -21 -277 -34q-73 -14 -110 36q-44 71 -64 129q-11 29 -5 41.5t32 18.5q97 26 251.5 43t297.5 22q36 0 59.5 -11t42.5 -42q34 -50 74 -127q17 -30 15 -63.5t-29 -67.5q-160 -207 -338.5 -480.5t-315.5 -524.5 q-15 -30 -31 -34.5t-44 13.5q-66 45 -105 98q-20 28 -19.5 53.5z" />
<glyph unicode="8" horiz-adv-x="892" d="M-20 322q24 95 100.5 175.5t193.5 159.5q-88 78 -100.5 172.5t53.5 194.5q56 84 138.5 151t177.5 105q151 61 291 -72q53 -51 78.5 -112t18 -131.5t-53.5 -137.5q-63 -94 -248 -206q72 -60 105.5 -121.5t29 -123t-31 -118.5t-77.5 -123q-51 -65 -112.5 -106t-125.5 -56 t-128.5 -9t-126.5 32q-112 45 -160 133t-22 193zM232.5 217.5q6.5 -31.5 33.5 -43.5q32 -14 82 14.5t88 90.5q28 46 41 81.5t6.5 75t-39.5 70.5q-140 -93 -194 -201q-24 -56 -17.5 -87.5zM453 764q158 102 203.5 177.5t-19.5 141.5q-131 -85 -179.5 -173.5t-4.5 -145.5z" />
<glyph unicode="9" horiz-adv-x="831" d="M11 100q5 16 26 33q148 122 282 293q-46 8 -69 18q-172 71 -178 242q-6 149 71.5 309.5t184.5 241.5q151 110 319 29q116 -54 167.5 -129t45.5 -195q-7 -131 -91 -308t-223 -351t-294 -287q-24 -18 -40.5 -26.5t-35.5 -8.5t-39 12q-68 38 -104 74q-15 15 -21 26t-1 27z M327.5 708.5q-3.5 -66.5 34.5 -87.5q47 -21 109 38q41 76 69.5 147t40 124t8 89t-23.5 46q-37 17 -95.5 -47t-100.5 -156q-38 -87 -41.5 -153.5z" />
<glyph unicode=":" horiz-adv-x="503" d="M-47 143q20 69 77 107t126 14q35 -12 56 -37.5t26.5 -56t4 -58.5t-9.5 -53q-21 -57 -70.5 -87t-105.5 -17q-60 15 -92 65t-12 123zM117 657q13 75 74 119.5t135 18.5q46 -16 68 -51t19.5 -69.5t-12.5 -66.5q-18 -44 -58.5 -83t-96.5 -40q-65 -2 -103.5 47.5t-25.5 124.5z " />
<glyph unicode=";" horiz-adv-x="532" d="M-158 -162q151 250 207 355q29 52 86 20q70 -40 105 -88q19 -31 18 -48t-18 -48q-31 -58 -83.5 -126.5t-93.5 -111.5q-42 -42 -88 -45q-43 -2 -112 23q-53 18 -21 69zM125 657q11 75 72.5 120t136.5 18q47 -16 69.5 -51t19.5 -69.5t-11 -66.5q-13 -42 -56.5 -82 t-101.5 -41q-64 -2 -102.5 47.5t-26.5 124.5z" />
<glyph unicode="&#x3c;" horiz-adv-x="712" d="M57 602q15 55 31 100q17 48 62 76q63 38 172 88t178 74q55 18 88 -20q38 -44 61 -86q15 -26 9.5 -40.5t-33.5 -25.5q-126 -51 -297 -135q131 -69 186 -107q24 -18 32.5 -36.5t2.5 -45.5q-10 -50 -31 -100q-12 -27 -27 -31.5t-40 11.5q-178 109 -379 202q-33 14 -15 76z " />
<glyph unicode="=" horiz-adv-x="892" d="M53 469q-9 29 4.5 47t40.5 23q127 25 287.5 38.5t282.5 10.5q55 0 73 -49q21 -45 31 -99q6 -27 -3.5 -38t-39.5 -13q-286 -9 -549 -61q-33 -6 -52 1t-32 33q-23 43 -43 107zM123 829q-11 58 51 66q126 17 289 18.5t280 -10.5q58 -6 72 -53q20 -62 25 -100 q3 -29 -7.5 -39.5t-39.5 -8.5q-275 9 -553 -22q-33 -3 -51 5.5t-31 35.5q-26 53 -35 108z" />
<glyph unicode="&#x3e;" horiz-adv-x="757" d="M57 469q-23 44 27 66q115 56 326 124q-76 39 -183 84q-28 11 -38 23.5t-13 42.5q0 74 14 129q6 22 25 29t39 -2q220 -87 418 -207q24 -13 30 -27.5t-4 -52.5q-21 -64 -45 -117q-14 -29 -29 -42.5t-46 -22.5q-187 -60 -363 -142q-24 -13 -40.5 -11t-37.5 22 q-48 44 -80 104z" />
<glyph unicode="?" horiz-adv-x="927" d="M80 111q14 69 73 105.5t138 8.5q37 -13 59 -36.5t27 -51t3.5 -51.5t-9.5 -47q-18 -54 -66 -84t-112 -21q-60 8 -94.5 56.5t-18.5 120.5zM146.5 961q-7.5 14 1.5 42t42 70q75 99 167.5 165.5t183.5 86.5q108 23 191.5 -19t127.5 -114q40 -65 53.5 -129.5t1.5 -120 t-35.5 -100t-58.5 -84.5q-33 -37 -84.5 -73.5t-98 -66.5t-93.5 -68t-83.5 -95t-55.5 -131q-7 -30 -21.5 -38.5t-44.5 -0.5q-63 17 -115 53q-25 18 -30 42.5t4 63.5q12 57 39 110t58 91t73 74.5t74 59.5t70 48q12 7 17 11q91 61 135 118.5t44 100.5q0 25 -15.5 38t-36.5 13 q-21 -1 -43.5 -9t-50 -26.5t-45.5 -32t-53.5 -43t-50.5 -41.5q-51 -40 -116 -45.5t-122 25.5q-22 11 -29.5 25z" />
<glyph unicode="@" horiz-adv-x="1218" d="M51.5 557.5q5.5 113.5 48.5 239.5q41 120 111 214t153.5 149.5t176 82.5t184.5 21.5t174 -41.5q101 -44 165 -123t85.5 -175.5t12.5 -202t-48 -210.5q-31 -83 -68.5 -142.5t-74.5 -92t-78 -47t-76.5 -13.5t-71.5 14q-69 23 -98 91q-82 -76 -192 -33q-36 14 -63.5 39 t-47.5 65.5t-16.5 104t34.5 141.5q65 165 177 259.5t206 59.5q32 -12 55 -43.5t29 -72.5q39 -28 47 -55t-6 -64l-39 -111q-39 -111 -57.5 -185.5t-3.5 -90.5q17 -18 48 5.5t70.5 90t72.5 160.5q19 53 31 108.5t14.5 122t-9.5 122.5t-49.5 105.5t-97.5 75.5 q-44 19 -95.5 20.5t-105.5 -13.5t-109 -50.5t-105.5 -86t-95.5 -123t-77 -158.5q-38 -100 -48 -189t2.5 -149t39 -106.5t56.5 -71.5t61 -35q40 -14 94.5 -17t75.5 -8q76 -21 104 -69q10 -15 7 -30.5t-21 -21.5q-122 -45 -279 19q-60 24 -113.5 65.5t-100 109t-70.5 150 t-18.5 196zM487 416q7 -21 23 -25q28 -8 68.5 46.5t84 151.5t87.5 224q0 33 -23 43q-14 5 -51.5 -26.5t-82.5 -94.5t-71 -131q-27 -69 -34.5 -118t-0.5 -70z" />
<glyph unicode="A" horiz-adv-x="980" d="M-99 99q0 25 19 67q98 219 272 540.5t306 532.5q26 40 58 60q27 17 67 17q8 0 16 -1q26 -2 50 -4.5t46 -7t37.5 -7.5t36.5 -9.5t30 -9t31.5 -10.5t28.5 -10q35 -13 44 -37q5 -14 5 -35q0 -14 -2 -30q-59 -409 -110 -1130q-2 -35 -14 -47.5t-46 -12.5q-78 0 -127 19 q-31 12 -42 34t-11 68q0 55 8 231q-308 -54 -383 -75q-60 -112 -121 -234q-17 -32 -32.5 -37t-44.5 9q-73 37 -99 67q-23 26 -23 52zM379 539q159 24 239 30q16 219 48 475q-135 -228 -287 -505z" />
<glyph unicode="B" horiz-adv-x="948" d="M-23 161q-2 9 -2 20q0 26 9 67q13 58 32 127t47.5 161.5t45.5 146.5t55 171t47 147q-28 53 -43 93q-15 38 -9 60.5t38 39.5q78 42 181 72t206 44q45 6 87 6q55 0 106 -10q90 -18 132 -67q85 -106 95 -229q1 -10 1 -20q-1 -66 -35 -128q-40 -72 -104 -131 q-58 -52 -147 -110q47 -30 74.5 -85t29.5 -116v-5q0 -66 -25 -116q-26 -52 -83 -104q-74 -69 -197 -136t-225 -98q-48 -16 -76 -16h-9q-30 3 -65 32q-58 44 -125 117q-35 40 -41 67zM231 219q145 45 239 115q88 65 87 118v7q-3 21 -33 35q-24 11 -65 11q-11 -1 -23 -1 q-58 -4 -125 -29q-73 -233 -80 -256zM397 729q157 57 263 152q99 88 99 138q0 4 -1 7q-3 22 -37 30q-12 3 -27 3q-28 0 -68 -9q-62 -14 -132 -49q-52 -144 -97 -272z" />
<glyph unicode="C" horiz-adv-x="876" d="M-4 156q-22 69 -22 156.5t22 192.5q43 211 153 415.5t250 324.5q88 73 182 73q12 0 25 -1q65 -6 135 -35t109 -65q40 -37 54 -80q12 -37 11 -88v-15q-2 -62 -16.5 -138.5t-34.5 -125.5q-5 -15 -9.5 -22.5t-13.5 -16t-20.5 -7.5t-32.5 3q-78 18 -111 59t-36 115v6 q-1 23 5 65q4 33 5 56q0 12 -1 20q-3 28 -23 35q-4 2 -9 2q-28 0 -77 -61q-58 -71 -116 -177.5t-93 -201.5q-39 -103 -60 -204q-17 -83 -18 -148q0 -15 2 -27q4 -74 39 -86q8 -3 16 -2q25 0 55 20q42 28 105 99q43 47 98 61q23 6 46 6q33 0 67 -12q46 -17 46 -55 q0 -34 -28 -82q-52 -104 -157 -197q-43 -37 -109 -56q-50 -14 -96 -14q-15 0 -29 1q-103 10 -200 67q-36 23 -68 60t-45 80z" />
<glyph unicode="D" horiz-adv-x="1001" d="M-32 198q2 26 14 66q94 347 223 748q-42 86 -47 102q-16 36 -11 59t37 41q64 36 145 61t175 31q20 1 41 1q73 0 139 -16q85 -20 158 -83.5t110 -165.5q29 -79 29 -175t-26.5 -198t-85 -206t-140 -196t-199.5 -172t-256 -132q-31 -12 -60 -12q-45 0 -83 29 q-65 53 -117 108q-18 19 -26 32q-10 12 -16 32q-5 14 -4 32q-1 7 0 14zM242 236q72 36 135 82t109.5 95t85 102.5t64 105t42.5 101.5q17 48 24 92q7 41 7 74q0 38 -9 64q-19 50 -71 70q-23 9 -53 10q-36 0 -80 -14q-125 -339 -254 -782z" />
<glyph unicode="E" horiz-adv-x="788" d="M-39 225q47 207 248 811q-31 53 -49 135q-6 30 1.5 41t33.5 17q102 30 273 51.5t318 26.5h6q59 0 74 -58q20 -61 25 -114v-9q0 -28 -10 -40q-12 -14 -45 -17q-165 -18 -322 -43q-18 -49 -56.5 -152.5t-47.5 -128.5q77 12 157 15q35 2 54.5 -8.5t29.5 -38.5 q24 -71 29 -119q4 -33 -6.5 -46.5t-44.5 -21.5q-232 -45 -324 -69q-36 -99 -63 -187q133 25 245 33q7 1 14 1q56 0 72 -46q26 -70 31 -121q4 -34 -5.5 -47.5t-43.5 -21.5q-288 -67 -358 -86q-42 -10 -66 -10q-9 0 -17 2q-24 6 -46 30q-44 41 -82 88q-30 37 -30 89q0 21 5 44 z" />
<glyph unicode="F" horiz-adv-x="778" d="M-62 76q-2 10 -3 21q0 20 6 46q22 121 102.5 389t163.5 508q-24 44 -47 131q-7 29 1 39.5t34 18.5q99 29 262.5 50.5t314.5 27.5h10q28 1 43 -9q18 -12 33 -47q26 -63 29 -118v-10q-1 -26 -9 -37q-10 -13 -44 -17q-78 -10 -324 -45q-13 -34 -28.5 -77.5t-36 -102.5 t-33.5 -96q97 12 151 14h7q59 0 77 -47q18 -45 29 -119q5 -34 -5.5 -48t-45.5 -20q-190 -35 -308 -65q-81 -248 -141 -447q-10 -33 -29 -42q-9 -4 -21 -4q-13 0 -30 5q-80 22 -127 56q-25 19 -31 45z" />
<glyph unicode="G" horiz-adv-x="905" d="M-12 184q-17 65 -17 144q0 97 26 214q48 214 165.5 416.5t265.5 311.5q62 47 148 47q25 0 51 -4q60 -8 121.5 -35.5t99.5 -65.5q62 -62 65 -178v-8q0 -52 -12 -128q-13 -83 -29 -134q-9 -29 -23.5 -39t-45.5 -6q-158 22 -158 172v6q0 16 2.5 44.5t3.5 48.5t0.5 41t-5 33 t-13.5 15q-5 2 -10 2q-45 0 -129 -118q-93 -131 -168 -308q-65 -154 -80 -303q-3 -33 -3 -61q0 -94 40 -117q9 -4 19 -4q37 0 86 54q62 68 118 182h-15q-67 0 -103 34q-39 38 -48 125q-3 26 8.5 37.5t40.5 18.5q117 30 250 47q18 2 33 2q22 0 38 -4q26 -9 46 -37 q27 -41 47 -82q17 -37 17 -63q0 -28 -19 -70q-58 -140 -133.5 -245.5t-157.5 -162.5q-80 -56 -170 -56q-27 0 -55 5q-104 17 -193 78q-34 25 -63.5 65.5t-40.5 85.5z" />
<glyph unicode="H" horiz-adv-x="925" d="M-54 73q-3 10 -2 24q0 19 5 44q24 112 80 320q-12 27 -31 92q-7 31 -0.5 41t33.5 18q7 2 21.5 6.5t21.5 6.5q127 444 190 616q14 38 35 47t53 -4q85 -30 146 -78q30 -24 35.5 -43.5t-7.5 -54.5q-63 -168 -145 -428q148 16 207 20q102 344 178 562q13 40 35 48q9 3 19 3 q16 0 36 -8q76 -25 137 -74q27 -23 33 -43q2 -6 2 -14q0 -17 -8 -41q-75 -206 -178 -527.5t-183 -597.5q-9 -34 -23 -42q-7 -4 -17 -4q-12 0 -29 5q-83 23 -125 58q-26 22 -32 45q-2 9 -2 22q0 19 5 45q18 92 78 307q-165 -28 -219 -38q-62 -201 -117 -396q-8 -34 -24 -42 q-8 -4 -19 -4q-12 0 -29 5q-71 21 -126 60q-28 20 -34 44z" />
<glyph unicode="I" horiz-adv-x="425" d="M-72 73q-3 10 -3 24q0 19 5 44q36 173 141 540t173 560q13 35 35 45q10 4 22 5q15 0 33 -7q75 -23 145 -78q29 -24 35 -44q2 -6 2 -13q0 -17 -8 -41q-67 -182 -174 -521t-174 -577q-8 -34 -24 -42q-8 -4 -19 -4q-12 0 -29 5q-71 20 -127 60q-27 20 -33 44z" />
<glyph unicode="J" horiz-adv-x="856" d="M-20 211q-6 34 -6 71q0 81 28 173q17 58 42 81q14 12 31 12q16 0 36 -11q67 -34 100 -85q28 -44 28 -95q0 -9 -1 -19q-7 -55 -7 -90q0 -17 2 -30q5 -37 35 -40h3q37 0 91 112q55 115 110.5 295t100 348.5t78.5 317.5q9 36 32 46q11 5 24 5q15 0 32 -6q89 -25 150 -71 q31 -24 37 -43q2 -8 2 -17q0 -16 -6 -37q-107 -457 -215.5 -737t-233.5 -375q-81 -61 -177 -61q-53 0 -110 18q-174 58 -206 238z" />
<glyph unicode="K" horiz-adv-x="907" d="M-73 73q-2 10 -2 22q0 19 5 46q38 178 145 555t175 564q13 36 34.5 45.5t53.5 -2.5q75 -23 145 -78q31 -25 36.5 -43.5t-7.5 -53.5q-39 -102 -125 -368q350 371 475 524q23 28 42 29h1q19 0 41 -25q50 -53 68 -121q4 -15 4 -31q0 -45 -33 -98q-115 -184 -471 -540 q94 -227 184 -387q15 -28 9.5 -46.5t-33.5 -35.5q-34 -19 -92 -35q-21 -5 -40 -5q-62 0 -100 58q-103 162 -176 332q-59 -199 -108 -369q-10 -34 -24 -42q-7 -4 -17 -4q-12 0 -29 5q-80 22 -129 60q-26 20 -32 44z" />
<glyph unicode="L" horiz-adv-x="727" d="M-66 217q45 196 148 521t184 526q14 35 36 44q9 4 21 4q15 0 33 -7q96 -30 148 -74q29 -24 33.5 -43.5t-9.5 -54.5q-152 -398 -299 -859q111 22 234 31q35 3 54.5 -6t31.5 -39q26 -66 31 -121q3 -15 2 -26q0 -13 -4 -21q-8 -12 -48 -22q-277 -64 -358 -88 q-30 -10 -52 -12q-7 -1 -12 0q-14 0 -24 4q-14 6 -21.5 11.5t-19.5 18.5q-42 39 -84 88q-30 37 -30 85q0 19 5 40z" />
<glyph unicode="M" horiz-adv-x="1261" d="M-70 64q-4 12 -4 29q0 18 4 40q34 176 137.5 527t180.5 571q14 43 36 55q15 8 40 8q12 0 26 -2q94 -14 189 -57q48 -20 60.5 -49t12.5 -90q-2 -60 -2 -459q71 136 179 323.5t174 292.5q29 46 63 55q12 3 26 3q26 0 58 -11q121 -35 205 -79q34 -19 41 -45q2 -8 2 -17 q0 -21 -10 -51q-68 -199 -176.5 -554.5t-155.5 -533.5q-9 -35 -26 -47.5t-48 -3.5q-60 15 -117 54q-27 18 -34 44q-3 11 -3 26q0 19 5 42q20 100 73.5 294.5t110.5 373.5q-298 -541 -369 -680q-20 -38 -32 -46t-44 -1q-40 8 -90 30q-29 15 -41.5 36.5t-15.5 76.5 q-8 155 -8 346q0 103 2 215q-136 -434 -225 -770q-9 -34 -24 -44q-8 -5 -21 -5q-11 0 -25 4q-63 16 -119 55q-27 20 -35 44z" />
<glyph unicode="N" horiz-adv-x="958" d="M-72 82q-2 9 -2 21q0 20 6 47q30 138 138.5 509.5t179.5 577.5q19 53 66 53q14 0 30 -4q97 -29 164 -67q34 -17 46.5 -43t14.5 -78q4 -195 25 -561q81 325 209 704q13 37 35 47q10 5 23 4q15 0 32 -6q66 -20 123 -59q30 -19 34 -47q1 -6 1 -13q0 -23 -11 -49 q-155 -469 -325 -1089q-7 -33 -30 -45.5t-56 -3.5q-57 13 -123 49q-56 27 -72 102q-50 210 -74 578q-27 -93 -103.5 -348t-100.5 -347q-6 -34 -22 -42q-7 -4 -17 -3q-13 0 -31 6q-82 23 -129 62q-25 19 -31 45z" />
<glyph unicode="O" horiz-adv-x="948" d="M12 385q2 107 34.5 228.5t83 234.5t124 215.5t156.5 171.5q42 35 104 53q42 12 80 12q17 0 33 -2q65 -9 125.5 -35t95.5 -61q76 -76 82 -196q1 -25 1 -50q0 -124 -28 -268q-34 -174 -114.5 -350.5t-190.5 -284.5q-89 -87 -214 -87q-23 0 -48 3q-117 14 -197 70 q-33 23 -62 62.5t-42 84.5q-23 87 -23 186v13zM286 282q4 -80 40 -96q9 -4 19 -4q49 0 113 95q78 114 140 301q32 97 54 205q21 103 21 184v7q-1 84 -32 93q-4 1 -9 1q-45 0 -126 -118q-89 -130 -146 -282q-37 -98 -58 -202q-17 -86 -18 -155q1 -15 2 -29z" />
<glyph unicode="P" horiz-adv-x="966" d="M-30 64q-2 10 -2 23q0 19 5 44q45 216 240 842q-42 86 -47 102q-16 38 -10.5 60.5t37.5 40.5q78 44 179 78t204 51q52 9 101 9q47 0 92 -8q90 -16 134 -71q92 -115 109 -256q2 -19 2 -37q0 -60 -25 -112q-33 -68 -98 -138q-90 -100 -255 -192.5t-331 -141.5 q-77 -242 -108 -356q-10 -32 -25 -40q-8 -4 -20 -5q-12 0 -27 4q-80 25 -123 57q-26 20 -32 46zM401 651q175 64 281 174q95 99 95 165q0 7 -1 14q-3 22 -39 30q-15 3 -33 3q-28 0 -62 -7q-58 -11 -120 -39q-45 -120 -121 -340z" />
<glyph unicode="Q" horiz-adv-x="946" d="M12 385q2 107 34.5 228.5t83 234.5t124 215.5t156.5 171.5q43 36 104 53q43 13 80 13q17 0 33 -3q65 -9 125.5 -35t95.5 -61q74 -74 80 -196q2 -28 2 -58q0 -165 -52 -364q-62 -236 -180 -410q29 -53 62 -108q18 -29 14.5 -46.5t-31.5 -37.5q-47 -32 -102 -45 q-14 -3 -27 -3q-45 0 -75 37q-4 5 -11 13t-10 12q-55 -29 -136 -29q-22 0 -46 2q-111 10 -197 70q-33 23 -62 62.5t-42 84.5q-23 87 -23 186v13zM286 282q4 -81 40 -96q7 -3 15 -3q20 0 46 18q-13 20 -27 49q-9 17 -9 30q0 27 34 44q54 28 125 43q41 79 86 211 q32 97 53.5 205t21.5 191.5t-30 92.5q-4 1 -9 1q-46 0 -126 -118q-89 -130 -146 -282q-37 -97 -58 -202q-17 -86 -17 -155q0 -15 1 -29z" />
<glyph unicode="R" horiz-adv-x="993" d="M-29 64q-3 11 -3 24q0 19 5 43q49 237 242 842q-40 78 -49 102q-15 38 -9.5 60.5t36.5 40.5q78 44 179 78t204 51q52 9 101 9q47 0 92 -8q90 -16 134 -71q92 -115 109 -256q2 -19 2 -37q0 -132 -121 -250q-126 -123 -332 -225q109 -183 252 -352q23 -29 20.5 -45.5 t-26.5 -36.5q-17 -14 -32 -22.5t-23.5 -11t-32.5 -9.5q-22 -7 -42 -7q-54 0 -102 46q-58 52 -135.5 155t-136.5 205q-69 -207 -119 -377q-9 -32 -23 -40q-7 -4 -19 -5q-11 0 -27 4q-72 20 -111 47q-27 20 -33 46zM397 659q86 33 163.5 83t125.5 99.5t74 93.5q21 36 21 59 q0 5 -1 10q-8 38 -84 38h-1q-75 0 -173 -45q-29 -72 -125 -338z" />
<glyph unicode="S" horiz-adv-x="821" d="M-94 298q6 14 28 26q40 20 87 20h18q57 -4 90 -33q90 -79 171 -105q35 -11 62 -11q35 0 56 20q10 8 10.5 19t-7 24.5t-20.5 29t-32 33t-39.5 35.5t-44 38.5t-45.5 40t-44.5 42t-39.5 41.5q-40 46 -61 102q-19 51 -19 115v13q2 72 35 143q43 101 129.5 203.5t177.5 160.5 q69 42 136 42q38 0 75 -13q50 -19 99.5 -51.5t78.5 -65.5q26 -29 38 -65q11 -32 11 -57v-7q-2 -29 -4 -59q-10 -70 -43.5 -172.5t-65.5 -165.5q-15 -29 -32 -36t-45 5q-138 60 -138 157q0 16 4 34q4 19 14 52.5t19 61t17.5 59t9 46t-5.5 22.5q-13 8 -47.5 -17t-72 -68 t-68.5 -99q-32 -56 -36 -110q-1 -7 0 -14q0 -46 27 -87q23 -31 59 -65t68.5 -62t67 -58.5t59.5 -60t41 -61.5q15 -30 15 -64q0 -39 -21 -79q-118 -232 -350 -236h-11q-210 0 -370 227q-29 40 -38 68q-5 16 -5 28q-1 8 2 14z" />
<glyph unicode="T" horiz-adv-x="907" d="M160 1171q-3 14 -3 23q0 12 4 18q8 12 34 17q141 31 342 54t348 26q55 0 78 -33q41 -62 51 -135q2 -13 2 -22q0 -15 -6 -23q-8 -12 -43 -15q-39 -3 -121 -11.5t-103 -10.5q-173 -498 -329 -1055q-10 -32 -24 -40q-7 -4 -17 -4q-12 0 -29 5q-73 20 -127 60q-27 20 -33 46 q-2 10 -2 22q0 20 6 46q31 153 103.5 410t142.5 467q-94 -16 -129 -25q-32 -8 -50 -1.5t-38 34.5q-31 44 -57 147z" />
<glyph unicode="U" horiz-adv-x="923" d="M0 304q0 5 -1 11q0 71 19 161q20 97 40.5 177t64 202t68.5 188t73 190q13 35 35 43.5t55 -4.5q78 -29 123 -74q37 -36 37 -81q0 -26 -12 -56q-37 -95 -63 -164.5t-65.5 -179t-61.5 -189.5q-21 -78 -38 -158q-13 -59 -13 -100q0 -14 2 -26q6 -46 34 -56q25 -9 54.5 16.5 t60.5 82.5t61 124t63 162t59 174.5t56 183.5t48 167.5t40 146.5q11 37 33 47q10 5 22 5q15 0 33 -7q74 -23 138 -73q29 -23 34 -43q2 -6 2 -14q0 -17 -8 -40q-50 -187 -88.5 -318t-86.5 -270t-92 -231.5t-97.5 -168t-110.5 -114.5q-48 -34 -96 -44q-38 -8 -87 -8 q-14 0 -28 1q-107 5 -192 70q-66 49 -95 137q-18 56 -20 130z" />
<glyph unicode="V" horiz-adv-x="954" d="M150 203q-5 109 -5 236q0 329 35 784q3 36 15 49.5t45 13.5q60 0 122 -24q70 -29 70 -112v-7q-1 -66 -12 -340.5t-14 -446.5q137 280 428 910q17 40 52 40q17 0 38 -10q66 -30 106 -73q25 -26 25 -55q0 -25 -15 -64q-63 -171 -228.5 -518t-289.5 -580q-25 -44 -53 -55 q-12 -5 -27 -5q-20 0 -45 9q-75 25 -164 82q-40 27 -60.5 74t-22.5 92z" />
<glyph unicode="W" horiz-adv-x="1312" d="M27 115q12 198 60 533t97 579q7 39 24.5 52t51.5 5q88 -19 137 -53q34 -25 34 -84q0 -27 -7 -62q-6 -35 -54 -275t-73 -376q100 197 215.5 411t161.5 285q17 29 36 37t52 0q15 -4 30 -9t24.5 -9.5t26 -12l27.5 -12.5q30 -14 36.5 -35t-1.5 -61q-3 -29 -98 -582 q279 595 399 809q22 39 42 45q5 1 10 1q17 0 42 -13q57 -28 103 -71q24 -25 24 -61q0 -32 -20 -73q-113 -222 -271.5 -552t-244.5 -527q-17 -36 -41 -46q-12 -5 -28 -5q-17 0 -40 6q-65 14 -137 47q-61 31 -61 106v7q0 217 20 424q-186 -336 -293 -545q-19 -34 -39 -42 q-10 -4 -24 -4q-13 0 -29 3q-73 16 -147 51q-30 13 -39 37q-7 17 -7 49q0 10 1 23z" />
<glyph unicode="X" horiz-adv-x="966" d="M-91 131q3 25 28 62q112 173 370 489q-105 433 -123 518q-7 40 4 57.5t45 20.5q37 2 68 2q46 0 78 -4q70 -8 90 -90q30 -134 59 -256q223 276 291 356q26 29 55 29q23 0 48 -19q50 -41 86 -120q12 -23 12 -46q0 -39 -33 -81q-169 -198 -377 -455q98 -406 135 -551 q10 -32 2.5 -50t-38.5 -22q-34 -4 -69.5 -4.5t-74.5 4.5q-34 5 -54.5 24t-35.5 60q-16 46 -84 297q-65 -83 -289 -375q-22 -28 -46 -28q-21 0 -44 20q-46 37 -88 109q-15 24 -15 46v7z" />
<glyph unicode="Y" horiz-adv-x="888" d="M152 1233q-2 11 -2 20q0 19 7 27q10 14 42 18q38 5 70 5q39 0 69 -7q32 -7 47.5 -27.5t24.5 -64.5q36 -181 65 -420q140 211 316 498q19 31 38 36h8q17 0 40 -15q63 -40 94 -84q19 -27 19 -49q0 -24 -23 -70q-87 -172 -457 -713q-58 -179 -121 -397q-9 -33 -25 -41 q-6 -4 -17 -4q-12 0 -30 6q-78 23 -124 61q-27 22 -33 46q-2 9 -2 21q0 20 6 48q26 118 94 365q-35 279 -106 741z" />
<glyph unicode="Z" horiz-adv-x="768" d="M-78 199q82 132 264 377.5t349 449.5q-120 -21 -191 -35q-15 -3 -28 -3q-51 0 -76 44q-39 81 -50 137q-6 30 1.5 42t33.5 20q107 27 265 46.5t290 22.5h5q31 0 47 -10q18 -12 26 -41q20 -74 27 -114q4 -15 4 -31q0 -14 -3 -28q-6 -30 -30 -60q-287 -352 -610 -776 q130 31 205 41q13 2 24 2q58 0 72 -47q26 -66 31 -121q3 -34 -8.5 -48t-45.5 -20q-288 -67 -374 -92q-42 -8 -66 -8q-10 0 -16 1q-22 5 -45 27q-47 50 -86 99q-30 40 -30 76q0 26 15 49z" />
<glyph unicode="[" horiz-adv-x="622" d="M-14.5 112q-4.5 28 6.5 78q51 202 146 503.5t177 529.5q18 52 80 61q91 12 223 16q59 3 80 -57q25 -74 29 -113q3 -32 -7.5 -44t-43.5 -17q-29 -4 -160 -18q-160 -440 -280 -840q14 1 43 4t45 4q67 6 86 -47q6 -17 10.5 -34t9 -43.5t6.5 -35.5q6 -32 -5 -45.5t-46 -19.5 q-32 -6 -102 -20l-95 -19q-67 -13 -110 27q-23 21 -66 75q-22 27 -26.5 55z" />
<glyph unicode="\" horiz-adv-x="733" d="M182 1247q-3 38 12.5 55t51.5 19q73 3 137 -10q36 -7 49.5 -24t16.5 -56q12 -199 56.5 -598t80.5 -625q5 -34 -5 -47.5t-44 -17.5q-42 -6 -113 2q-31 4 -47 25t-25 67q-39 178 -98 595t-72 615z" />
<glyph unicode="]" horiz-adv-x="651" d="M-70 104q-20 60 39 74q142 32 164 35q131 440 273 842q-11 -1 -33.5 -4t-34.5 -4q-37 -5 -54.5 4.5t-27.5 40.5q-28 77 -33 112q-9 55 53 66q92 18 240 28q35 3 54 -4.5t36 -31.5q4 -6 25.5 -35.5t30.5 -46.5q15 -28 16.5 -50t-8.5 -53q-73 -194 -170.5 -494t-163.5 -526 q-7 -26 -25 -41t-59 -22q-29 -4 -186 -31q-38 -6 -58.5 3t-34.5 36q-29 55 -43 102z" />
<glyph unicode="^" horiz-adv-x="915" d="M143 791q-23 48 9 92q63 88 176 217.5t211 220.5q28 26 48.5 28.5t39.5 -12.5q57 -39 84 -71q19 -22 24.5 -40.5t7.5 -60.5q10 -219 50 -514q4 -29 -6 -40t-39 -9q-58 4 -107 16q-48 14 -63 68q-26 135 -43 311q-151 -161 -265 -297q-19 -22 -33.5 -22.5t-33.5 22.5 q-46 62 -60 91z" />
<glyph unicode="_" horiz-adv-x="880" d="M-84 -322q28 85 33 99q12 30 29.5 41.5t50.5 11.5h913q33 0 43.5 -11t1.5 -40q-23 -70 -37 -103q-12 -29 -29.5 -41t-48.5 -12h-917q-29 0 -38.5 12.5t-0.5 42.5z" />
<glyph unicode="a" horiz-adv-x="980" d="M-99 99q0 25 19 67q98 219 272 540.5t306 532.5q26 40 58 60q27 17 67 17q8 0 16 -1q26 -2 50 -4.5t46 -7t37.5 -7.5t36.5 -9.5t30 -9t31.5 -10.5t28.5 -10q35 -13 44 -37q5 -14 5 -35q0 -14 -2 -30q-59 -409 -110 -1130q-2 -35 -14 -47.5t-46 -12.5q-78 0 -127 19 q-31 12 -42 34t-11 68q0 55 8 231q-308 -54 -383 -75q-60 -112 -121 -234q-17 -32 -32.5 -37t-44.5 9q-73 37 -99 67q-23 26 -23 52zM379 539q159 24 239 30q16 219 48 475q-135 -228 -287 -505z" />
<glyph unicode="b" horiz-adv-x="948" d="M-23 161q-2 9 -2 20q0 26 9 67q13 58 32 127t47.5 161.5t45.5 146.5t55 171t47 147q-28 53 -43 93q-15 38 -9 60.5t38 39.5q78 42 181 72t206 44q45 6 87 6q55 0 106 -10q90 -18 132 -67q85 -106 95 -229q1 -10 1 -20q-1 -66 -35 -128q-40 -72 -104 -131 q-58 -52 -147 -110q47 -30 74.5 -85t29.5 -116v-5q0 -66 -25 -116q-26 -52 -83 -104q-74 -69 -197 -136t-225 -98q-48 -16 -76 -16h-9q-30 3 -65 32q-58 44 -125 117q-35 40 -41 67zM231 219q145 45 239 115q88 65 87 118v7q-3 21 -33 35q-24 11 -65 11q-11 -1 -23 -1 q-58 -4 -125 -29q-73 -233 -80 -256zM397 729q157 57 263 152q99 88 99 138q0 4 -1 7q-3 22 -37 30q-12 3 -27 3q-28 0 -68 -9q-62 -14 -132 -49q-52 -144 -97 -272z" />
<glyph unicode="c" horiz-adv-x="876" d="M-4 156q-22 69 -22 156.5t22 192.5q43 211 153 415.5t250 324.5q88 73 182 73q12 0 25 -1q65 -6 135 -35t109 -65q40 -37 54 -80q12 -37 11 -88v-15q-2 -62 -16.5 -138.5t-34.5 -125.5q-5 -15 -9.5 -22.5t-13.5 -16t-20.5 -7.5t-32.5 3q-78 18 -111 59t-36 115v6 q-1 23 5 65q4 33 5 56q0 12 -1 20q-3 28 -23 35q-4 2 -9 2q-28 0 -77 -61q-58 -71 -116 -177.5t-93 -201.5q-39 -103 -60 -204q-17 -83 -18 -148q0 -15 2 -27q4 -74 39 -86q8 -3 16 -2q25 0 55 20q42 28 105 99q43 47 98 61q23 6 46 6q33 0 67 -12q46 -17 46 -55 q0 -34 -28 -82q-52 -104 -157 -197q-43 -37 -109 -56q-50 -14 -96 -14q-15 0 -29 1q-103 10 -200 67q-36 23 -68 60t-45 80z" />
<glyph unicode="d" horiz-adv-x="1001" d="M-32 198q2 26 14 66q94 347 223 748q-42 86 -47 102q-16 36 -11 59t37 41q64 36 145 61t175 31q20 1 41 1q73 0 139 -16q85 -20 158 -83.5t110 -165.5q29 -79 29 -175t-26.5 -198t-85 -206t-140 -196t-199.5 -172t-256 -132q-31 -12 -60 -12q-45 0 -83 29 q-65 53 -117 108q-18 19 -26 32q-10 12 -16 32q-5 14 -4 32q-1 7 0 14zM242 236q72 36 135 82t109.5 95t85 102.5t64 105t42.5 101.5q17 48 24 92q7 41 7 74q0 38 -9 64q-19 50 -71 70q-23 9 -53 10q-36 0 -80 -14q-125 -339 -254 -782z" />
<glyph unicode="e" horiz-adv-x="788" d="M-39 225q47 207 248 811q-31 53 -49 135q-6 30 1.5 41t33.5 17q102 30 273 51.5t318 26.5h6q59 0 74 -58q20 -61 25 -114v-9q0 -28 -10 -40q-12 -14 -45 -17q-165 -18 -322 -43q-18 -49 -56.5 -152.5t-47.5 -128.5q77 12 157 15q35 2 54.5 -8.5t29.5 -38.5 q24 -71 29 -119q4 -33 -6.5 -46.5t-44.5 -21.5q-232 -45 -324 -69q-36 -99 -63 -187q133 25 245 33q7 1 14 1q56 0 72 -46q26 -70 31 -121q4 -34 -5.5 -47.5t-43.5 -21.5q-288 -67 -358 -86q-42 -10 -66 -10q-9 0 -17 2q-24 6 -46 30q-44 41 -82 88q-30 37 -30 89q0 21 5 44 z" />
<glyph unicode="f" horiz-adv-x="778" d="M-62 76q-3 9 -3 21q0 20 6 46q22 121 102.5 389t163.5 508q-24 44 -47 131q-7 29 1 39.5t34 18.5q99 29 262.5 50.5t314.5 27.5h10q28 0 43 -9q18 -12 33 -47q26 -63 29 -118v-10q0 -26 -9 -37q-10 -13 -44 -17q-78 -10 -324 -45q-13 -34 -28.5 -77.5t-36 -102.5 t-33.5 -96q97 12 151 14h7q59 0 77 -47q18 -45 29 -119q5 -34 -5.5 -48t-45.5 -20q-190 -35 -308 -65q-81 -248 -141 -447q-10 -33 -29 -42q-9 -4 -21 -4q-13 0 -30 5q-80 22 -127 56q-26 19 -31 45z" />
<glyph unicode="g" horiz-adv-x="905" d="M-12 184q-17 65 -17 144q0 97 26 214q48 214 165.5 416.5t265.5 311.5q62 47 148 47q25 0 51 -4q60 -8 121.5 -35.5t99.5 -65.5q62 -62 65 -178v-8q0 -52 -12 -128q-13 -83 -29 -134q-9 -29 -23.5 -39t-45.5 -6q-158 22 -158 172v6q0 16 2.5 44.5t3.5 48.5t0.5 41t-5 33 t-13.5 15q-5 2 -10 2q-45 0 -129 -118q-93 -131 -168 -308q-65 -154 -80 -303q-3 -33 -3 -61q0 -94 40 -117q9 -4 19 -4q37 0 86 54q62 68 118 182h-15q-67 0 -103 34q-39 38 -48 125q-3 26 8.5 37.5t40.5 18.5q117 30 250 47q18 2 33 2q22 0 38 -4q26 -9 46 -37 q27 -41 47 -82q17 -37 17 -63q0 -28 -19 -70q-58 -140 -133.5 -245.5t-157.5 -162.5q-80 -56 -170 -56q-27 0 -55 5q-104 17 -193 78q-34 25 -63.5 65.5t-40.5 85.5z" />
<glyph unicode="h" horiz-adv-x="925" d="M-54 73q-3 10 -2 24q0 19 5 44q24 112 80 320q-12 27 -31 92q-7 31 -0.5 41t33.5 18q7 2 21.5 6.5t21.5 6.5q127 444 190 616q14 38 35 47t53 -4q85 -30 146 -78q30 -24 35.5 -43.5t-7.5 -54.5q-63 -168 -145 -428q148 16 207 20q102 344 178 562q13 40 35 48q9 3 19 3 q16 0 36 -8q76 -25 137 -74q27 -23 33 -43q2 -6 2 -14q0 -17 -8 -41q-75 -206 -178 -527.5t-183 -597.5q-9 -34 -23 -42q-7 -4 -17 -4q-12 0 -29 5q-83 23 -125 58q-26 22 -32 45q-2 9 -2 22q0 19 5 45q18 92 78 307q-165 -28 -219 -38q-62 -201 -117 -396q-8 -34 -24 -42 q-8 -4 -19 -4q-12 0 -29 5q-71 21 -126 60q-28 20 -34 44z" />
<glyph unicode="i" horiz-adv-x="425" d="M-72 73q-3 10 -3 24q0 19 5 44q36 173 141 540t173 560q13 35 35 45q10 4 22 5q15 0 33 -7q75 -23 145 -78q29 -24 35 -44q2 -6 2 -13q0 -17 -8 -41q-67 -182 -174 -521t-174 -577q-8 -34 -24 -42q-8 -4 -19 -4q-12 0 -29 5q-71 20 -127 60q-27 20 -33 44z" />
<glyph unicode="j" horiz-adv-x="856" d="M-20 211q-6 34 -6 71q0 81 28 173q17 58 42 81q14 12 31 12q16 0 36 -11q67 -34 100 -85q28 -44 28 -95q0 -9 -1 -19q-7 -55 -7 -90q0 -17 2 -30q5 -37 35 -40h3q37 0 91 112q55 115 110.5 295t100 348.5t78.5 317.5q9 36 32 46q11 5 24 5q15 0 32 -6q89 -25 150 -71 q31 -24 37 -43q2 -8 2 -17q0 -16 -6 -37q-107 -457 -215.5 -737t-233.5 -375q-81 -61 -177 -61q-53 0 -110 18q-174 58 -206 238z" />
<glyph unicode="k" horiz-adv-x="907" d="M-73 73q-2 10 -2 22q0 19 5 46q38 178 145 555t175 564q13 36 34.5 45.5t53.5 -2.5q75 -23 145 -78q31 -25 36.5 -43.5t-7.5 -53.5q-39 -102 -125 -368q350 371 475 524q23 28 42 29h1q19 0 41 -25q50 -53 68 -121q4 -15 4 -31q0 -45 -33 -98q-115 -184 -471 -540 q94 -227 184 -387q15 -28 9.5 -46.5t-33.5 -35.5q-34 -19 -92 -35q-21 -5 -40 -5q-62 0 -100 58q-103 162 -176 332q-59 -199 -108 -369q-10 -34 -24 -42q-7 -4 -17 -4q-12 0 -29 5q-80 22 -129 60q-26 20 -32 44z" />
<glyph unicode="l" horiz-adv-x="727" d="M-66 217q45 196 148 521t184 526q14 35 36 44q9 4 21 4q15 0 33 -7q96 -30 148 -74q29 -24 33.5 -43.5t-9.5 -54.5q-152 -398 -299 -859q111 22 234 31q35 3 54.5 -6t31.5 -39q26 -66 31 -121q3 -15 2 -26q0 -13 -4 -21q-8 -12 -48 -22q-277 -64 -358 -88 q-30 -10 -52 -12q-7 -1 -12 0q-14 0 -24 4q-14 6 -21.5 11.5t-19.5 18.5q-42 39 -84 88q-30 37 -30 85q0 19 5 40z" />
<glyph unicode="m" horiz-adv-x="1261" d="M-70 64q-4 12 -4 29q0 18 4 40q34 176 137.5 527t180.5 571q14 43 36 55q15 8 40 8q12 0 26 -2q94 -14 189 -57q48 -20 60.5 -49t12.5 -90q-2 -60 -2 -459q71 136 179 323.5t174 292.5q29 46 63 55q12 3 26 3q26 0 58 -11q121 -35 205 -79q34 -19 41 -45q2 -8 2 -17 q0 -21 -10 -51q-68 -199 -176.5 -554.5t-155.5 -533.5q-9 -35 -26 -47.5t-48 -3.5q-60 15 -117 54q-27 18 -34 44q-3 11 -3 26q0 19 5 42q20 100 73.5 294.5t110.5 373.5q-298 -541 -369 -680q-20 -38 -32 -46t-44 -1q-40 8 -90 30q-29 15 -41.5 36.5t-15.5 76.5 q-8 155 -8 346q0 103 2 215q-136 -434 -225 -770q-9 -34 -24 -44q-8 -5 -21 -5q-11 0 -25 4q-63 16 -119 55q-27 20 -35 44z" />
<glyph unicode="n" horiz-adv-x="958" d="M-72 82q-2 9 -2 21q0 20 6 47q30 138 138.5 509.5t179.5 577.5q19 53 66 53q14 0 30 -4q97 -29 164 -67q34 -17 46.5 -43t14.5 -78q4 -195 25 -561q81 325 209 704q13 37 35 47q10 5 23 4q15 0 32 -6q66 -20 123 -59q30 -19 34 -47q1 -6 1 -13q0 -23 -11 -49 q-155 -469 -325 -1089q-7 -33 -30 -45.5t-56 -3.5q-57 13 -123 49q-56 27 -72 102q-50 210 -74 578q-27 -93 -103.5 -348t-100.5 -347q-6 -34 -22 -42q-7 -4 -17 -3q-13 0 -31 6q-82 23 -129 62q-25 19 -31 45z" />
<glyph unicode="o" horiz-adv-x="948" d="M12 385q2 107 34.5 228.5t83 234.5t124 215.5t156.5 171.5q42 35 104 53q42 12 80 12q17 0 33 -2q65 -9 125.5 -35t95.5 -61q76 -76 82 -196q1 -25 1 -50q0 -124 -28 -268q-34 -174 -114.5 -350.5t-190.5 -284.5q-89 -87 -214 -87q-23 0 -48 3q-117 14 -197 70 q-33 23 -62 62.5t-42 84.5q-23 87 -23 186v13zM286 282q4 -80 40 -96q9 -4 19 -4q49 0 113 95q78 114 140 301q32 97 54 205q21 103 21 184v7q-1 84 -32 93q-4 1 -9 1q-45 0 -126 -118q-89 -130 -146 -282q-37 -98 -58 -202q-17 -86 -18 -155q1 -15 2 -29z" />
<glyph unicode="p" horiz-adv-x="966" d="M-30 64q-2 10 -2 23q0 19 5 44q45 216 240 842q-42 86 -47 102q-16 38 -10.5 60.5t37.5 40.5q78 44 179 78t204 51q52 9 101 9q48 0 92 -8q90 -17 134 -71q92 -115 109 -256q2 -19 2 -37q0 -59 -25 -112q-33 -68 -98 -138q-90 -100 -255 -192.5t-331 -141.5 q-77 -242 -108 -356q-10 -32 -25 -40q-8 -5 -20 -5q-11 0 -27 4q-80 25 -123 57q-26 20 -32 46zM401 651q175 64 281 174q95 99 95 165q0 7 -1 14q-3 22 -39 30q-15 3 -33 3q-27 0 -62 -7q-58 -11 -120 -39q-45 -120 -121 -340z" />
<glyph unicode="q" horiz-adv-x="946" d="M12 385q2 107 34.5 228.5t83 234.5t124 215.5t156.5 171.5q43 36 104 53q43 13 80 13q17 0 33 -3q65 -9 125.5 -35t95.5 -61q74 -74 80 -196q2 -28 2 -58q0 -165 -52 -364q-62 -236 -180 -410q29 -53 62 -108q18 -29 14.5 -46.5t-31.5 -37.5q-47 -32 -102 -45 q-14 -3 -27 -3q-45 0 -75 37q-4 5 -11 13t-10 12q-55 -29 -136 -29q-22 0 -46 2q-111 10 -197 70q-33 23 -62 62.5t-42 84.5q-23 87 -23 186v13zM286 282q4 -81 40 -96q7 -3 15 -3q20 0 46 18q-13 20 -27 49q-9 17 -9 30q0 27 34 44q54 28 125 43q41 79 86 211 q32 97 53.5 205t21.5 191.5t-30 92.5q-4 1 -9 1q-46 0 -126 -118q-89 -130 -146 -282q-37 -97 -58 -202q-17 -86 -17 -155q0 -15 1 -29z" />
<glyph unicode="r" horiz-adv-x="993" d="M-29 64q-3 11 -3 24q0 19 5 43q49 237 242 842q-40 78 -49 102q-15 38 -9.5 60.5t36.5 40.5q78 44 179 78t204 51q52 9 101 9q47 0 92 -8q90 -16 134 -71q92 -115 109 -256q2 -19 2 -37q0 -132 -121 -250q-126 -123 -332 -225q109 -183 252 -352q23 -29 20.5 -45.5 t-26.5 -36.5q-17 -14 -32 -22.5t-23.5 -11t-32.5 -9.5q-22 -7 -42 -7q-54 0 -102 46q-58 52 -135.5 155t-136.5 205q-69 -207 -119 -377q-9 -32 -23 -40q-7 -4 -19 -5q-11 0 -27 4q-72 20 -111 47q-27 20 -33 46zM397 659q86 33 163.5 83t125.5 99.5t74 93.5q21 36 21 59 q0 5 -1 10q-8 38 -84 38h-1q-75 0 -173 -45q-29 -72 -125 -338z" />
<glyph unicode="s" horiz-adv-x="821" d="M-94 298q6 14 28 26q40 20 87 20h18q57 -4 90 -33q90 -79 171 -105q35 -11 62 -11q35 0 56 20q10 8 10.5 19t-7 24.5t-20.5 29t-32 33t-39.5 35.5t-44 38.5t-45.5 40t-44.5 42t-39.5 41.5q-40 46 -61 102q-19 51 -19 115v13q2 72 35 143q43 101 129.5 203.5t177.5 160.5 q69 42 136 42q38 0 75 -13q50 -19 99.5 -51.5t78.5 -65.5q26 -29 38 -65q11 -32 11 -57v-7q-2 -29 -4 -59q-10 -70 -43.5 -172.5t-65.5 -165.5q-15 -29 -32 -36t-45 5q-138 60 -138 157q0 16 4 34q4 19 14 52.5t19 61t17.5 59t9 46t-5.5 22.5q-13 8 -47.5 -17t-72 -68 t-68.5 -99q-32 -56 -36 -110q-1 -7 0 -14q0 -46 27 -87q23 -31 59 -65t68.5 -62t67 -58.5t59.5 -60t41 -61.5q15 -30 15 -64q0 -39 -21 -79q-118 -232 -350 -236h-11q-210 0 -370 227q-29 40 -38 68q-5 16 -5 28q-1 8 2 14z" />
<glyph unicode="t" horiz-adv-x="907" d="M160 1171q-3 14 -3 23q0 12 4 18q8 12 34 17q141 31 342 54t348 26q55 0 78 -33q41 -62 51 -135q2 -13 2 -22q0 -15 -6 -23q-8 -12 -43 -15q-39 -3 -121 -11.5t-103 -10.5q-173 -498 -329 -1055q-10 -32 -24 -40q-7 -4 -17 -4q-12 0 -29 5q-73 20 -127 60q-27 20 -33 46 q-2 10 -2 22q0 20 6 46q31 153 103.5 410t142.5 467q-94 -16 -129 -25q-32 -8 -50 -1.5t-38 34.5q-31 44 -57 147z" />
<glyph unicode="u" horiz-adv-x="923" d="M0 304q0 5 -1 11q0 71 19 161q20 97 40.5 177t64 202t68.5 188t73 190q13 35 35 43.5t55 -4.5q78 -29 123 -74q37 -36 37 -81q0 -26 -12 -56q-37 -95 -63 -164.5t-65.5 -179t-61.5 -189.5q-21 -78 -38 -158q-13 -59 -13 -100q0 -14 2 -26q6 -46 34 -56q25 -9 54.5 16.5 t60.5 82.5t61 124t63 162t59 174.5t56 183.5t48 167.5t40 146.5q11 37 33 47q10 5 22 5q15 0 33 -7q74 -23 138 -73q29 -23 34 -43q2 -6 2 -14q0 -17 -8 -40q-50 -187 -88.5 -318t-86.5 -270t-92 -231.5t-97.5 -168t-110.5 -114.5q-48 -34 -96 -44q-38 -8 -87 -8 q-14 0 -28 1q-107 5 -192 70q-66 49 -95 137q-18 56 -20 130z" />
<glyph unicode="v" horiz-adv-x="954" d="M150 203q-5 109 -5 236q0 329 35 784q3 36 15 49.5t45 13.5q60 0 122 -24q70 -29 70 -112v-7q-1 -66 -12 -340.5t-14 -446.5q137 280 428 910q17 40 52 40q17 0 38 -10q66 -30 106 -73q25 -26 25 -55q0 -25 -15 -64q-63 -171 -228.5 -518t-289.5 -580q-25 -44 -53 -55 q-12 -5 -27 -5q-20 0 -45 9q-75 25 -164 82q-40 27 -60.5 74t-22.5 92z" />
<glyph unicode="w" horiz-adv-x="1312" d="M27 115q12 198 60 533t97 579q7 39 24.5 52t51.5 5q88 -19 137 -53q34 -25 34 -84q0 -27 -7 -62q-6 -35 -54 -275t-73 -376q100 197 215.5 411t161.5 285q17 29 36 37t52 0q15 -4 30 -9t24.5 -9.5t26 -12l27.5 -12.5q30 -14 36.5 -35t-1.5 -61q-3 -29 -98 -582 q279 595 399 809q22 39 42 45q5 1 10 1q17 0 42 -13q57 -28 103 -71q24 -25 24 -61q0 -32 -20 -73q-113 -222 -271.5 -552t-244.5 -527q-17 -36 -41 -46q-12 -5 -28 -5q-17 0 -40 6q-65 14 -137 47q-61 31 -61 106v7q0 217 20 424q-186 -336 -293 -545q-19 -34 -39 -42 q-10 -4 -24 -4q-13 0 -29 3q-73 16 -147 51q-30 13 -39 37q-7 17 -7 49q0 10 1 23z" />
<glyph unicode="x" horiz-adv-x="966" d="M-91 131q3 25 28 62q112 173 370 489q-105 433 -123 518q-7 40 4 57.5t45 20.5q37 2 68 2q46 0 78 -4q70 -8 90 -90q30 -134 59 -256q223 276 291 356q26 29 55 29q23 0 48 -19q50 -41 86 -120q12 -23 12 -46q0 -39 -33 -81q-169 -198 -377 -455q98 -406 135 -551 q10 -32 2.5 -50t-38.5 -22q-34 -4 -69.5 -4.5t-74.5 4.5q-34 5 -54.5 24t-35.5 60q-16 46 -84 297q-65 -83 -289 -375q-22 -28 -46 -28q-21 0 -44 20q-46 37 -88 109q-15 24 -15 46v7z" />
<glyph unicode="y" horiz-adv-x="888" d="M152 1233q-2 11 -2 20q0 19 7 27q10 14 42 18q38 5 70 5q39 0 69 -7q32 -7 47.5 -27.5t24.5 -64.5q36 -181 65 -420q140 211 316 498q19 31 38 36h8q17 0 40 -15q63 -40 94 -84q19 -27 19 -49q0 -24 -23 -70q-87 -172 -457 -713q-58 -179 -121 -397q-9 -33 -25 -41 q-6 -4 -17 -4q-12 0 -30 6q-78 23 -124 61q-27 22 -33 46q-2 9 -2 21q0 20 6 48q26 118 94 365q-35 279 -106 741z" />
<glyph unicode="z" horiz-adv-x="768" d="M-78 199q82 132 264 377.5t349 449.5q-120 -21 -191 -35q-15 -3 -28 -3q-51 0 -76 44q-39 81 -50 137q-6 30 1.5 42t33.5 20q107 27 265 46.5t290 22.5h5q31 0 47 -10q18 -12 26 -41q20 -74 27 -114q4 -15 4 -31q0 -14 -3 -28q-6 -30 -30 -60q-287 -352 -610 -776 q130 31 205 41q13 2 24 2q58 0 72 -47q26 -66 31 -121q3 -34 -8.5 -48t-45.5 -20q-288 -67 -374 -92q-42 -8 -66 -8q-10 0 -16 1q-22 5 -45 27q-47 50 -86 99q-30 40 -30 76q0 26 15 49z" />
<glyph unicode="{" horiz-adv-x="694" d="M51 668q-11 53 37 65q58 14 143 27q46 149 156 463q21 53 82 61q89 12 221 16q61 3 82 -57q22 -66 27 -113q3 -32 -7 -44.5t-44 -16.5q-52 -7 -160 -18q-154 -424 -279 -840q14 1 43 4t45 4q65 6 84 -47q20 -52 29 -113q5 -32 -5.5 -45.5t-45.5 -19.5 q-34 -6 -104.5 -20.5t-92.5 -18.5q-47 -7 -68 -0.5t-44 27.5q-4 5 -29 32.5t-37 42.5q-23 27 -27.5 55t6.5 78q44 164 84 299q-15 1 -25 9.5t-22 29.5q-32 55 -49 140z" />
<glyph unicode="|" horiz-adv-x="733" d="M53 -28.5q-6 25.5 4 69.5q37 175 172.5 645t204.5 660q24 67 88 40q82 -36 121 -65q30 -23 35.5 -43t-8.5 -55q-69 -187 -210 -633t-202 -670q-9 -33 -23.5 -41.5t-46.5 0.5q-44 13 -102 49q-27 18 -33 43.5z" />
<glyph unicode="}" horiz-adv-x="772" d="M-70 104q-19 58 39 74q76 21 164 35q131 440 273 842q-11 -1 -33.5 -4t-34.5 -4q-37 -5 -54.5 4.5t-29.5 40.5q-30 98 -33 112q-6 27 10.5 44t44.5 22q92 18 240 28q34 3 53.5 -5t36.5 -31q4 -6 25.5 -35.5t30.5 -46.5q15 -28 16.5 -50t-8.5 -53q-37 -98 -119 -334 q60 0 78 -57q10 -32 28 -125q6 -33 -5.5 -46.5t-45.5 -18.5q-61 -8 -143 -21q-80 -252 -127 -418q-13 -51 -86 -63q-39 -6 -187 -31q-36 -6 -56 3t-34 36q-29 55 -43 102z" />
<glyph unicode="&#x85;" horiz-adv-x="1538" d="M-27 125q13 75 74 119.5t135 17.5q46 -16 68.5 -50.5t20 -69t-12.5 -66.5q-17 -44 -58.5 -83t-97.5 -40q-65 -2 -103.5 47.5t-25.5 124.5zM516 125q13 75 74 119.5t135 17.5q46 -16 68.5 -50.5t20 -69t-12.5 -66.5q-17 -44 -58.5 -83t-97.5 -40q-65 -2 -103.5 47.5 t-25.5 124.5zM1059 125q13 75 74 119.5t135 17.5q46 -16 68 -50.5t19.5 -69t-12.5 -66.5q-18 -44 -58.5 -83t-96.5 -40q-65 -2 -103.5 47.5t-25.5 124.5z" />
<glyph horiz-adv-x="536" d="M238 1354q-2 39 4 60.5t32 41.5q38 28 95 47q63 23 69 -41q21 -203 78 -481q7 -30 -4 -43t-41 -10q-44 6 -90 24q-46 19 -66 76q-24 58 -47.5 155.5t-29.5 170.5z" />
<glyph horiz-adv-x="475" d="M225 962.5q-10 14.5 0 45.5q83 248 135 469q13 58 74 32q56 -27 88 -59q23 -23 28 -49t-3 -58q-14 -69 -49 -162t-66 -151q-29 -53 -74 -67q-47 -13 -94 -13q-29 -2 -39 12.5z" />
<glyph horiz-adv-x="794" d="M184.5 1413.5q4.5 25.5 28.5 48.5q30 30 88 58q60 29 74 -33q42 -187 131 -469q9 -31 0 -45t-37 -12q-59 4 -94 14q-40 12 -74 67q-31 53 -65.5 148t-47.5 166q-8 32 -3.5 57.5zM518 1354q-3 37 4 59.5t33 42.5q39 28 94 47q64 23 70 -41q21 -203 78 -481q7 -30 -4 -43 t-41 -10q-44 6 -90 24q-41 17 -66 76q-24 58 -48 156t-30 170z" />
<glyph horiz-adv-x="786" d="M225 962.5q-10 14.5 0 45.5q83 248 135 469q13 58 74 32q56 -27 88 -59q23 -23 28 -49t-3 -58q-14 -69 -49 -162t-66 -151q-29 -53 -74 -67q-47 -13 -94 -13q-29 -2 -39 12.5zM518 1010q123 261 187 450q21 57 77 25q54 -35 80 -68q22 -26 23 -52t-11 -56 q-21 -69 -66.5 -159t-82.5 -140q-37 -52 -80 -60q-53 -7 -96 -2q-57 6 -31 62z" />
<glyph horiz-adv-x="974" d="M57 623q-20 65 58 77q110 19 286 32t328 13q72 0 96 -53q26 -60 35 -110q4 -30 -9.5 -41t-55.5 -13q-325 -14 -568 -55q-38 -6 -62.5 2t-45.5 37q-48 67 -62 111z" />
<glyph horiz-adv-x="1136" d="M57 623q-26 65 68 77q134 19 345 32t394 13q91 0 117 -53q23 -46 39 -110q7 -30 -10 -41t-66 -13q-388 -14 -682 -55q-46 -6 -75.5 2.5t-55.5 36.5q-50 57 -74 111z" />
<glyph unicode="&#xad;" d="M53 623q-17 65 45 77q89 19 229.5 32t262.5 13q61 0 78 -53q14 -42 26 -110q4 -30 -7 -41t-44 -13q-260 -14 -455 -55q-30 -6 -49.5 2.5t-36.5 36.5q-34 54 -49 111z" />
<glyph unicode="&#x2000;" horiz-adv-x="764" />
<glyph unicode="&#x2001;" horiz-adv-x="1529" />
<glyph unicode="&#x2002;" horiz-adv-x="764" />
<glyph unicode="&#x2003;" horiz-adv-x="1529" />
<glyph unicode="&#x2004;" horiz-adv-x="509" />
<glyph unicode="&#x2005;" horiz-adv-x="382" />
<glyph unicode="&#x2006;" horiz-adv-x="254" />
<glyph unicode="&#x2007;" horiz-adv-x="254" />
<glyph unicode="&#x2008;" horiz-adv-x="191" />
<glyph unicode="&#x2009;" horiz-adv-x="305" />
<glyph unicode="&#x200a;" horiz-adv-x="84" />
<glyph unicode="&#x2010;" d="M53 623q-17 65 45 77q89 19 229.5 32t262.5 13q61 0 78 -53q14 -42 26 -110q4 -30 -7 -41t-44 -13q-260 -14 -455 -55q-30 -6 -49.5 2.5t-36.5 36.5q-34 54 -49 111z" />
<glyph unicode="&#x2011;" d="M53 623q-17 65 45 77q89 19 229.5 32t262.5 13q61 0 78 -53q14 -42 26 -110q4 -30 -7 -41t-44 -13q-260 -14 -455 -55q-30 -6 -49.5 2.5t-36.5 36.5q-34 54 -49 111z" />
<glyph unicode="&#x2012;" d="M53 623q-17 65 45 77q89 19 229.5 32t262.5 13q61 0 78 -53q14 -42 26 -110q4 -30 -7 -41t-44 -13q-260 -14 -455 -55q-30 -6 -49.5 2.5t-36.5 36.5q-34 54 -49 111z" />
<glyph unicode="&#x2013;" horiz-adv-x="1184" d="M55 623q-27 65 71 77q141 19 364 32t416 13q97 0 124 -53q22 -42 41 -110q7 -30 -10.5 -41t-70.5 -13q-412 -14 -721 -55q-48 -6 -79 2.5t-57 36.5q-54 54 -78 111z" />
<glyph unicode="&#x2014;" horiz-adv-x="2209" d="M61 623q-54 65 142 77q283 19 728.5 32t832.5 13q193 0 247 -53q45 -42 83 -110q12 -30 -22.5 -41t-139.5 -13q-825 -14 -1443 -55q-95 -6 -157 2.5t-116 36.5q-108 54 -155 111z" />
<glyph unicode="&#x202f;" horiz-adv-x="305" />
<glyph unicode="&#x205f;" horiz-adv-x="382" />
<glyph unicode="&#x25fc;" horiz-adv-x="1320" d="M0 0v1321h1321v-1321h-1321z" />
</font>
</defs>
</svg>
