<?xml version="1.0" standalone="no"?>
<!DOCTYPE svg PUBLIC "-//W3C//DTD SVG 1.1//EN" "http://www.w3.org/Graphics/SVG/1.1/DTD/svg11.dtd" >
<svg xmlns="http://www.w3.org/2000/svg">
<metadata></metadata>
<defs>
<font id="signpainterhouseshowcard" horiz-adv-x="503" >
<font-face units-per-em="2048" ascent="1638" descent="-410" />
<missing-glyph horiz-adv-x="614" />
<glyph horiz-adv-x="0" />
<glyph horiz-adv-x="682" />
<glyph unicode=" "  horiz-adv-x="614" />
<glyph unicode="&#x09;" horiz-adv-x="614" />
<glyph unicode="&#xa0;" horiz-adv-x="614" />
<glyph unicode="!" horiz-adv-x="520" d="M82 111q-9 87 36.5 122t155.5 25q189 -18 193 -166q1 -29 -1 -47t-11.5 -40t-28.5 -34t-54.5 -19t-86.5 -5q-110 6 -152.5 45t-50.5 119zM88 610q-2 102 8 356t10 369q0 23 12 29.5t42 1.5q23 -3 66.5 -22t56.5 -23q49 -14 78.5 -58t35.5 -139q31 -513 25 -745 q0 -26 -9.5 -33.5t-31.5 -5.5q-9 1 -22 5t-23 8.5t-26 12.5t-23 11q-17 8 -53 17t-60 22q-44 24 -64.5 65t-21.5 129z" />
<glyph unicode="&#x22;" horiz-adv-x="612" d="M18 1004q-14 62 18 231t70 281q14 42 54 28q15 -4 29 -12t32.5 -21t26.5 -18q27 -16 37 -38t4 -64q-23 -155 -86 -338q-21 -62 -58 -68q-13 -4 -37 -5t-36 -5q-17 -9 -33 -4t-21 33zM262 963q7 108 53.5 270.5t98.5 277.5q18 42 65 19q14 -7 38 -22t36 -21 q31 -18 39 -41.5t-2 -77.5q-19 -98 -61 -215.5t-80 -191.5q-11 -21 -23.5 -32t-21 -12.5t-21.5 -1.5h-76q-24 0 -35 10t-10 38z" />
<glyph unicode="#" horiz-adv-x="983" d="M31 391q-19 19 0 62q8 17 16 73q2 14 5 20.5t12.5 13t27.5 9.5q6 1 84 6q14 94 27 170q-10 0 -25 1.5t-20 1.5q-47 3 -60 43q-4 12 -7.5 37.5t-8.5 41.5q-12 37 -12 54q0 9 1.5 13.5t9.5 9t25 7.5q62 10 136 13q8 37 22 98.5t19 83.5q5 25 26 25t49 -25q7 -6 14 -11 t12 -7t12.5 -5.5t11.5 -5.5q20 -9 26.5 -27.5t5.5 -64.5q0 -19 -4 -59q133 -5 174 -6q31 178 49 247q4 19 11 25t22 6q22 0 58 -18q1 -1 71 -39q34 -21 29 -86q-4 -43 -16 -148q36 -3 59 -6q26 -3 36.5 -11.5t12.5 -25.5q4 -55 12 -76q7 -25 6 -32.5t-10 -20.5 q-14 -19 -51 -22q-9 -1 -39 -1t-51 -1q-5 -41 -25 -187q11 -1 26.5 -3.5t26.5 -4t19 -2.5q19 -3 25.5 -8.5t9.5 -20.5q1 -6 5 -18t4.5 -16.5t-1.5 -16.5q-5 -18 -13.5 -31.5t-21 -26.5t-14.5 -16q-20 -29 -62 -32h-34q-28 -167 -47 -240q-2 -9 -4.5 -13.5t-9 -8t-17.5 -3.5 q-38 0 -72 21q-36 22 -67 31q-34 11 -31 73q1 12 3 31t5.5 47.5t5.5 50.5q-28 -1 -80 -4t-75 -4q-22 -109 -46 -162q-7 -14 -13 -18t-19 -4q-16 0 -47 22q-16 12 -62 27q-34 10 -31 82q0 3 5 43h-39q-16 0 -30.5 6t-20.5 11t-17.5 17.5t-13.5 14.5zM401 584q24 0 74.5 -1 t75.5 -1q5 31 13.5 91.5t10.5 74.5q-79 -3 -157 -3q-2 -30 -17 -161z" />
<glyph unicode="$" horiz-adv-x="714" d="M20 805q0 102 89 176q41 96 112 129q3 146 12 248q3 32 43 35q24 2 89 -23q30 -11 43 -31t20 -57q11 -58 8 -186q75 -29 154 -101q37 -34 44 -66.5t-3 -62.5q-4 -20 -15 -55t-14 -57q-6 -34 -19 -38t-38 19q-73 64 -158.5 106.5t-144.5 26.5q0 -83 143 -182 q25 -18 103.5 -63.5t128 -85.5t65.5 -82q47 -125 -90 -248q-34 -59 -70 -87.5t-82 -37.5q4 -61 2 -86q-3 -45 -13.5 -63.5t-39.5 -32.5q-9 -4 -24.5 -12t-28.5 -13.5t-27 -9.5q-53 -13 -61 26q-19 80 -25 213q-36 15 -100 54q-47 31 -65 69t-21 90q-7 85 -2 136 q3 31 17.5 36t29.5 -14q66 -73 184 -114.5t160 -16.5q-2 9 -9 20t-20.5 23.5t-26 24t-34.5 27.5t-37.5 27.5t-42.5 31t-43 30.5q-85 61 -139 134t-54 143z" />
<glyph unicode="%" horiz-adv-x="1046" d="M20 881q0 80 39.5 165t96.5 119q27 15 62.5 8.5t66.5 -30.5q34 -27 96.5 -44.5t131 -21.5t137 15.5t108.5 62.5q29 33 43 -4q2 -6 12.5 -25.5t15 -33.5t7 -43t-10.5 -54q-53 -139 -255 -493.5t-248 -442.5q-15 -28 -37 -6q-35 35 -43 64q-3 10 -14 29t-13 24q-9 22 8 72 q36 99 117 245.5t139.5 238.5t165.5 255q-107 -20 -215 18q45 -72 27 -192q-16 -101 -80 -160t-129 -51q-62 9 -119 94q-109 62 -109 191zM188 752q38 -14 74.5 22.5t42.5 99.5q9 104 -35 158q-49 -26 -77 -123.5t-5 -156.5zM590 332q-5 79 29 163t90 123q67 49 155 -36 q186 -70 158 -285q-13 -102 -74 -166t-127 -61q-62 3 -121 84q-104 48 -110 178zM756 215q38 -12 73.5 24t44.5 99q13 102 -32 151q-50 -26 -79 -120.5t-7 -153.5z" />
<glyph unicode="&#x26;" horiz-adv-x="1054" d="M51 311q0 103 67.5 202.5t180.5 150.5q-78 29 -130.5 78t-53.5 112q-3 114 84.5 243t191.5 197q29 19 60 23t65 -8t60.5 -26t66.5 -40q52 -5 91 -21.5t61 -36t36 -47.5t18.5 -49.5t6.5 -48.5q4 -46 -9.5 -71t-51.5 -43q-27 -13 -59.5 -35.5t-39.5 -26.5q-51 -27 -61 21 q-16 80 -37.5 127.5t-58.5 58.5q-50 -41 -87 -128t-14 -140q65 -40 150 -33q44 3 67 -39q2 -4 12.5 -21.5t16.5 -28.5t13 -28t8 -30q0 -18 -6.5 -24.5t-24.5 -8.5q-76 -7 -140 -36.5t-104.5 -72.5t-62.5 -93.5t-19 -104t31 -99.5q55 -11 127 17t121 84q-39 -3 -58 11t-34 46 q-6 15 -19.5 43.5t-17.5 38.5q-8 16 -7 27t21 18q67 21 187.5 34.5t203.5 8.5q32 -1 48.5 -17t29.5 -44q3 -7 11 -23t12.5 -25.5t7.5 -24t2 -26.5q-3 -25 -8.5 -31.5t-26.5 -11.5q-8 -2 -22.5 -3.5t-37 -4l-40.5 -4.5q-35 -101 -105 -183t-144.5 -124t-137.5 -43 q-127 -3 -240 129q-96 52 -148.5 108.5t-52.5 126.5z" />
<glyph unicode="'" horiz-adv-x="380" d="M16 977q14 88 50 224t73 231q16 46 66 20q20 -11 63 -29.5t58 -29.5q28 -22 35 -49t-5 -78q-19 -75 -53.5 -161.5t-62.5 -137.5q-11 -19 -24.5 -29.5t-21.5 -12.5t-22 -3q-19 -1 -56.5 3.5t-54.5 4.5q-52 0 -45 47z" />
<glyph unicode="(" horiz-adv-x="436" d="M30.5 736q24.5 190 89.5 357t159 267q26 26 47 -8q4 -6 9.5 -17.5t12.5 -22.5t19 -26q13 -15 19.5 -25t14 -28t6 -40.5t-11.5 -49.5q-102 -268 -97.5 -567.5t114.5 -530.5q16 -37 14.5 -48t-18.5 -24l-12 -12t-16 -14.5t-20 -9.5t-30 -5q-83 0 -101 -4q-16 -3 -22.5 -4 t-19 0.5t-22 10.5t-18.5 26q-84 169 -112.5 377t-4 398z" />
<glyph unicode=")" horiz-adv-x="495" d="M11 1287q0 9 4 12.5t16 11.5q48 33 104 26q47 -6 92 -6q49 0 88 -53q97 -133 134.5 -320t18 -367t-74 -343t-133.5 -268q-50 -66 -119 -58q-9 1 -38.5 6t-51.5 6q-54 4 -28 52q162 293 164 656.5t-167 621.5q-9 14 -9 23z" />
<glyph unicode="*" horiz-adv-x="735" d="M23 1315q-8 19 12 41q7 8 20 33t23 38q14 18 27.5 22.5t35.5 2.5q55 -4 135 -25q-5 61 -10 187q0 16 7 22t24 9q23 5 59 -9q26 -10 70 -18q17 -3 26 -13.5t15 -33.5q19 -74 27 -123q124 38 168 45q28 4 36 -16q3 -9 4.5 -32t2.5 -34q1 -6 4 -21.5t4 -25t0.5 -21 t-4.5 -18.5q-9 -13 -47.5 -38.5t-83.5 -47.5q86 -112 98 -125q9 -10 -2 -35q-7 -18 -45 -35q-15 -7 -32.5 -16.5t-21.5 -11.5q-36 -14 -67 6q-44 30 -105 100q-58 -110 -94 -151q-17 -20 -37 -17q-19 2 -43 33q-11 11 -25.5 21t-23.5 20q-14 15 -16.5 27.5t4.5 36.5 q14 42 59 127q-147 54 -174 67q-24 12 -30 29z" />
<glyph unicode="+" horiz-adv-x="753" d="M21 612.5q-1 16.5 0.5 45t1.5 42.5q0 19 6.5 27t23.5 8q41 0 193 8q0 175 6 224q1 4 1.5 7.5t1.5 6t3 4.5t3 3.5t3.5 2.5t4 1.5t5 0.5h5h6h6.5q15 0 40 -7t40 -9q53 -7 84 -16q21 -7 30 -21.5t9 -56.5v-135q66 -3 143 -13q35 -4 47.5 -12.5t17.5 -28.5q1 -6 5 -24.5 t8 -33.5t10 -30q17 -39 -6 -80q-8 -16 -14.5 -20t-26.5 -4q-34 0 -186 -8q0 -132 -7 -218q-1 -15 -6 -21.5t-9.5 -7.5t-16.5 -1q-16 0 -28.5 2.5t-27.5 7t-22 6.5q-12 3 -33 7t-33 7q-35 9 -43 60q-7 42 -14 149q-98 -3 -156 2q-18 2 -26.5 8.5t-14.5 24.5q-10 32 -28 66 q-5 10 -6 26.5z" />
<glyph unicode="," horiz-adv-x="421" d="M-25 -221q46 91 72 204.5t16 221.5q-2 21 4 32t12 13.5t27 9.5q41 13 127 -14q11 -3 39 -9t47 -14q53 -22 50 -114q-1 -89 -36.5 -187.5t-76.5 -144.5q-24 -27 -47 -38.5t-45.5 -11t-52.5 2.5q-22 2 -45 4t-36.5 3t-27.5 1q-48 0 -27 41z" />
<glyph unicode="-" horiz-adv-x="626" d="M20 688q1 18 3.5 26t11.5 15t28 10q90 13 222.5 14t236.5 -10q28 -3 42.5 -14.5t21.5 -38.5q5 -18 6.5 -58.5t5.5 -53.5q8 -37 7.5 -46t-9.5 -32q-7 -19 -16.5 -23t-34.5 -6q-278 -23 -416 -12q-50 5 -66 55q-28 86 -30 92q-16 42 -13 82z" />
<glyph unicode="." horiz-adv-x="505" d="M61 117q-6 86 42 121t161 26q104 -8 147.5 -53t41.5 -111q-1 -36 -6.5 -58.5t-23.5 -46t-58 -33t-103 -5.5q-62 4 -102 15t-60.5 33t-28.5 47t-10 65z" />
<glyph unicode="/" horiz-adv-x="950" d="M25 45q-12 24 16 98q54 132 164 311.5t207 315t235.5 323t188.5 259.5q15 23 32 21t27 -30q2 -5 14 -29t16.5 -40t2 -49t-18.5 -70q-50 -116 -144 -279.5t-184.5 -306.5t-214 -338.5t-200.5 -326.5q-13 -22 -25.5 -23.5t-29.5 13.5q-37 29 -50 79q-5 16 -36 72z" />
<glyph unicode="0" horiz-adv-x="1052" d="M26.5 584q-1.5 122 22.5 242.5t78 235.5t131 193q37 37 79 49t105 -3.5t148 -63.5q127 -25 211 -87t137 -173q49 -101 70.5 -233t12 -268t-65 -264.5t-152.5 -209.5q-56 -46 -130 -50.5t-147.5 25t-146.5 86.5q-259 89 -322 302q-29 97 -30.5 219zM350.5 606 q-10.5 -144 22 -276.5t108.5 -186.5q68 23 116 93t69 161.5t22.5 198.5t-17 202.5t-56.5 173t-89 111.5q-71 -62 -118 -197.5t-57.5 -279.5z" />
<glyph unicode="1" d="M31 895q3 91 34 224t58 190q9 19 20 24t31 2q51 -10 105 -53q13 -5 33 -11t34 -11.5t29 -12.5q23 -11 33.5 -27t11.5 -49q11 -193 13.5 -610.5t-1.5 -544.5q0 -15 -3 -23t-6.5 -11t-14.5 -9q-46 -23 -113 -2q-12 4 -47.5 15.5t-63.5 19.5q-37 11 -53 32t-20 71 q-9 68 -7 177.5t7.5 183t13.5 178t10 163.5q-6 2 -25.5 12.5t-31.5 12.5q-32 8 -40 18t-7 41z" />
<glyph unicode="2" horiz-adv-x="849" d="M26 940.5q-1 12.5 1 22t4.5 23t8 27.5t13.5 29q20 41 58.5 90t87 95.5t106.5 77t107 28.5q71 -3 137 -50.5t115 -125.5q74 -48 113.5 -106.5t43.5 -116t-9 -108t-42 -97.5q-43 -72 -112 -146t-140.5 -149.5t-116.5 -144.5q132 16 220 8q41 -4 59.5 -13t38.5 -32 q14 -16 22.5 -41t22.5 -45q10 -15 17 -29t9 -18.5t6.5 -22.5t4.5 -20q6 -21 -4 -33t-31 -10q-91 4 -184.5 -8t-203.5 -35t-151 -29q-42 -7 -62.5 0t-37.5 35q-8 15 -14 32t-14.5 46.5t-14.5 46.5q-46 58 -53.5 95.5t14.5 76.5q34 73 85 143.5t105 126.5t106 106.5t100 103 t75 97.5q23 39 37 91t4 90q-40 8 -93.5 -19.5t-103 -75t-91 -99t-66.5 -95.5q-12 -17 -27.5 -16t-32.5 14q-4 4 -32 25t-42.5 37.5t-21.5 35.5q0 1 -5.5 14t-6 16t-4.5 15.5t-4 18.5t-1 18.5z" />
<glyph unicode="3" horiz-adv-x="892" d="M24.5 1026.5q-1.5 14.5 4.5 39.5t22 48q50 68 169 141.5t216 73.5q73 0 139.5 -61t110.5 -170q128 -119 102 -256q-9 -47 -50.5 -107t-94.5 -102q78 -26 127 -86q54 -35 79 -84t19 -105q-9 -67 -50 -138t-100.5 -128t-137 -94.5t-152.5 -38.5q-93 -1 -191 42t-161 103 q-12 11 -18.5 25t-8 24.5t-2.5 30.5q-1 25 -5.5 54.5t-4.5 46.5q0 48 20 75q16 23 37 5q127 -106 277 -111q51 -1 96.5 27.5t72.5 69t40 83t6 70.5q-70 34 -246 -43q-57 -24 -98 2q-15 9 -26 21t-23.5 29t-22.5 28q-27 29 -45 80q-5 14 -6 22t4.5 17t21.5 14q94 28 173 78.5 t124.5 103.5t67.5 102.5t12 81.5q-67 17 -186 -47t-201 -141q-19 -18 -31.5 -17.5t-27.5 19.5q-26 33 -37 104q-1 5 -7 29.5t-7.5 39z" />
<glyph unicode="4" horiz-adv-x="997" d="M18.5 522q-0.5 24 12.5 58q47 136 185.5 367t246.5 339q23 23 51 8q10 -5 18 -11t14.5 -14t10 -12.5t10 -15.5t8.5 -14q0 75 -2 110q-1 23 6.5 29t32.5 6q40 0 76 -20q18 -10 44 -17.5t44 -15.5q29 -14 45 -38.5t23 -70.5q26 -148 22 -682q3 0 8 -1t7 -1q52 -7 67 -45 q4 -10 6.5 -19.5t4.5 -20.5t4 -19q2 -9 6.5 -23t7 -25.5t2.5 -23.5q0 -17 -6 -22.5t-25 -3.5q-29 2 -84 2q0 -50 -0.5 -127t-0.5 -126.5t1 -82.5q0 -22 -10 -30t-43 -9q-7 -2 -19.5 0t-16 1.5t-14 3t-12.5 4.5t-12.5 5.5t-13.5 5.5q-17 7 -50 14.5t-50 12.5q-75 24 -84 119 q-7 64 -7 190q-66 -7 -156.5 -19t-107.5 -14q-33 -4 -50 -0.5t-36 21.5q-10 10 -20 22.5t-16 23t-17.5 30.5t-19.5 32q-57 50 -72 70q-18 25 -18.5 49zM285 516q139 22 258 25q4 75 13.5 227l10.5 168q-37 -63 -135.5 -198.5t-146.5 -221.5z" />
<glyph unicode="5" horiz-adv-x="925" d="M23 1198q-18 43 26 55q150 47 348.5 65.5t290.5 8.5q36 -4 52.5 -12t31.5 -27q9 -10 18.5 -33t16.5 -34q31 -45 31 -78q0 -19 -6.5 -25.5t-28.5 -7.5q-38 -2 -79.5 -7t-72 -9t-77 -12t-69 -12t-74.5 -14.5t-69 -13.5q-1 -40 1 -122.5t2 -114.5q49 24 102 29t120.5 -20 t129.5 -85q101 -46 144 -113.5t38 -162.5q-5 -119 -43.5 -216t-99.5 -159t-136 -95.5t-157 -35.5q-101 -1 -191.5 37.5t-156.5 99.5q-12 11 -18.5 25t-8 24.5t-2.5 30.5q-1 24 -4.5 49.5t-3.5 44.5q0 51 20 74q17 20 35 4q59 -48 138 -81.5t151 -27.5q47 4 85.5 57.5t55 121 t13.5 133.5t-31 94q-38 -1 -83 -34.5t-75 -66.5q-20 -22 -37.5 -28.5t-42.5 -1.5q-21 4 -57 9t-61.5 10t-51.5 14q-40 14 -60.5 37.5t-27.5 66.5q-5 27 -5.5 63.5t2 84.5t6 87t9.5 101.5t9 99.5q-7 8 -21 41q-5 12 -12.5 38.5t-13.5 43.5z" />
<glyph unicode="6" horiz-adv-x="894" d="M28 440q-8 131 17.5 270.5t84.5 284.5t144 260q53 72 144 68q28 -1 71.5 4.5t63.5 5.5q33 0 47 -14.5t-2 -36.5q-133 -167 -201 -463q46 14 99.5 2.5t97.5 -41.5q45 -11 75.5 -22t68 -32t64.5 -56.5t44 -85.5q20 -59 25 -135.5t-5 -154t-38.5 -150t-71.5 -119.5 q-128 -137 -328 -19q-60 5 -99.5 12.5t-89 28.5t-89 63.5t-70.5 106.5q-44 92 -52 223zM352 424q7 -248 109 -311q40 21 66.5 98.5t31 166t-16.5 171.5t-67 113q-40 -14 -75 -79.5t-48 -158.5z" />
<glyph unicode="7" horiz-adv-x="919" d="M13 1212q-1 7 5 13.5t23 11.5q139 41 320 67t331 25q41 0 59.5 -14.5t26.5 -44.5q2 -6 27 -64q19 -14 33.5 -28.5t27.5 -31t21 -24.5q17 -17 20 -37t-1 -31t-13 -28q-49 -93 -64.5 -123t-71 -140t-86 -182.5t-75 -179.5t-75 -207.5t-50.5 -195.5q-3 -18 -13.5 -22.5 t-33.5 1.5q-39 10 -92 54q-61 50 -66 55q-37 33 -20 131q28 154 100 367.5t168 404.5q-174 -15 -317 -49q-11 -5 -22 -3t-18.5 3t-16.5 7.5t-14 11.5t-12.5 15t-12.5 17t-12 19q-3 5 -5 8q-13 20 -19.5 48.5t-11.5 39.5q-29 68 -33 80q-6 19 -7 26z" />
<glyph unicode="8" horiz-adv-x="890" d="M29 305q0 171 204 375q-256 168 -188 348q34 91 114.5 165.5t168.5 113.5q168 74 321 -99q234 -116 135 -305q-10 -19 -25.5 -42.5t-28.5 -41.5t-36.5 -47t-35 -42.5t-40 -46.5t-36.5 -42q116 -69 177 -124t83 -106t24 -124q2 -88 -43 -170.5t-114 -131.5t-138 -48 q-147 3 -276 118q-266 71 -266 250zM302.5 897q-6.5 -55 43.5 -92q121 137 160 205q51 87 33 135q-49 -7 -104 -47.5t-90.5 -93t-42 -107.5zM359 282q-28 -101 18 -157q60 7 106.5 52t64 101.5t0 116.5t-74.5 94q-86 -106 -114 -207z" />
<glyph unicode="9" horiz-adv-x="882" d="M29 799q2 144 49 267.5t118 192t146 68.5q92 0 190 -98q175 -51 255 -225t67 -429q-9 -200 -67 -330.5t-179 -191.5q-96 -102 -194 -102q-96 0 -183.5 42.5t-136.5 102.5q-35 44 -35 90q0 59 -2 86q-4 55 9 84q11 23 32 2q90 -86 200.5 -120t180.5 2q31 48 51 159 q-66 -27 -139.5 -16.5t-130.5 51.5q-125 37 -179 127t-52 238zM342 698q13 -117 70 -170q39 3 77.5 28.5t59.5 66.5q2 169 -27 304.5t-84 168.5q-53 -53 -81 -167t-15 -231z" />
<glyph unicode=":" horiz-adv-x="518" d="M61 637q0 30 2.5 49.5t12.5 43t28.5 36.5t53.5 21.5t84 7.5q60 -1 98 -12t58 -33t28 -48.5t10 -68.5q6 -89 -39 -127.5t-151 -32.5q-185 10 -185 164zM63 117q-6 86 42 121t161 26q53 -4 91.5 -19t59.5 -38.5t30 -49.5t8 -57q-1 -29 -4 -47.5t-14 -40t-30.5 -33 t-56 -18.5t-88.5 -4q-62 4 -101 15t-59.5 33t-28.5 47t-10 65z" />
<glyph unicode=";" horiz-adv-x="411" d="M-27 -221q108 223 90 424q-2 21 4 32t12 13.5t27 9.5q44 15 127 -14q17 -6 43 -10.5t43 -10.5q53 -20 50 -117q-1 -89 -36.5 -187t-76.5 -144q-24 -27 -47 -38.5t-45.5 -11t-52.5 2.5q-22 2 -45 4t-37 3t-29 1q-48 0 -27 43zM49 633q-5 79 40 119t128 30 q52 -6 87.5 -22.5t53 -42t24.5 -51.5t7 -60q0 -76 -15 -103q-33 -56 -153 -44q-102 11 -134.5 50t-37.5 124z" />
<glyph unicode="&#x3c;" horiz-adv-x="718" d="M20 688q0 21 8 30t31 17q62 23 269.5 114t287.5 120q37 14 48 -19q7 -21 9 -50t1 -60t0 -39q1 -17 1 -29.5t-9.5 -25t-30.5 -25.5q-41 -26 -117.5 -61t-148.5 -60q235 -113 305 -156q22 -13 23.5 -20t-5.5 -29q-9 -32 -26.5 -59.5t-40.5 -34.5q-38 -12 -68 -33 q-24 -19 -96 13q-81 37 -223.5 117.5t-192.5 111.5q-24 15 -12 90q-13 84 -13 88z" />
<glyph unicode="=" horiz-adv-x="770" d="M25 858q0 17 0.5 24t6.5 14.5t19 8.5q74 6 176.5 10t228.5 1.5t199 -13.5q28 -4 42 -14.5t20 -30.5q3 -9 6 -32.5t6 -34.5q2 -7 6.5 -22t7 -27.5t2.5 -28.5q0 -33 -40 -35q-95 -6 -574 -6q-42 0 -56.5 9t-21.5 30q-5 16 -14 67q-2 9 -6 26.5t-6 29.5t-2 24zM34 444.5 v21.5t1.5 26t1.5 26q2 20 7.5 27.5t23.5 7.5q24 0 151 6t235.5 5.5t196.5 -11.5q34 -4 46.5 -12t17.5 -27q16 -71 22 -88q13 -35 -6 -78q-6 -14 -13 -18t-26 -4q-20 0 -255 -10t-326 -3q-18 2 -27.5 8t-15.5 23q-16 45 -27 64q-3 7 -5 15.5t-2 21z" />
<glyph unicode="&#x3e;" horiz-adv-x="735" d="M21.5 812q-3.5 11 3.5 34q3 12 9.5 23.5t18.5 25t20 22t28.5 27.5t31.5 29q20 20 92 -4q70 -25 252.5 -130t218.5 -130q15 -10 17.5 -20t-2.5 -30q-3 -14 -6.5 -25.5t-10 -26.5t-10.5 -29q0 -31 -2 -43q-3 -23 -12 -31.5t-33 -16.5q-60 -23 -251 -106t-273 -113 q-36 -12 -50 19q-9 20 -13.5 45.5t-6 55.5t-2.5 36q-2 16 -1.5 28t9.5 24.5t31 27.5q72 51 270 127q-32 17 -96 52t-114 61.5t-93 46.5q-22 10 -25.5 21z" />
<glyph unicode="?" horiz-adv-x="964" d="M78 926q-43 73 20 157q68 88 185 165t198 77q119 0 244 -125q89 -37 142 -86.5t66.5 -100t6.5 -96t-31 -88.5q-25 -43 -73 -86.5t-107 -88.5t-86 -72q-49 -49 -67.5 -94.5t-16.5 -100.5v-9.5v-8.5v-6.5t-1 -5.5t-2.5 -4.5t-4 -4.5t-6 -4t-8.5 -4q-46 -22 -97 -2 q-79 31 -98 37q-58 20 -66 69q-16 80 6.5 150t66.5 121t120 114q192 156 180 242q-81 12 -222 -75.5t-230 -182.5q-35 -37 -66 10q-13 18 -29.5 54t-23.5 49zM227 113q-11 88 35 123.5t156 25.5q189 -18 196 -166q2 -20 0 -39t-6 -36t-16.5 -31t-31.5 -23.5t-50.5 -13.5 t-73.5 -2q-62 4 -101.5 15.5t-61.5 33.5t-31.5 47t-14.5 66z" />
<glyph unicode="@" horiz-adv-x="1110" d="M20 602q-3 195 103 364.5t272 221.5q94 28 166 -10q5 -3 51 -24.5t64 -33.5q106 -22 187.5 -72t130.5 -117.5t72.5 -145.5t20.5 -162q-4 -94 -38.5 -185t-82 -145t-89.5 -53q-56 0 -119 63q-79 28 -109 82q-23 -43 -54 -69.5t-58 -26.5q-58 0 -125 86q-38 26 -56 41 t-36 42t-23 60q-12 94 31.5 210t109.5 165q46 39 109 8q14 -6 39 -15.5t36.5 -14.5t25 -15.5t20.5 -24.5q9 -2 33 -6.5t32.5 -8t23 -11t20 -20t7.5 -31.5q2 -25 3 -108.5t8 -141t24 -76.5q36 51 53.5 123t9.5 151t-38.5 152t-98 130.5t-161.5 80.5q-82 -20 -153 -79.5 t-118 -139t-68.5 -174t-13 -183.5t57 -170t133.5 -131q50 -17 119 9t121 67q15 9 19.5 8.5t16.5 -10.5q13 -11 27 -65q2 -8 8 -23t9 -24t1.5 -22t-10.5 -24q-35 -46 -89 -74t-99 -28q-53 0 -103.5 29.5t-132.5 111.5q-286 141 -289 459zM475 446q62 37 102 139t25 193 q-62 -45 -100 -153.5t-27 -178.5z" />
<glyph unicode="A" horiz-adv-x="1009" d="M12 422q-1 6 -1 11q0 10 3 16q4 8 21 12q24 7 49 10q73 347 192 662q17 43 44 61t71 29q46 11 64 20q-25 48 -23 57q2 16 17 21q29 8 64 8q17 0 36 -2q78 -8 88 -8q90 0 127 -88q25 -58 48.5 -168.5t36 -189.5t36.5 -248q56 -369 85 -489q20 -87 42 -144q6 -13 6 -23 q0 -5 -2 -8q-4 -11 -29 -14q-4 -2 -19 -2q-14 -1 -34 1q-46 2 -60 3q-30 0 -50 3t-44 13t-43.5 32.5t-36.5 57.5q-29 58 -65 207q-195 -13 -328 -16q-32 -112 -55 -226q-3 -19 -7.5 -25.5t-15.5 -8.5q-27 -4 -61 10q-17 6 -36.5 30.5t-37.5 39.5q-49 39 -49 118v15 q4 60 8 90q-1 2 -2 6t-2 6q-6 18 -15.5 41.5t-14.5 41t-7 38.5zM377 504q67 4 209 8q-67 404 -78 459q-30 -120 -131 -467z" />
<glyph unicode="B" horiz-adv-x="978" d="M-4 1204q74 49 195 82t235 33q66 0 129.5 -16.5t121 -49.5t97.5 -89.5t51 -129.5q67 -108 67 -206q0 -12 -1 -23q-12 -134 -154 -219q45 -28 80.5 -66.5t52.5 -79.5q82 -89 82 -191v-7q-2 -65 -41 -120t-96.5 -90t-128 -60t-132.5 -36t-112 -12h-27q-57 0 -89 7 q-38 9 -58 34q-7 10 -26 27.5t-29 32.5q-20 1 -44 8t-30 8q-25 5 -34 13t-13 32q-35 208 -35 442q1 3 1 7q0 238 28 462q-12 17 -31.5 39t-27.5 35q-8 12 -15 24.5t-10.5 21t-10 22.5t-9.5 22q-6 11 -6 19q0 12 20 24zM350 451q-1 -32 -1 -65q0 -99 7 -204q125 4 224 71.5 t102 137.5q-46 42 -136 57q-50 8 -105 8q-44 0 -91 -5zM367 715q137 26 233 110.5t98 157.5q-40 43 -136 45q-5 0 -10 1q-90 0 -163 -28q-3 -36 -7.5 -95.5t-8 -105.5t-6.5 -85z" />
<glyph unicode="C" horiz-adv-x="944" d="M20 565q-1 24 -1 47q0 133 38 266q45 157 131 275t191 162q36 15 67 15q12 0 23 -2q39 -8 90 -52q20 -4 75.5 -14t83 -17t63.5 -28.5t57 -53.5q63 -101 63 -241q1 -30 -3.5 -51t-17.5 -37.5t-20.5 -23t-28.5 -22.5q-12 -8 -86 -67q-22 -19 -39.5 -10t-23.5 41 q-51 267 -154 311q-88 -73 -142 -201t-64 -256q-2 -31 -2 -62q0 -94 22 -179q30 -113 96 -160q26 -5 51 -6q77 -1 149 47q98 62 163 172q14 22 27.5 22t31.5 -24q25 -31 43 -127q2 -11 8.5 -32.5t10.5 -36.5q2 -10 2 -25v-14q-2 -24 -13 -48q-64 -134 -196 -178 q-43 -14 -91 -14q-58 1 -120 21q-116 36 -215 132q-256 140 -269 471z" />
<glyph unicode="D" horiz-adv-x="970" d="M-40 1278q3 10 22 12q116 22 220 22q101 0 191 -21q181 -42 305 -149q126 -106 190 -262q63 -151 63 -328q0 -6 -1 -11q-1 -124 -53 -232t-136.5 -181t-190 -118.5t-216.5 -54.5h-8q-49 0 -82 55q-29 0 -50.5 6t-41 16t-31.5 13q-33 9 -42 18.5t-15 45.5q-14 82 -17 198 q-1 32 -1 66q0 91 6 197q8 147 14 227.5t18 214.5q-25 16 -42.5 44t-31 63t-18.5 44q-7 11 -17 27l-15 24t-10 18t-7 19q-4 11 -4 19q0 5 1 8zM381 983q1 -87 5 -331q4 -200 3 -321v-50q103 34 175 102q74 69 104 151q31 84 31 172q0 86 -31 164q-51 58 -120 82t-167 31z " />
<glyph unicode="E" horiz-adv-x="829" d="M11 1228q5 14 32 15q40 2 164 16q125 13 205 19q38 3 83 4q49 0 107 -4q62 -6 93 -23.5t44 -54.5q8 -22 29 -58t23 -40q20 -38 20 -76v-10q-1 -15 -9.5 -19t-33.5 -2q-13 1 -28 1q-71 0 -200 -12q-157 -14 -216 -15q2 -39 5 -121t5 -119q115 18 211 18q56 0 106 -6 q20 -3 27 -8t14 -24t12 -49.5t7 -36.5q3 -9 12.5 -23t11.5 -27q5 -32 2 -45q-5 -17 -10 -24t-16 -8q-13 -2 -73 -11t-97 -13.5t-96.5 -9.5t-108.5 -5q-4 -108 -8 -156q172 20 284 20q50 0 88 -4q28 -3 37.5 -8.5t18.5 -25.5q8 -19 18 -88q2 -12 13 -28.5t10 -31.5 q-1 -6 -1.5 -13t-0.5 -11.5t-0.5 -9t-1.5 -7.5q-1 -6 -2.5 -9t-7.5 -5.5t-17 -3.5q-84 -8 -171.5 -24.5t-184.5 -38.5t-131 -29q-32 -7 -55 -7q-10 -1 -19 1q-27 4 -45 28q-17 21 -33 49q-12 2 -37 2q-27 0 -37.5 10.5t-13.5 34.5q-10 88 -12 192q-1 26 -1 52q0 78 5 154 q6 102 13 194.5t15.5 192t10.5 160.5q-13 24 -27.5 72.5t-24.5 70.5q-8 18 -8 30q0 4 1 8z" />
<glyph unicode="F" horiz-adv-x="856" d="M-14 1246q3 15 28 20q137 30 335 42q93 5 176 6q94 0 177 -7q24 -2 40 -9.5t26 -24.5t13 -26.5t10 -34.5q5 -21 11 -38t14 -36t13 -32q10 -27 10 -54q0 -10 -1 -20q-2 -12 -10 -17t-29 -5q-115 0 -269 -19.5t-188 -21.5q0 -26 1 -109t1 -137q169 12 256 12q36 0 59 -2 q26 -2 41.5 -12.5t20 -22.5t8.5 -32q4 -19 13.5 -47t11.5 -33q5 -17 5 -40q0 -27 -7 -61q-3 -13 -9.5 -17.5t-21.5 -4.5q-38 -2 -166 -13.5t-207 -13.5q1 -111 2 -199q0 -177 -6 -266q-2 -21 -16 -26q-7 -2 -19.5 -2.5t-29.5 2.5q-26 3 -64 19t-53 20q-5 1 -25.5 6t-27 7.5 t-23 9.5t-22.5 16t-15.5 23t-13 34.5t-4.5 46.5q-1 34 -1 76q0 153 17 410q22 328 25 405q-9 10 -47 63q-12 17 -18 36t-9.5 48t-5.5 37q-7 22 -7 36q0 4 1 8z" />
<glyph unicode="G" horiz-adv-x="1054" d="M20 627q0 165 71 330.5t187 272.5q114 105 232 105h2q23 0 46.5 -9t37.5 -18.5t44.5 -33t47.5 -35.5q70 -12 122 -42.5t81 -72.5t44 -85t19 -89q1 -12 1 -23q0 -35 -9 -57q-13 -30 -45 -47q-15 -8 -46.5 -30t-53.5 -31q-3 -1 -8.5 -3.5t-8 -3.5t-7 -2.5t-7 -2t-6 -0.5 t-5.5 1.5t-5 4t-5 6.5t-4 9.5t-4 12.5q-22 89 -65 163.5t-101 94.5q-99 -51 -169 -202t-70 -312q0 -225 125 -325q70 0 134.5 51.5t84.5 126.5q-86 -4 -125 -4q-53 0 -72 47q-22 52 -39 86q-3 6 -5.5 12t-4.5 10.5t-3 10.5t-1.5 8t-1 9t-0.5 8.5v9.5v10q0 18 1.5 25.5 t10 15.5t27.5 12q92 18 227 28q104 8 193 8q27 0 53 -1q30 -2 45.5 -11.5t24.5 -35.5q6 -18 10.5 -56t9.5 -51q10 -29 10 -40t-8 -33q-7 -19 -16.5 -24.5t-34.5 -8.5q-4 -1 -12.5 -2t-12.5 -2v-10q0 -115 -43 -218q-45 -107 -120 -171t-158 -64q-57 0 -127 33.5t-123 91.5 q-168 59 -266.5 200.5t-98.5 352.5z" />
<glyph unicode="H" horiz-adv-x="931" d="M-16 590q-7 14 -7 24q0 17 21 21q7 1 29.5 6.5t35.5 7.5q28 481 29 553q0 18 5.5 25.5t23.5 13.5q11 4 23 4q23 0 53 -12q12 -5 42.5 -13t45.5 -14q28 -12 44 -41t19 -92q1 -18 1 -47q0 -105 -9 -350q70 4 205 4q3 86 11 254t12 274q2 67 2 119q0 29 -1 53q0 15 4.5 20 t16.5 7q9 1 18 1q31 0 60 -13q55 -25 73 -27q51 -7 74 -25q44 -38 55 -141q17 -167 19 -558q0 -56 1 -109q0 -318 -11 -535q-1 -20 -7 -28t-18 -11q-9 -3 -22.5 -3t-30.5 3q-14 2 -41.5 11.5t-36.5 11.5q-16 5 -43.5 7.5t-40.5 4.5q-34 6 -54 28t-30 66q-18 80 -18 277v59 q-40 -4 -118 -7.5t-87 -4.5q-6 -215 -7 -308q0 -23 1 -38q0 -35 -29 -39q-10 -1 -20 -1q-37 0 -74 9q-17 4 -46 16t-42 15q-22 5 -31.5 12.5t-13.5 28.5q-17 68 -17 223q0 49 2 108q-22 22 -35 54q-4 9 -14.5 40t-21.5 56z" />
<glyph unicode="I" horiz-adv-x="419" d="M35 299v34q1 95 5 211q6 136 11.5 228.5t18 252t16.5 216.5q1 16 10 22t29 9q6 1 27 6t39 8q14 2 25 2h7q19 -2 35.5 -10t32.5 -20t26 -17q18 -9 24 -19t7 -34q3 -81 12 -257q10 -176 16 -307q6 -114 5 -262v-46q-1 -177 -14 -320q-1 -25 -11 -31q-7 -5 -26 -5 q-7 0 -15 1q-81 6 -112 6q-40 0 -64 10.5t-55 36.5q-29 25 -38 84.5t-11 200.5z" />
<glyph unicode="J" horiz-adv-x="829" d="M10 264q1 21 1.5 48t2 47t6.5 44q10 45 31 45q14 0 33 -20q79 -86 170 -138q64 -36 118 -36q22 0 42 6q42 57 58 251q12 131 12 273q0 70 -3 142q-8 220 -32 391q-3 24 9 31q9 6 34 6h14q22 -1 39.5 -5.5t40.5 -13.5t30 -12q4 -1 23 -6.5t28.5 -10t24.5 -13.5t25 -23.5 t16 -34.5q30 -102 49 -285q17 -166 17 -313v-31q-2 -184 -29.5 -297.5t-75.5 -171t-131 -94.5q-44 -51 -85.5 -73t-102.5 -23h-3q-71 0 -166 51q-96 52 -157 119q-27 30 -35 63q-5 24 -5 56q0 13 1 28z" />
<glyph unicode="K" horiz-adv-x="954" d="M36 348q-1 45 -1 89q1 124 7 236q8 151 19 334.5t13 262.5q0 19 6.5 24.5t23.5 8.5q5 1 11 1q30 0 86 -20l32.5 -12.5t33 -12t28.5 -8.5q52 -13 57 -92q6 -91 10 -383q113 116 243.5 275.5t195.5 265.5q10 15 22 15t27 -15q24 -24 49 -82q6 -15 20.5 -38t20.5 -44 q2 -8 3 -15.5t-0.5 -16.5t-2 -13.5t-4.5 -16t-5.5 -15t-7.5 -18t-8 -18.5q-36 -79 -156.5 -243t-242.5 -287q80 -85 202.5 -193t215.5 -178q15 -11 15 -20q0 -8 -13 -21q-35 -35 -78 -57q-24 -13 -47 -28.5t-29 -18.5q-18 -9 -36 -9q-25 0 -52 17q-62 36 -162 116t-170 148 q0 -170 -4 -276q0 -18 -5 -22.5t-21 -6.5h-11q-47 0 -104 21q-23 9 -38.5 13.5t-32.5 8t-29 6.5q-2 1 -10.5 3t-10 2.5t-7.5 3t-7.5 4t-5.5 5t-5.5 7t-4 8.5t-4 11.5t-3.5 15.5q-20 104 -23 278z" />
<glyph unicode="L" horiz-adv-x="837" d="M36 391q2 56 8.5 165t8.5 165q5 114 15.5 298.5t11.5 244.5q0 7 1.5 11.5t3 7t6 4t7 2t10 1.5t11.5 2q7 1 26.5 6.5t37.5 9.5q14 3 26 3h6q20 -1 36.5 -5t24.5 -8.5t21.5 -13t19.5 -12.5q1 -1 7 -4t7.5 -4t6 -4.5t6 -6t4 -7t3.5 -10.5t1 -13q22 -456 22 -738 q0 -132 -5 -225q89 20 195 28q66 5 110 5q28 0 47 -2t30 -7t15 -10t12 -18q7 -11 14.5 -36t12.5 -36q3 -8 11.5 -26t12 -27t5.5 -27q2 -13 2 -27v-11q-2 -12 -7 -17t-18 -6q-93 -7 -187 -26t-200.5 -47.5t-149.5 -37.5q-18 -3 -28 -3q-6 0 -8 1q-8 3 -21 19q-34 39 -45 63 q-15 2 -35 7.5t-31 7.5q-25 3 -37 13t-16 36q-11 83 -15 171q-2 56 -3 99q0 25 1 45z" />
<glyph unicode="M" horiz-adv-x="1214" d="M40 802q6 220 34 419q4 30 42 30h9q29 -2 76.5 -2.5t58.5 -1.5q34 -3 55.5 -14t51.5 -43q23 -3 52.5 -5.5t41.5 -4.5q22 -3 31 -14t12 -36q32 -219 98 -454q99 431 156 579q18 49 94 52q75 3 117 12q21 7 41 7h8q24 -2 51 -23q18 -14 42 -31t34 -25q20 -14 25 -26 q4 -10 4 -33v-10q-8 -170 -8 -374q0 -29 -1 -57q0 -168 3 -288q2 -85 1 -163v-101q-2 -123 -12 -170q-1 -2 -2 -8.5t-1.5 -8.5t-2 -6.5t-2.5 -6.5t-3 -5.5t-4 -5.5t-5 -4.5t-7 -4.5q-5 -3 -14.5 -9.5t-14.5 -9.5t-13 -5.5t-17 -3.5h-6q-9 -1 -15 1q-10 2 -22.5 8t-23.5 9 q-5 1 -18 4t-19 5t-14.5 7t-13.5 13.5t-7 21.5q-14 76 -20 278q-4 114 -3 222q0 83 2 162q-117 -400 -149 -580q-1 -7 -3.5 -11.5t-8 -8t-7.5 -5t-10.5 -4.5t-9.5 -3q-21 -7 -43.5 -7t-46.5 7q-4 1 -12.5 3.5t-11.5 3.5t-10 3.5t-9.5 4t-7.5 4t-7.5 5l-6.5 6.5t-7 8t-6 9.5 t-6 11.5q-44 95 -106.5 273t-92.5 304q0 -20 -1 -43q0 -80 6 -192q7 -145 9 -231q0 -16 1 -33q0 -77 -9 -189q-3 -25 -8.5 -29.5t-30.5 -4.5t-92 20q-9 3 -43 11t-57 16q-54 20 -62 94q-16 145 -23 303q-4 82 -4 181q1 91 4 197z" />
<glyph unicode="N" horiz-adv-x="985" d="M38 334q-1 64 0 119q0 88 2 154q4 107 16.5 322t15.5 281q1 24 13 32.5t48 14.5q59 11 96 11q17 0 51 -11.5t48 -13.5q21 -4 31 -7t20.5 -12.5t17.5 -27.5q22 -53 76 -205.5t111.5 -295.5t117.5 -253q-2 55 -2 125q0 154 8 380q11 330 11 358q0 14 0.5 19.5t6 10.5 t17.5 8q18 4 33 5q25 0 43 -13q33 -23 58 -37q26 -14 39 -38.5t14 -71.5q0 -25 9 -301q8 -248 8 -432v-39q-1 -196 -17 -326q-2 -19 -9.5 -31.5t-14 -18t-34.5 -24.5q-32 -22 -67 -22q-15 0 -31 4q-46 12 -104 12h-12h-11t-9 0.5t-9.5 1.5t-7.5 2.5t-8 4t-7.5 6.5t-8 9 t-7.5 11q-47 76 -87 160.5t-80 179.5t-61 139q3 -90 17 -288t14 -265q0 -14 -1.5 -19.5t-8.5 -11t-23 -8.5q-12 -2 -25 -2q-40 0 -89 19q-17 7 -37 11t-45 7.5t-41 7.5q-33 8 -47.5 21.5t-18.5 44.5q-17 127 -19 293z" />
<glyph unicode="O" horiz-adv-x="1093" d="M16 639q3 211 105.5 390.5t228.5 242.5q36 19 72 19q38 0 76 -21q2 -1 12.5 -8t15.5 -9h17q104 -1 191 -35q94 -38 156.5 -101.5t105.5 -148.5t62 -174.5t19 -181.5q0 -112 -23.5 -208t-61 -162.5t-88.5 -119t-101 -83t-103 -47.5q-43 -14 -85 -14q-40 0 -77 13 q-77 26 -159 91q-110 28 -193.5 109t-127.5 198q-42 112 -42 238v12zM330 644q-5 -40 -5 -79q0 -69 15 -135q23 -104 80 -170q28 -6 55 -7q63 0 122 35q85 49 137 152t52 230q0 125 -63 225t-160 131q-99 -62 -159.5 -167t-73.5 -215z" />
<glyph unicode="P" horiz-adv-x="944" d="M-35 1204q-1 9 -1 15q0 9 2 14q4 9 20 12q43 9 137.5 36t174.5 42q67 12 133 13q13 0 26 -1q69 -2 115.5 -11t91.5 -32.5t78.5 -66.5t60.5 -111q69 -76 103 -154q25 -58 25 -126q0 -22 -3 -46q-8 -74 -55.5 -158t-137.5 -163t-200 -115q-38 -11 -63 -11q-9 0 -16 1 q-29 5 -57 31q-4 4 -12.5 8t-11.5 6q-3 -101 -2 -184q0 -130 6 -213q2 -13 -2.5 -18.5t-18.5 -8.5t-30 -3q-30 0 -64 11q-62 18 -98 27q-64 14 -74 104q-16 143 -16 377q0 6 -1 12q0 229 19 488q-17 14 -33 43q-23 45 -65 92q-14 16 -20 34.5t-11 55.5zM385 610 q84 37 165.5 109t129.5 153q37 62 37 108q0 15 -4 28q-38 22 -123 22h-14q-96 -2 -175 -31q0 -73 -16 -389z" />
<glyph unicode="Q" horiz-adv-x="1126" d="M16 633q1 211 104.5 393t248.5 264q18 10 36 14.5t27.5 4.5t35.5 -2.5t36 -3.5q62 -5 117 -54q158 -23 271 -113t166 -220q50 -124 50 -270v-17q-6 -289 -160 -484q71 -84 78 -94l4 -5q3 -4 3.5 -5t3 -5t2.5 -5.5t1.5 -5t1.5 -6t-0.5 -6t-1.5 -7.5q-18 -61 -26 -72 q-14 -20 -72 -43q-4 -1 -12 -4.5t-10.5 -4.5t-9 -3t-9 -2t-7.5 -1h-4q-4 0 -6 1q-5 1 -11 3t-13 5q-51 22 -117 88q-48 -24 -93 -24q-46 0 -89 26q-12 7 -47 26.5t-61 37.5q-109 27 -195 88t-138 142t-78 174q-26 90 -26 183v7zM344 527v-13q0 -104 37 -196q39 -99 115 -156 q37 8 75 28q-20 36 -28 50q-17 41 -16 58t12 48q6 17 12 49.5t12 48.5q10 25 22.5 30.5t37.5 -9.5q55 -41 114 -96q71 130 74 276v10q0 136 -53 252q-54 120 -154 172q-77 -44 -137.5 -134t-90 -198.5t-32.5 -219.5z" />
<glyph unicode="R" horiz-adv-x="956" d="M-2 1212q-2 8 -2 14q0 10 4 14q6 8 25 11q39 8 129.5 33.5t164.5 39.5q61 12 116 11h24q56 -2 96 -8.5t80.5 -21.5t70.5 -41t57 -67t50 -99q55 -66 79 -128q19 -49 19 -111q0 -18 -2 -36q-8 -106 -89.5 -224t-215.5 -189q191 -165 352 -271q10 -7 10 -17q0 -7 -5 -16 q-4 -6 -9 -11t-9.5 -8t-11.5 -6.5t-10.5 -4.5t-12 -4t-11.5 -4q-11 -4 -33.5 -21t-38.5 -27q-26 -15 -57 -15q-39 0 -86 24q-128 61 -316 217q0 -123 9 -260q3 -21 -21 -27q-8 -2 -19 -2q-25 0 -63 12q-62 20 -90 25q-36 7 -55 33t-31 71q-22 88 -28 252q-3 76 -4 154 q0 90 4 184q8 176 24 359q-4 8 -16 28q-7 14 -38 59t-40 78zM371 627q127 45 234 165q98 109 98 203q0 9 -1 17q-40 35 -134 36h-8q-90 0 -163 -24q-18 -210 -26 -397z" />
<glyph unicode="S" horiz-adv-x="817" d="M20 379q5 20 9 52t8 42q14 32 45 -2q75 -83 197 -147q83 -43 138 -43q26 0 46 10q-1 9 -4 18.5t-9 20.5t-12.5 20t-17.5 22t-19 22t-22.5 23.5l-23 23t-25.5 24.5t-25 24q-37 35 -72 76t-73 95t-61 115t-23 116q0 138 94 244q29 65 60.5 105t59.5 54q30 14 60 19 q13 2 24 2q17 0 34 -4q105 -14 195.5 -78t136.5 -140q42 -70 42 -125v-10q-2 -27 -7.5 -45t-16 -37t-15.5 -32q-25 -70 -41 -88q-23 -30 -49 10q-146 205 -271 205h-11q-30 -44 -30 -92q0 -9 1 -17q6 -58 47 -110q28 -35 88 -83.5t116 -89t111.5 -95.5t79.5 -105 q16 -34 20 -71q1 -11 1 -22q0 -28 -7 -58q-10 -42 -46 -86.5t-97 -84.5q-45 -63 -92.5 -86.5t-116.5 -23.5q-92 0 -213.5 76.5t-201.5 195.5q-22 32 -22 81q0 35 11 79z" />
<glyph unicode="T" horiz-adv-x="1034" d="M10 1192q-4 14 -4 23t4 13q7 8 39 11q96 8 248.5 31t283.5 37q102 11 195 11q27 0 53 -1q38 -1 56.5 -12t36.5 -39q13 -23 32 -62t25 -49q5 -9 16.5 -23.5t18.5 -26.5t10 -26q4 -16 4 -45q0 -13 -4 -19.5t-20 -10.5q-76 -19 -332 -37q8 -215 10 -469q1 -67 1 -129 q0 -175 -5 -314q-3 -39 -19 -53q-19 -15 -57 -22q-17 -1 -24 -1q-4 1 -5 1q-4 0 -30 8q-51 15 -86 20q-63 9 -78 62q-32 110 -34 260v32q0 140 15 326q17 208 19 260q-93 -3 -152 -6q-34 -2 -51.5 2.5t-30.5 20.5q-7 9 -57 59q-2 2 -9 8.5t-8.5 8.5t-7 7.5t-7 8t-5.5 7.5 t-6 9t-5 9t-5 10q-4 10 -8.5 27.5t-9 39.5t-7.5 33z" />
<glyph unicode="U" horiz-adv-x="907" d="M31 606q0 120 13.5 303t31.5 303q3 23 19 27.5t44 -4.5q17 -5 97 -41q48 -23 69 -31q43 -17 43 -71v-7q-2 -48 -17 -185.5t-25 -249.5q-5 -56 -4.5 -114t4.5 -119q10 -121 48 -177q82 22 132 158q49 133 49 335v8q-1 69 -9 277q-6 167 -6 233v27q2 21 8 30.5t23 12.5 q24 4 45 4q48 0 84 -20q14 -7 28.5 -11.5t35.5 -9t28 -6.5q72 -20 80 -129q22 -302 24 -374q1 -36 1 -70q0 -317 -92 -496q-62 -121 -169 -195q-50 -36 -96 -48q-18 -5 -39 -5q-31 0 -66 11q-59 18 -124 75q-101 43 -160 129q-100 143 -100 430z" />
<glyph unicode="V" horiz-adv-x="966" d="M-4 1224q2 4 20 13q44 20 79 20q11 0 20 -2q84 -17 94 -18q33 -4 57.5 -22.5t44.5 -67.5q84 -208 224 -737q52 196 162 535.5t120 371.5q7 23 25 23q12 0 30 -11q17 -11 35.5 -33t28.5 -30q23 -20 31 -46q4 -13 4 -31.5t-4 -43.5q-49 -261 -152.5 -660t-165.5 -501 q-12 -20 -23 -26.5t-32 -6.5q-43 0 -82 14q-14 5 -28.5 8.5t-24.5 5t-29 4.5t-31 5q-30 5 -43.5 9.5t-30 21t-32.5 49.5q-61 123 -115 344.5t-101.5 454t-78.5 327.5q-3 17 -3 25q0 4 1 5z" />
<glyph unicode="W" horiz-adv-x="1316" d="M-4 1190q-2 7 -2 13q0 15 10 26q17 20 72 28h7q24 0 83 -14q19 -5 44.5 -9t31.5 -5q19 -5 32 -18t29 -50q36 -87 79.5 -261t76.5 -361q90 366 149 587q7 30 46 30q6 0 12 -1q37 -4 90 -25q32 -13 73 -20q45 -9 60 -72q35 -136 88 -460q93 425 182 714q6 18 13 24 q6 5 19 5h5q28 -2 61 -39q28 -26 52 -57q15 -22 15 -54q0 -18 -5 -38q-110 -535 -219 -1043q-12 -57 -53 -57h-5q-37 4 -106 24q-50 14 -102 21q-65 8 -80 39q-14 28 -23 84q-5 27 -30.5 178t-41.5 231q-20 -86 -65 -302t-62 -288q-4 -12 -5.5 -15.5t-7.5 -8t-17 -6.5 q-18 -4 -39 -4q-31 0 -72 8q-29 5 -53 5q-12 0 -23 -1q-15 -1 -23 0.5t-18 12.5t-20 34q-51 122 -91.5 315t-83.5 434.5t-83 395.5z" />
<glyph unicode="X" horiz-adv-x="884" d="M6 54q0 5 -1 9q0 29 13 66q53 171 242 498q-149 287 -192 407q-18 49 -18 88q0 44 24 74q8 10 14.5 23.5t11 21t11.5 10.5q5 2 9 2q24 0 56 -41q79 -102 227 -346q136 220 297 455q16 25 28 29q2 1 6 1q12 0 30 -14q33 -31 51 -63q5 -9 26.5 -40.5t28.5 -49.5 q7 -17 7 -37q0 -29 -15 -62q-118 -246 -266 -536q168 -287 225 -397q15 -29 16.5 -55.5t-3 -38t-17.5 -38.5q-15 -30 -27 -44t-28 -17q-26 -5 -46.5 2t-56.5 39q-71 63 -202 279q-172 -332 -230 -402q-3 -3 -8 -9.5t-6.5 -8.5t-5.5 -6t-6.5 -5t-6.5 -2q-3 -1 -6 -1 q-2 1 -3 1q-5 0 -11 2q-51 13 -76 52q-2 3 -23 37t-42 57q-25 28 -27 60z" />
<glyph unicode="Y" horiz-adv-x="964" d="M1 1169q3 12 22 31q8 8 24.5 34t34.5 34q13 6 29 6.5t39 -2t36 -2.5q4 0 16 0.5t17 0t15.5 -1.5t16.5 -4t15 -8t16.5 -13t14.5 -19q67 -107 225 -445q69 139 163.5 299.5t164.5 263.5q8 13 20 13q4 0 8 -2q18 -5 33 -27q9 -13 20.5 -32t18.5 -29q15 -23 15 -51 q0 -26 -13 -56q-132 -319 -309 -627q1 -30 1 -68q0 -94 -4 -235q-5 -197 -5 -215q0 -22 -10.5 -31t-36.5 -16q-36 -10 -86 -14h-5q-30 0 -91 22q-38 14 -53.5 35.5t-22.5 77.5t-7 232q0 71 1 161q-111 165 -192.5 337t-123.5 306q-8 25 -8 38q0 4 1 7z" />
<glyph unicode="Z" horiz-adv-x="892" d="M4 1182q-4 12 -4 21q0 22 25 26q61 8 315.5 55.5t327.5 48.5h18q80 0 111 -24q24 -20 33 -50.5t20 -101.5q37 -79 41 -117v-6q0 -28 -25 -57q-119 -137 -257 -327.5t-228 -354.5q185 23 303 23q42 0 76 -3q35 -3 45.5 -8.5t23.5 -30.5q8 -15 13.5 -44.5t17.5 -49.5 q25 -41 25 -81v-9q-1 -23 -7 -31.5t-20 -13.5q-87 -31 -218.5 -48t-264.5 -28t-189 -22q-9 -2 -17 -2q-29 0 -42 24q-30 50 -43 105q-28 46 -39 67q-9 18 -8.5 29.5t8.5 32.5q82 196 247 429.5t288 354.5q-59 -6 -194 -26.5t-196 -20.5q-63 0 -88 25q-30 30 -45 57 q-16 28 -30 80q-10 40 -23 78z" />
<glyph unicode="[" horiz-adv-x="557" d="M40 274q-3 207 4.5 387t18 395.5t11.5 284.5q0 42 41 48q52 9 158 13t173 -1q33 -3 41 -45q3 -13 9 -39.5t8 -40.5q3 -22 -4 -59q-3 -15 -10 -22t-27 -11q-101 -20 -182 -25q2 -60 8 -237.5t8 -268.5t4.5 -282t-4.5 -279q88 7 174 4q24 -2 33.5 -10.5t13.5 -34.5 q3 -22 11 -53t6 -47q-2 -23 -15 -57q-2 -7 -11.5 -14t-19.5 -7q-43 -2 -144 -17.5t-159 -13.5q-20 1 -28.5 10t-22.5 42q-39 3 -52.5 13.5t-19.5 43.5q-20 116 -23 323z" />
<glyph unicode="\" horiz-adv-x="946" d="M21.5 1220.5q0.5 34.5 9.5 54.5t23.5 43.5t17.5 31.5q11 28 27.5 30.5t33.5 -22.5q18 -25 141.5 -199t184 -263.5t162 -244t170.5 -280.5t114 -234q29 -68 17 -98q-4 -13 -14.5 -35.5t-14.5 -32.5q-7 -19 -18 -30.5t-32 -22t-24 -12.5q-33 -23 -55 14 q-87 148 -255.5 412.5t-288 466t-183.5 350.5q-16 37 -15.5 71.5z" />
<glyph unicode="]" horiz-adv-x="557" d="M20 -49q-2 13 0.5 25t8 32.5t8.5 42.5q4 26 13.5 34.5t33.5 10.5q86 3 174 -4q-7 88 -4.5 279t4.5 282t8 268.5t8 237.5q-81 5 -182 25q-20 4 -27 11t-10 22q-7 37 -4 59q2 14 8 40.5t9 39.5q8 42 41 45q67 5 173 1t158 -13q41 -6 41 -48q1 -69 11.5 -284.5t18 -395.5 t4.5 -387t-23 -323q-6 -33 -19.5 -43.5t-52.5 -13.5q-14 -33 -22.5 -42t-28.5 -10q-58 -2 -159 13.5t-144 17.5q-10 0 -19.5 7t-11.5 14q-13 34 -15 57z" />
<glyph unicode="^" horiz-adv-x="821" d="M39 911q-20 32 12 101q35 78 160.5 296.5t126.5 219.5q18 37 51 8l19 -16q18 -16 26 -27q31 8 55 8q21 0 32.5 -9.5t19.5 -31.5q40 -102 131 -313.5t110 -265.5q8 -23 7.5 -29.5t-13.5 -13.5q-19 -11 -44 -13.5t-54 -1t-37 1.5q-17 -1 -29 -0.5t-25 10t-28 31.5 q-35 52 -80.5 161t-68.5 196q-26 -48 -107.5 -212t-118.5 -225q-14 -25 -20 -28t-29 8q-48 25 -63 76q-7 26 -33 69z" />
<glyph unicode="_" horiz-adv-x="985" d="M-113 -313q0 39 15 80q5 13 21 37.5t20 33.5q13 37 43 37h1083q26 0 37 -27q9 -20 -12 -61q-6 -10 -13 -36t-14 -38q-1 -2 -4.5 -8.5t-4.5 -8t-4.5 -7t-5.5 -7t-6 -5.5t-7 -5.5t-8.5 -4t-11 -3t-13 -1.5t-15.5 -1h-1073q-27 0 -27 25z" />
<glyph unicode="`" horiz-adv-x="641" d="M20.5 1592q-1.5 11 2.5 19.5t14 24.5q6 9 17 26.5t19.5 29t18.5 20.5q39 35 113 14q41 -12 96 -37t90 -44t110.5 -61.5t100.5 -55.5q39 -22 -10 -62q-19 -15 -64 -65q-25 -29 -94 -8q-65 20 -194 77.5t-205 102.5q-13 8 -14.5 19z" />
<glyph unicode="a" horiz-adv-x="1009" d="M12 422q-1 6 -1 11q0 10 3 16q4 8 21 12q24 7 49 10q73 347 192 662q17 43 44 61t71 29q46 11 64 20q-25 48 -23 57q2 16 17 21q29 8 64 8q17 0 36 -2q78 -8 88 -8q90 0 127 -88q25 -58 48.5 -168.5t36 -189.5t36.5 -248q56 -369 85 -489q20 -87 42 -144q6 -13 6 -23 q0 -5 -2 -8q-4 -11 -29 -14q-4 -2 -19 -2q-14 -1 -34 1q-46 2 -60 3q-30 0 -50 3t-44 13t-43.5 32.5t-36.5 57.5q-29 58 -65 207q-195 -13 -328 -16q-32 -112 -55 -226q-3 -19 -7.5 -25.5t-15.5 -8.5q-27 -4 -61 10q-17 6 -36.5 30.5t-37.5 39.5q-49 39 -49 118v15 q4 60 8 90q-1 2 -2 6t-2 6q-6 18 -15.5 41.5t-14.5 41t-7 38.5zM377 504q67 4 209 8q-67 404 -78 459q-30 -120 -131 -467z" />
<glyph unicode="b" horiz-adv-x="978" d="M-4 1204q74 49 195 82t235 33q66 0 129.5 -16.5t121 -49.5t97.5 -89.5t51 -129.5q67 -108 67 -206q0 -12 -1 -23q-12 -134 -154 -219q45 -28 80.5 -66.5t52.5 -79.5q82 -89 82 -191v-7q-2 -65 -41 -120t-96.5 -90t-128 -60t-132.5 -36t-112 -12h-27q-57 0 -89 7 q-38 9 -58 34q-7 10 -26 27.5t-29 32.5q-20 1 -44 8t-30 8q-25 5 -34 13t-13 32q-35 208 -35 442q1 3 1 7q0 238 28 462q-12 17 -31.5 39t-27.5 35q-8 12 -15 24.5t-10.5 21t-10 22.5t-9.5 22q-6 11 -6 19q0 12 20 24zM350 451q-1 -32 -1 -65q0 -99 7 -204q125 4 224 71.5 t102 137.5q-46 42 -136 57q-50 8 -105 8q-44 0 -91 -5zM367 715q137 26 233 110.5t98 157.5q-40 43 -136 45q-5 0 -10 1q-90 0 -163 -28q-3 -36 -7.5 -95.5t-8 -105.5t-6.5 -85z" />
<glyph unicode="c" horiz-adv-x="944" d="M20 565q-1 24 -1 47q0 133 38 266q45 157 131 275t191 162q36 15 67 15q12 0 23 -2q39 -8 90 -52q20 -4 75.5 -14t83 -17t63.5 -28.5t57 -53.5q63 -101 63 -241q1 -30 -3.5 -51t-17.5 -37.5t-20.5 -23t-28.5 -22.5q-12 -8 -86 -67q-22 -19 -39.5 -10t-23.5 41 q-51 267 -154 311q-88 -73 -142 -201t-64 -256q-2 -31 -2 -62q0 -94 22 -179q30 -113 96 -160q26 -5 51 -6q77 -1 149 47q98 62 163 172q14 22 27.5 22t31.5 -24q25 -31 43 -127q2 -11 8.5 -32.5t10.5 -36.5q2 -10 2 -25v-14q-2 -24 -13 -48q-64 -134 -196 -178 q-43 -14 -91 -14q-58 1 -120 21q-116 36 -215 132q-256 140 -269 471z" />
<glyph unicode="d" horiz-adv-x="970" d="M-40 1278q3 10 22 12q116 22 220 22q101 0 191 -21q181 -42 305 -149q126 -106 190 -262q63 -151 63 -328q0 -6 -1 -11q-1 -124 -53 -232t-136.5 -181t-190 -118.5t-216.5 -54.5h-8q-49 0 -82 55q-29 0 -50.5 6t-41 16t-31.5 13q-33 9 -42 18.5t-15 45.5q-14 82 -17 198 q-1 32 -1 66q0 91 6 197q8 147 14 227.5t18 214.5q-25 16 -42.5 44t-31 63t-18.5 44q-7 11 -17 27l-15 24t-10 18t-7 19q-4 11 -4 19q0 5 1 8zM381 983q1 -87 5 -331q4 -200 3 -321v-50q103 34 175 102q74 69 104 151q31 84 31 172q0 86 -31 164q-51 58 -120 82t-167 31z " />
<glyph unicode="e" horiz-adv-x="829" d="M11 1228q5 14 32 15q40 2 164 16q125 13 205 19q38 3 83 4q49 0 107 -4q62 -6 93 -23.5t44 -54.5q8 -22 29 -58t23 -40q20 -38 20 -76v-10q-1 -15 -9.5 -19t-33.5 -2q-13 1 -28 1q-71 0 -200 -12q-157 -14 -216 -15q2 -39 5 -121t5 -119q115 18 211 18q56 0 106 -6 q20 -3 27 -8t14 -24t12 -49.5t7 -36.5q3 -9 12.5 -23t11.5 -27q5 -32 2 -45q-5 -17 -10 -24t-16 -8q-13 -2 -73 -11t-97 -13.5t-96.5 -9.5t-108.5 -5q-4 -108 -8 -156q172 20 284 20q50 0 88 -4q28 -3 37.5 -8.5t18.5 -25.5q8 -19 18 -88q2 -12 13 -28.5t10 -31.5 q-1 -6 -1.5 -13t-0.5 -11.5t-0.5 -9t-1.5 -7.5q-1 -6 -2.5 -9t-7.5 -5.5t-17 -3.5q-84 -8 -171.5 -24.5t-184.5 -38.5t-131 -29q-32 -7 -55 -7q-10 -1 -19 1q-27 4 -45 28q-17 21 -33 49q-12 2 -37 2q-27 0 -37.5 10.5t-13.5 34.5q-10 88 -12 192q-1 26 -1 52q0 78 5 154 q6 102 13 194.5t15.5 192t10.5 160.5q-13 24 -27.5 72.5t-24.5 70.5q-8 18 -8 30q0 4 1 8z" />
<glyph unicode="f" horiz-adv-x="856" d="M-14 1246q3 15 28 20q137 31 335 42q93 6 176 6q95 0 177 -7q24 -2 40 -9.5t26 -24.5t13 -26.5t10 -34.5q5 -21 11 -38t14 -36t13 -32q10 -27 10 -54q0 -10 -1 -20q-2 -12 -10 -17t-29 -5q-115 0 -269 -19.5t-188 -21.5q0 -26 1 -109t1 -137q169 12 256 12q37 0 59 -2 q26 -2 41.5 -12.5t20 -22.5t8.5 -32q4 -19 13.5 -47t11.5 -33q5 -17 5 -40q0 -26 -7 -61q-3 -13 -9.5 -17.5t-21.5 -4.5q-38 -2 -166 -13.5t-207 -13.5q1 -111 1 -199q0 -177 -5 -266q-1 -21 -16 -26q-7 -3 -19.5 -3t-29.5 3q-26 3 -64 19t-53 20q-5 1 -25.5 6t-27 7.5 t-23 9.5t-22.5 16t-15.5 23t-13 34.5t-4.5 46.5q-1 34 -1 76q0 152 17 410q22 328 25 405q-9 10 -47 63q-12 17 -18 36t-9.5 48t-5.5 37q-7 22 -7 36q0 4 1 8z" />
<glyph unicode="g" horiz-adv-x="1054" d="M20 627q0 165 71 330.5t187 272.5q114 105 232 105h2q23 0 46.5 -9t37.5 -18.5t44.5 -33t47.5 -35.5q70 -12 122 -42.5t81 -72.5t44 -85t19 -89q1 -12 1 -23q0 -35 -9 -57q-13 -30 -45 -47q-15 -8 -46.5 -30t-53.5 -31q-3 -1 -8.5 -3.5t-8 -3.5t-7 -2.5t-7 -2t-6 -0.5 t-5.5 1.5t-5 4t-5 6.5t-4 9.5t-4 12.5q-22 89 -65 163.5t-101 94.5q-99 -51 -169 -202t-70 -312q0 -225 125 -325q70 0 134.5 51.5t84.5 126.5q-86 -4 -125 -4q-53 0 -72 47q-22 52 -39 86q-3 6 -5.5 12t-4.5 10.5t-3 10.5t-1.5 8t-1 9t-0.5 8.5v9.5v10q0 18 1.5 25.5 t10 15.5t27.5 12q92 18 227 28q104 8 193 8q27 0 53 -1q30 -2 45.5 -11.5t24.5 -35.5q6 -18 10.5 -56t9.5 -51q10 -29 10 -40t-8 -33q-7 -19 -16.5 -24.5t-34.5 -8.5q-4 -1 -12.5 -2t-12.5 -2v-10q0 -115 -43 -218q-45 -107 -120 -171t-158 -64q-57 0 -127 33.5t-123 91.5 q-168 59 -266.5 200.5t-98.5 352.5z" />
<glyph unicode="h" horiz-adv-x="931" d="M-16 590q-7 14 -7 24q0 17 21 21q7 1 29.5 6.5t35.5 7.5q28 481 29 553q0 18 5.5 25.5t23.5 13.5q11 4 23 4q23 0 53 -12q12 -5 42.5 -13t45.5 -14q28 -12 44 -41t19 -92q1 -18 1 -47q0 -105 -9 -350q70 4 205 4q3 86 11 254t12 274q2 67 2 119q0 29 -1 53q0 15 4.5 20 t16.5 7q9 1 18 1q31 0 60 -13q55 -25 73 -27q51 -7 74 -25q44 -38 55 -141q17 -167 19 -558q0 -56 1 -109q0 -318 -11 -535q-1 -20 -7 -28t-18 -11q-9 -3 -22.5 -3t-30.5 3q-14 2 -41.5 11.5t-36.5 11.5q-16 5 -43.5 7.5t-40.5 4.5q-34 6 -54 28t-30 66q-18 80 -18 277v59 q-40 -4 -118 -7.5t-87 -4.5q-6 -215 -7 -308q0 -23 1 -38q0 -35 -29 -39q-10 -1 -20 -1q-37 0 -74 9q-17 4 -46 16t-42 15q-22 5 -31.5 12.5t-13.5 28.5q-17 68 -17 223q0 49 2 108q-22 22 -35 54q-4 9 -14.5 40t-21.5 56z" />
<glyph unicode="i" horiz-adv-x="419" d="M35 299v34q1 95 5 211q6 136 11.5 228.5t18 252t16.5 216.5q1 16 10 22t29 9q6 1 27 6t39 8q14 2 25 2h7q19 -2 35.5 -10t32.5 -20t26 -17q18 -9 24 -19t7 -34q3 -81 12 -257q10 -176 16 -307q6 -114 5 -262v-46q-1 -177 -14 -320q-1 -25 -11 -31q-7 -5 -26 -5 q-7 0 -15 1q-81 6 -112 6q-40 0 -64 10.5t-55 36.5q-29 25 -38 84.5t-11 200.5z" />
<glyph unicode="j" horiz-adv-x="829" d="M10 264q1 21 1.5 48t2 47t6.5 44q10 45 31 45q14 0 33 -20q79 -86 170 -138q64 -36 118 -36q22 0 42 6q42 57 58 251q12 131 12 273q0 70 -3 142q-8 220 -32 391q-3 24 9 31q9 6 34 6h14q22 -1 39.5 -5.5t40.5 -13.5t30 -12q4 -1 23 -6.5t28.5 -10t24.5 -13.5t25 -23.5 t16 -34.5q30 -102 49 -285q17 -166 17 -313v-31q-2 -184 -29.5 -297.5t-75.5 -171t-131 -94.5q-44 -51 -85.5 -73t-102.5 -23h-3q-71 0 -166 51q-96 52 -157 119q-27 30 -35 63q-5 24 -5 56q0 13 1 28z" />
<glyph unicode="k" horiz-adv-x="954" d="M36 348q-1 45 -1 89q1 124 7 236q8 151 19 334.5t13 262.5q0 19 6.5 24.5t23.5 8.5q5 1 11 1q30 0 86 -20l32.5 -12.5t33 -12t28.5 -8.5q52 -13 57 -92q6 -91 10 -383q113 116 243.5 275.5t195.5 265.5q10 15 22 15t27 -15q24 -24 49 -82q6 -15 20.5 -38t20.5 -44 q2 -8 3 -15.5t-0.5 -16.5t-2 -13.5t-4.5 -16t-5.5 -15t-7.5 -18t-8 -18.5q-36 -79 -156.5 -243t-242.5 -287q80 -85 202.5 -193t215.5 -178q15 -11 15 -20q0 -8 -13 -21q-35 -35 -78 -57q-24 -13 -47 -28.5t-29 -18.5q-18 -9 -36 -9q-25 0 -52 17q-62 36 -162 116t-170 148 q0 -170 -4 -276q0 -18 -5 -22.5t-21 -6.5h-11q-47 0 -104 21q-23 9 -38.5 13.5t-32.5 8t-29 6.5q-2 1 -10.5 3t-10 2.5t-7.5 3t-7.5 4t-5.5 5t-5.5 7t-4 8.5t-4 11.5t-3.5 15.5q-20 104 -23 278z" />
<glyph unicode="l" horiz-adv-x="837" d="M36 391q2 56 8.5 165t8.5 165q5 114 15.5 298.5t11.5 244.5q0 7 1.5 11.5t3 7t6 4t7 2t10 1.5t11.5 2q7 1 26.5 6.5t37.5 9.5q14 3 26 3h6q20 -1 36.5 -5t24.5 -8.5t21.5 -13t19.5 -12.5q1 -1 7 -4t7.5 -4t6 -4.5t6 -6t4 -7t3.5 -10.5t1 -13q22 -456 22 -738 q0 -132 -5 -225q89 20 195 28q66 5 110 5q28 0 47 -2t30 -7t15 -10t12 -18q7 -11 14.5 -36t12.5 -36q3 -8 11.5 -26t12 -27t5.5 -27q2 -13 2 -27v-11q-2 -12 -7 -17t-18 -6q-93 -7 -187 -26t-200.5 -47.5t-149.5 -37.5q-18 -3 -28 -3q-6 0 -8 1q-8 3 -21 19q-34 39 -45 63 q-15 2 -35 7.5t-31 7.5q-25 3 -37 13t-16 36q-11 83 -15 171q-2 56 -3 99q0 25 1 45z" />
<glyph unicode="m" horiz-adv-x="1214" d="M40 802q6 220 34 419q4 30 42 30h9q29 -2 76.5 -2.5t58.5 -1.5q34 -3 55.5 -14t51.5 -43q23 -3 52.5 -5.5t41.5 -4.5q22 -3 31 -14t12 -36q32 -219 98 -454q99 431 156 579q18 49 94 52q75 3 117 12q21 7 41 7h8q24 -2 51 -23q18 -14 42 -31t34 -25q20 -14 25 -26 q4 -10 4 -33v-10q-8 -170 -8 -374q0 -29 -1 -57q0 -168 3 -288q2 -85 1 -163v-101q-2 -123 -12 -170q-1 -2 -2 -8.5t-1.5 -8.5t-2 -6.5t-2.5 -6.5t-3 -5.5t-4 -5.5t-5 -4.5t-7 -4.5q-5 -3 -14.5 -9.5t-14.5 -9.5t-13 -5.5t-17 -3.5h-6q-9 -1 -15 1q-10 2 -22.5 8t-23.5 9 q-5 1 -18 4t-19 5t-14.5 7t-13.5 13.5t-7 21.5q-14 76 -20 278q-4 114 -3 222q0 83 2 162q-117 -400 -149 -580q-1 -7 -3.5 -11.5t-8 -8t-7.5 -5t-10.5 -4.5t-9.5 -3q-21 -7 -43.5 -7t-46.5 7q-4 1 -12.5 3.5t-11.5 3.5t-10 3.5t-9.5 4t-7.5 4t-7.5 5l-6.5 6.5t-7 8t-6 9.5 t-6 11.5q-44 95 -106.5 273t-92.5 304q0 -20 -1 -43q0 -80 6 -192q7 -145 9 -231q0 -16 1 -33q0 -77 -9 -189q-3 -25 -8.5 -29.5t-30.5 -4.5t-92 20q-9 3 -43 11t-57 16q-54 20 -62 94q-16 145 -23 303q-4 82 -4 181q1 91 4 197z" />
<glyph unicode="n" horiz-adv-x="985" d="M38 334q-1 64 0 119q0 88 2 154q4 107 16.5 322t15.5 281q1 24 13 32.5t48 14.5q59 11 96 11q17 0 51 -11.5t48 -13.5q21 -4 31 -7t20.5 -12.5t17.5 -27.5q22 -53 76 -205.5t111.5 -295.5t117.5 -253q-2 55 -2 125q0 154 8 380q11 330 11 358q0 14 0.5 19.5t6 10.5 t17.5 8q18 4 33 5q25 0 43 -13q33 -23 58 -37q26 -14 39 -38.5t14 -71.5q0 -25 9 -301q8 -248 8 -432v-39q-1 -196 -17 -326q-2 -19 -9.5 -31.5t-14 -18t-34.5 -24.5q-32 -22 -67 -22q-15 0 -31 4q-46 12 -104 12h-12h-11t-9 0.5t-9.5 1.5t-7.5 2.5t-8 4t-7.5 6.5t-8 9 t-7.5 11q-47 76 -87 160.5t-80 179.5t-61 139q3 -90 17 -288t14 -265q0 -14 -1.5 -19.5t-8.5 -11t-23 -8.5q-12 -2 -25 -2q-40 0 -89 19q-17 7 -37 11t-45 7.5t-41 7.5q-33 8 -47.5 21.5t-18.5 44.5q-17 127 -19 293z" />
<glyph unicode="o" horiz-adv-x="1093" d="M16 639q3 211 105.5 390.5t228.5 242.5q36 19 72 19q38 0 76 -21q2 -1 12.5 -8t15.5 -9h17q104 -1 191 -35q94 -38 156.5 -101.5t105.5 -148.5t62 -174.5t19 -181.5q0 -112 -23.5 -208t-61 -162.5t-88.5 -119t-101 -83t-103 -47.5q-43 -14 -85 -14q-40 0 -77 13 q-77 26 -159 91q-110 28 -193.5 109t-127.5 198q-42 112 -42 238v12zM330 644q-5 -40 -5 -79q0 -69 15 -135q23 -104 80 -170q28 -6 55 -7q63 0 122 35q85 49 137 152t52 230q0 125 -63 225t-160 131q-99 -62 -159.5 -167t-73.5 -215z" />
<glyph unicode="p" horiz-adv-x="944" d="M-35 1204q-1 9 -1 15q0 9 2 14q4 9 20 12q43 9 137.5 36t174.5 42q68 13 133 13q13 0 26 -1q69 -2 115.5 -11t91.5 -32.5t78.5 -66.5t60.5 -111q69 -76 103 -154q25 -58 25 -126q0 -23 -3 -46q-8 -74 -55.5 -158t-137.5 -163t-200 -115q-37 -11 -63 -11q-9 0 -16 1 q-29 5 -57 31q-4 4 -12.5 8t-11.5 6q-3 -101 -3 -184q0 -129 7 -213q2 -13 -2.5 -18.5t-18.5 -8.5t-30 -3q-30 0 -64 11q-62 18 -98 27q-64 14 -74 104q-16 143 -16 377q-1 6 -1 12q0 229 19 488q-17 14 -33 43q-23 45 -65 92q-14 16 -20 34.5t-11 55.5zM385 610 q84 37 165.5 109t129.5 153q37 62 37 108q0 15 -4 28q-38 22 -123 22h-14q-97 -2 -175 -31q0 -73 -16 -389z" />
<glyph unicode="q" horiz-adv-x="1126" d="M16 633q1 211 104.5 393t248.5 264q18 10 36 14.5t27.5 4.5t35.5 -2.5t36 -3.5q62 -5 117 -54q158 -23 271 -113t166 -220q50 -124 50 -270v-17q-6 -289 -160 -484q71 -84 78 -94l4 -5q3 -4 3.5 -5t3 -5t2.5 -5.5t1.5 -5t1.5 -6t-0.5 -6t-1.5 -7.5q-18 -61 -26 -72 q-14 -20 -72 -43q-4 -1 -12 -4.5t-10.5 -4.5t-9 -3t-9 -2t-7.5 -1h-4q-4 0 -6 1q-5 1 -11 3t-13 5q-51 22 -117 88q-48 -24 -93 -24q-46 0 -89 26q-12 7 -47 26.5t-61 37.5q-109 27 -195 88t-138 142t-78 174q-26 90 -26 183v7zM344 527v-13q0 -104 37 -196q39 -99 115 -156 q37 8 75 28q-20 36 -28 50q-17 41 -16 58t12 48q6 17 12 49.5t12 48.5q10 25 22.5 30.5t37.5 -9.5q55 -41 114 -96q71 130 74 276v10q0 136 -53 252q-54 120 -154 172q-77 -44 -137.5 -134t-90 -198.5t-32.5 -219.5z" />
<glyph unicode="r" horiz-adv-x="956" d="M-2 1212q-2 8 -2 14q0 10 4 14q6 8 25 11q39 8 129.5 33.5t164.5 39.5q61 12 116 11h24q56 -2 96 -8.5t80.5 -21.5t70.5 -41t57 -67t50 -99q55 -66 79 -128q19 -49 19 -111q0 -18 -2 -36q-8 -106 -89.5 -224t-215.5 -189q191 -165 352 -271q10 -7 10 -17q0 -7 -5 -16 q-4 -6 -9 -11t-9.5 -8t-11.5 -6.5t-10.5 -4.5t-12 -4t-11.5 -4q-11 -4 -33.5 -21t-38.5 -27q-26 -15 -57 -15q-39 0 -86 24q-128 61 -316 217q0 -123 9 -260q3 -21 -21 -27q-8 -2 -19 -2q-25 0 -63 12q-62 20 -90 25q-36 7 -55 33t-31 71q-22 88 -28 252q-3 76 -4 154 q0 90 4 184q8 176 24 359q-4 8 -16 28q-7 14 -38 59t-40 78zM371 627q127 45 234 165q98 109 98 203q0 9 -1 17q-40 35 -134 36h-8q-90 0 -163 -24q-18 -210 -26 -397z" />
<glyph unicode="s" horiz-adv-x="817" d="M20 379q5 20 9 52t8 42q14 32 45 -2q75 -83 197 -147q83 -43 138 -43q26 0 46 10q-1 9 -4 18.5t-9 20.5t-12.5 20t-17.5 22t-19 22t-22.5 23.5l-23 23t-25.5 24.5t-25 24q-37 35 -72 76t-73 95t-61 115t-23 116q0 138 94 244q29 65 60.5 105t59.5 54q30 14 60 19 q13 2 24 2q17 0 34 -4q105 -14 195.5 -78t136.5 -140q42 -70 42 -125v-10q-2 -27 -7.5 -45t-16 -37t-15.5 -32q-25 -70 -41 -88q-23 -30 -49 10q-146 205 -271 205h-11q-30 -44 -30 -92q0 -9 1 -17q6 -58 47 -110q28 -35 88 -83.5t116 -89t111.5 -95.5t79.5 -105 q16 -34 20 -71q1 -11 1 -22q0 -28 -7 -58q-10 -42 -46 -86.5t-97 -84.5q-45 -63 -92.5 -86.5t-116.5 -23.5q-92 0 -213.5 76.5t-201.5 195.5q-22 32 -22 81q0 35 11 79z" />
<glyph unicode="t" horiz-adv-x="1034" d="M10 1192q-4 14 -4 23t4 13q7 8 39 11q96 8 248.5 31t283.5 37q102 11 195 11q27 0 53 -1q38 -1 56.5 -12t36.5 -39q13 -23 32 -62t25 -49q5 -9 16.5 -23.5t18.5 -26.5t10 -26q4 -16 4 -45q0 -13 -4 -19.5t-20 -10.5q-76 -19 -332 -37q8 -215 10 -469q1 -67 1 -129 q0 -175 -5 -314q-3 -39 -19 -53q-19 -15 -57 -22q-17 -1 -24 -1q-4 1 -5 1q-4 0 -30 8q-51 15 -86 20q-63 9 -78 62q-32 110 -34 260v32q0 140 15 326q17 208 19 260q-93 -3 -152 -6q-34 -2 -51.5 2.5t-30.5 20.5q-7 9 -57 59q-2 2 -9 8.5t-8.5 8.5t-7 7.5t-7 8t-5.5 7.5 t-6 9t-5 9t-5 10q-4 10 -8.5 27.5t-9 39.5t-7.5 33z" />
<glyph unicode="u" horiz-adv-x="907" d="M31 606q0 120 13.5 303t31.5 303q3 23 19 27.5t44 -4.5q17 -5 97 -41q48 -23 69 -31q43 -17 43 -71v-7q-2 -48 -17 -185.5t-25 -249.5q-5 -56 -4.5 -114t4.5 -119q10 -121 48 -177q82 22 132 158q49 133 49 335v8q-1 69 -9 277q-6 167 -6 233v27q2 21 8 30.5t23 12.5 q24 4 45 4q48 0 84 -20q14 -7 28.5 -11.5t35.5 -9t28 -6.5q72 -20 80 -129q22 -302 24 -374q1 -36 1 -70q0 -317 -92 -496q-62 -121 -169 -195q-50 -36 -96 -48q-18 -5 -39 -5q-31 0 -66 11q-59 18 -124 75q-101 43 -160 129q-100 143 -100 430z" />
<glyph unicode="v" horiz-adv-x="966" d="M-4 1224q2 4 20 13q44 20 79 20q11 0 20 -2q84 -17 94 -18q33 -4 57.5 -22.5t44.5 -67.5q84 -208 224 -737q52 196 162 535.5t120 371.5q7 23 25 23q12 0 30 -11q17 -11 35.5 -33t28.5 -30q23 -20 31 -46q4 -13 4 -31.5t-4 -43.5q-49 -261 -152.5 -660t-165.5 -501 q-12 -20 -23 -26.5t-32 -6.5q-43 0 -82 14q-14 5 -28.5 8.5t-24.5 5t-29 4.5t-31 5q-30 5 -43.5 9.5t-30 21t-32.5 49.5q-61 123 -115 344.5t-101.5 454t-78.5 327.5q-3 17 -3 25q0 4 1 5z" />
<glyph unicode="w" horiz-adv-x="1316" d="M-4 1190q-2 7 -2 13q0 15 10 26q17 20 72 28h7q24 0 83 -14q19 -5 44.5 -9t31.5 -5q19 -5 32 -18t29 -50q36 -87 79.5 -261t76.5 -361q90 366 149 587q7 30 46 30q6 0 12 -1q37 -4 90 -25q32 -13 73 -20q45 -9 60 -72q35 -136 88 -460q93 425 182 714q6 18 13 24 q6 5 19 5h5q28 -2 61 -39q28 -26 52 -57q15 -22 15 -54q0 -18 -5 -38q-110 -535 -219 -1043q-12 -57 -53 -57h-5q-37 4 -106 24q-50 14 -102 21q-65 8 -80 39q-14 28 -23 84q-5 27 -30.5 178t-41.5 231q-20 -86 -65 -302t-62 -288q-4 -12 -5.5 -15.5t-7.5 -8t-17 -6.5 q-18 -4 -39 -4q-31 0 -72 8q-29 5 -53 5q-12 0 -23 -1q-15 -1 -23 0.5t-18 12.5t-20 34q-51 122 -91.5 315t-83.5 434.5t-83 395.5z" />
<glyph unicode="x" horiz-adv-x="884" d="M6 54q0 5 -1 9q0 29 13 66q53 171 242 498q-149 287 -192 407q-18 49 -18 88q0 44 24 74q8 10 14.5 23.5t11 21t11.5 10.5q5 2 9 2q24 0 56 -41q79 -102 227 -346q136 220 297 455q16 25 28 29q2 1 6 1q12 0 30 -14q33 -31 51 -63q5 -9 26.5 -40.5t28.5 -49.5 q7 -17 7 -37q0 -29 -15 -62q-118 -246 -266 -536q168 -287 225 -397q15 -29 16.5 -55.5t-3 -38t-17.5 -38.5q-15 -30 -27 -44t-28 -17q-26 -5 -46.5 2t-56.5 39q-71 63 -202 279q-172 -332 -230 -402q-3 -3 -8 -9.5t-6.5 -8.5t-5.5 -6t-6.5 -5t-6.5 -2q-3 -1 -6 -1 q-2 1 -3 1q-5 0 -11 2q-51 13 -76 52q-2 3 -23 37t-42 57q-25 28 -27 60z" />
<glyph unicode="y" horiz-adv-x="964" d="M1 1169q3 12 22 31q8 8 24.5 34t34.5 34q13 6 29 6.5t39 -2t36 -2.5q4 0 16 0.5t17 0t15.5 -1.5t16.5 -4t15 -8t16.5 -13t14.5 -19q67 -107 225 -445q69 139 163.5 299.5t164.5 263.5q8 13 20 13q4 0 8 -2q18 -5 33 -27q9 -13 20.5 -32t18.5 -29q15 -23 15 -51 q0 -26 -13 -56q-132 -319 -309 -627q1 -30 1 -68q0 -94 -4 -235q-5 -197 -5 -215q0 -22 -10.5 -31t-36.5 -16q-36 -10 -86 -14h-5q-30 0 -91 22q-38 14 -53.5 35.5t-22.5 77.5t-7 232q0 71 1 161q-111 165 -192.5 337t-123.5 306q-8 25 -8 38q0 4 1 7z" />
<glyph unicode="z" horiz-adv-x="892" d="M4 1182q-4 12 -4 21q0 22 25 26q61 8 315.5 55.5t327.5 48.5h18q80 0 111 -24q24 -20 33 -50.5t20 -101.5q37 -79 41 -117v-6q0 -28 -25 -57q-119 -137 -257 -327.5t-228 -354.5q185 23 303 23q42 0 76 -3q35 -3 45.5 -8.5t23.5 -30.5q8 -15 13.5 -44.5t17.5 -49.5 q25 -41 25 -81v-9q-1 -23 -7 -31.5t-20 -13.5q-87 -31 -218.5 -48t-264.5 -28t-189 -22q-9 -2 -17 -2q-29 0 -42 24q-30 50 -43 105q-28 46 -39 67q-9 18 -8.5 29.5t8.5 32.5q82 196 247 429.5t288 354.5q-59 -6 -194 -26.5t-196 -20.5q-63 0 -88 25q-30 30 -45 57 q-16 28 -30 80q-10 40 -23 78z" />
<glyph unicode="{" horiz-adv-x="550" d="M20 688q-8 44 27 53q3 1 14 4t14 3.5t12 3t12 4t10 4.5t10.5 5t8.5 5.5t8.5 7.5t6.5 8q9 26 17 90t15.5 124.5t37.5 137t80 132.5q14 16 27.5 25.5t27 13.5t21 5t21.5 0t16 -1q7 0 28 1.5t38 1t32 -4.5q21 -6 24 -16t-10 -33q-39 -65 -58 -142.5t-23 -145t-7.5 -131.5 t-19.5 -121t-50 -95q36 -37 53 -96.5t20.5 -125t6 -132t18 -134.5t48.5 -116q13 -23 11 -30.5t-19 -21.5q-23 -17 -47 -21.5t-53 -3t-38 0.5q-59 -6 -98 41q-36 42 -56.5 100t-27 114t-9.5 109.5t-10 100.5t-22 73q-20 4 -35 9q-27 8 -40 24.5t-17 59.5q-2 29 -13 66.5 t-12 43.5z" />
<glyph unicode="|" horiz-adv-x="356" d="M40.5 257.5q-0.5 201.5 7.5 408.5t14.5 427t3.5 308q0 22 20 29q23 6 57 -11q9 -4 34.5 -12.5t46 -18t34.5 -22.5q33 -33 41 -141q13 -165 14.5 -625t-8.5 -711q-2 -34 -18 -39q-19 -5 -41 0q-10 2 -32 11t-30 12q-9 4 -18 5.5t-22 3t-25 3.5q-50 15 -64 95 q-14 76 -14.5 277.5z" />
<glyph unicode="}" horiz-adv-x="540" d="M20 1291.5q3 9.5 23 15.5q15 4 32.5 4.5t38.5 -1t27 -1.5t25 1t27.5 0t23.5 -4.5t27.5 -14t25.5 -27.5q42 -54 65.5 -129.5t29 -137t15.5 -124t28 -91.5q26 -24 79 -32q34 -5 31 -50q-1 -29 -11.5 -72t-12.5 -61q-4 -33 -14 -45.5t-36 -21.5q-35 -13 -38 -15 q-19 -36 -28 -106t-12 -135t-24 -139t-61 -121q-23 -28 -47 -38t-60 -1q-21 5 -69.5 9.5t-63.5 12.5q-17 9 -19 21t11 32q41 58 56 150t13.5 171t15 162t60.5 130q-35 38 -50.5 94t-18.5 119.5t-6 129.5t-20.5 142t-53.5 139q-12 25 -9 34.5z" />
<glyph unicode="~" horiz-adv-x="708" d="M21 1435.5q0 17.5 3.5 39t2.5 41.5q-3 57 41 92q33 28 81.5 46t114 22t133.5 -21q90 -31 149 -33.5t109 20.5q33 12 33 -20q0 -36 -10.5 -74.5t-11.5 -54.5q-3 -40 -37 -59q-36 -22 -87.5 -24t-88 6t-91.5 24q-66 17 -140 1t-146 -59q-16 -13 -27.5 -12t-19.5 25 q-8 23 -8 40.5z" />
<glyph unicode="&#xa1;" horiz-adv-x="468" d="M20 1231q-1 36 3.5 58.5t21 46t56 33.5t102.5 7q110 -6 152.5 -45t50.5 -119q9 -87 -37 -122t-156 -25q-189 18 -193 166zM66 944q0 26 9 33.5t31 5.5q9 -1 22.5 -5t23 -8.5t26 -12.5t23.5 -11q17 -8 52.5 -17t59.5 -22q44 -24 64.5 -65t21.5 -129q2 -102 -8 -356 t-10 -369q0 -23 -11.5 -29.5t-41.5 -1.5q-23 3 -66.5 22t-56.5 23q-49 14 -79 58t-36 139q-30 501 -24 745z" />
<glyph unicode="&#xa2;" horiz-adv-x="745" d="M51 614q0 109 29.5 218.5t83.5 189.5t117 100q3 124 14 176q7 36 53 54q2 1 10 4.5t11 4.5t10.5 2.5t12.5 1t13 -3t15 -7.5q6 -3 20.5 -10.5t22 -12t15.5 -15t11 -24.5q14 -73 11 -219q81 -12 128.5 -70.5t55.5 -154.5q3 -44 -8.5 -68t-42.5 -45q-7 -4 -19 -10.5t-22 -13 t-23 -17.5q-19 -17 -35.5 -17t-17.5 19q-8 71 -35.5 130t-64.5 79q-53 -53 -80 -167t-17.5 -223.5t52.5 -154.5q63 -8 140.5 38t121.5 96q13 17 28 14.5t23 -31.5q5 -16 6 -32t1 -40t1 -36q3 -44 -7 -75t-42 -63q-68 -68 -133 -88q-2 -39 -8 -75q-8 -65 -47 -82 q-32 -13 -62 -39q-29 -23 -53 -23t-30 9q-3 4 -5 12q-18 63 -24 260q-114 41 -172 151.5t-58 257.5z" />
<glyph unicode="&#xa3;" horiz-adv-x="739" d="M12 549q-12 29 25 37q68 13 151 22q-8 10 -29.5 35t-34 39.5t-28 37t-24.5 42.5q-62 134 104 268q78 141 211 141q68 0 146 -39t131 -92q58 -58 32 -122q-9 -23 -16.5 -59t-15.5 -54t-14 -26t-15.5 -8.5t-22.5 11.5q-74 68 -174 119t-168 29q0 -22 8 -43.5t31 -50 t32.5 -39t43.5 -45.5q71 -74 84 -134q59 0 133 -4q28 -2 37 -10t6 -33q-2 -20 -11 -41.5t-11 -29.5q-2 -7 -4 -20t-4 -20.5t-7 -16t-15 -13t-26 -6.5q-34 -4 -112 -8q-22 -62 -70 -117q133 11 299 2q25 -1 30.5 -9.5t2.5 -33.5q-3 -23 -16.5 -59.5t-18.5 -63.5 q-5 -26 -16 -37t-39 -12q-65 -5 -192.5 -20t-198.5 -19q-36 -1 -53.5 21t-35.5 86q-24 37 -30 64t-0.5 41.5t20.5 27.5q69 62 94 125q-46 0 -104 4q-37 3 -54 20.5t-28 48.5q-5 16 -17 34.5t-16 29.5z" />
<glyph unicode="&#xa4;" horiz-adv-x="897" d="M20 616q2 15 6 27t12.5 29t12.5 28q6 15 9 20.5t9.5 14t16 12.5t23.5 5q75 6 86 6q38 248 186 385q34 32 79.5 34.5t88 -16.5t84.5 -55q57 5 100 -6.5t69 -37t41 -51.5t27 -61q18 -54 -32 -104q-15 -15 -37.5 -40.5t-30.5 -33.5q-41 -41 -59 8q-17 46 -55 91t-81 59 q-61 -47 -98 -170q78 -2 182 -15q34 -5 21 -34q-5 -11 -17.5 -27t-17.5 -29q-11 -29 -29 -45.5t-55 -19.5q-62 -4 -112 -4v-49q31 -1 135 -11q21 -1 27 -8.5t1 -21.5q-7 -19 -21 -41t-22 -39q-7 -17 -13 -25.5t-19 -15.5t-35 -8q-17 0 -25 -2q13 -31 31 -56 q63 -7 136.5 31.5t131.5 103.5q13 16 26 13.5t19 -27.5q15 -65 10 -119q-1 -9 -1 -32.5t-2 -37t-11 -34t-26 -39.5q-78 -82 -177 -84q-45 -2 -83.5 17t-90.5 69q-150 74 -207 199q-80 6 -180 0q-19 -1 -25 7t-1 21q4 12 9 40t13 46q9 22 22 30t42 11q50 4 77 6q0 4 -1 13.5 t-1 13.5q0 5 -1 15.5t-1 15.5q-87 3 -135 0q-20 -1 -25.5 5.5t-5.5 22.5z" />
<glyph unicode="&#xa5;" d="M92 623q0 34 4 54.5t18 42t47 31t85 7.5q50 -2 81 -11.5t48 -28.5t23.5 -41t9.5 -59q7 -79 -31 -113t-129 -28q-156 10 -156 146z" />
<glyph unicode="&#xa7;" d="M92 623q0 34 4 54.5t18 42t47 31t85 7.5q50 -2 81 -11.5t48 -28.5t23.5 -41t9.5 -59q7 -79 -31 -113t-129 -28q-156 10 -156 146z" />
<glyph unicode="&#xa8;" horiz-adv-x="598" d="M21.5 1472.5q-6.5 56.5 11.5 110.5q10 32 71 12q6 -1 23.5 -2.5t25.5 -3t22 -5.5t21.5 -9.5t14.5 -16t10 -24.5q7 -39 2 -80.5t-18 -62.5q-11 -18 -24 -20.5t-31 3.5q-8 2 -28 3t-37 5t-32 15q-25 19 -31.5 75.5zM351.5 1495q-3.5 56 10.5 94q6 16 24.5 18.5t51.5 -5.5 q5 -1 34.5 1.5t54.5 -6t36 -36.5q19 -47 12 -107t-30 -68t-94 0q-23 -5 -40.5 -1.5t-33.5 22.5q-22 32 -25.5 88z" />
<glyph unicode="&#xa9;" horiz-adv-x="1273" d="M61 907q0 92 25.5 179t66.5 154.5t94.5 124t108.5 94t109 57.5q62 24 113 -3q5 -3 28 -16q10 -6 40.5 -21.5t47.5 -31.5q244 -43 382 -209t136 -379q-1 -193 -118.5 -348t-294.5 -207q-102 -30 -178 4q-7 3 -48.5 18t-62.5 31q-206 57 -327.5 206t-121.5 347zM240 852 q1 -83 24 -157.5t61.5 -129t83 -93.5t93.5 -62q146 -9 270 50t197 171.5t73 253.5q0 216 -124.5 353t-317.5 163q-168 -60 -265 -207.5t-95 -341.5zM379 848q-8 118 28 232t109 184q54 51 164 -23q87 -6 127 -52.5t55 -131.5q14 -71 -28 -96q-9 -5 -30.5 -20.5t-37.5 -22.5 q-14 -8 -25 -4t-16 28q-11 55 -34 102.5t-52 51.5q-38 -32 -58.5 -119t-12.5 -177.5t44 -129.5q37 1 87.5 34.5t88.5 71.5q14 12 20.5 10.5t16.5 -16.5q20 -35 27 -88q5 -43 -33 -88q-31 -39 -74 -62.5t-79 -25.5q-59 -3 -117 55q-157 76 -170 287z" />
<glyph unicode="&#xaa;" d="M92 623q0 34 4 54.5t18 42t47 31t85 7.5q50 -2 81 -11.5t48 -28.5t23.5 -41t9.5 -59q7 -79 -31 -113t-129 -28q-156 10 -156 146z" />
<glyph unicode="&#xab;" d="M92 623q0 34 4 54.5t18 42t47 31t85 7.5q50 -2 81 -11.5t48 -28.5t23.5 -41t9.5 -59q7 -79 -31 -113t-129 -28q-156 10 -156 146z" />
<glyph unicode="&#xac;" d="M92 623q0 34 4 54.5t18 42t47 31t85 7.5q50 -2 81 -11.5t48 -28.5t23.5 -41t9.5 -59q7 -79 -31 -113t-129 -28q-156 10 -156 146z" />
<glyph unicode="&#xad;" horiz-adv-x="626" d="M20 688q1 18 3.5 26t11.5 15t28 10q90 13 222.5 14t236.5 -10q28 -3 42.5 -14.5t21.5 -38.5q5 -18 6.5 -58.5t5.5 -53.5q8 -37 7.5 -46t-9.5 -32q-7 -19 -16.5 -23t-34.5 -6q-278 -23 -416 -12q-50 5 -66 55q-28 86 -30 92q-16 42 -13 82z" />
<glyph unicode="&#xae;" horiz-adv-x="1271" d="M61 907q0 92 25.5 179t66.5 154.5t94.5 124t108.5 94t109 57.5q10 4 20 6.5t17.5 4.5t16.5 1t13.5 -0.5t14 -2.5t12 -3.5t12 -5.5t10.5 -5.5t12 -6.5l11 -7q11 -7 41.5 -22t48.5 -31q164 -29 283.5 -118t177 -210.5t55.5 -259.5q-3 -194 -119 -349t-292 -206 q-70 -17 -105.5 -15t-75.5 19q-11 5 -34 13t-40.5 16t-33.5 20q-206 57 -327.5 206t-121.5 347zM240 852q1 -83 23.5 -157.5t60.5 -129t82.5 -93.5t93.5 -62q146 -9 270.5 50t198 171.5t73.5 253.5q0 216 -124.5 353t-317.5 163q-168 -60 -265 -207.5t-95 -341.5zM363 1179 q4 9 24 17q128 64 285 64q62 0 104.5 -31.5t61.5 -91.5q47 -65 50 -122.5t-26 -105.5q-41 -81 -143 -133q52 -57 149 -135q15 -11 17 -16.5t-6 -16.5q-8 -9 -18 -15t-28.5 -14.5t-29.5 -13.5q-21 -13 -42.5 -12t-49.5 18q-30 17 -78.5 60.5t-77.5 85.5q0 -95 14 -178 q3 -19 -3 -24t-23 -5q-10 0 -33 5.5t-29 6.5q-27 5 -41.5 17.5t-21.5 44.5q-17 80 -22 222.5t10 283.5q-9 10 -20.5 32t-14.5 27q-12 21 -8 30zM561 883q91 36 144.5 96.5t44.5 110.5q-25 10 -74.5 2.5t-100.5 -29.5q-1 -17 -6.5 -79.5t-7.5 -100.5z" />
<glyph unicode="&#xaf;" d="M92 623q0 34 4 54.5t18 42t47 31t85 7.5q50 -2 81 -11.5t48 -28.5t23.5 -41t9.5 -59q7 -79 -31 -113t-129 -28q-156 10 -156 146z" />
<glyph unicode="&#xb0;" horiz-adv-x="526" d="M20 1149q0 78 43.5 159.5t106.5 114.5q75 40 166 -61q202 -84 162 -289q-19 -94 -92.5 -149t-143.5 -52q-60 3 -125 95q-117 55 -117 182zM197 1022q49 -11 93.5 25t51.5 98q11 95 -49 151q-62 -26 -94.5 -121t-1.5 -153z" />
<glyph unicode="&#xb1;" d="M92 623q0 34 4 54.5t18 42t47 31t85 7.5q50 -2 81 -11.5t48 -28.5t23.5 -41t9.5 -59q7 -79 -31 -113t-129 -28q-156 10 -156 146z" />
<glyph unicode="&#xb4;" horiz-adv-x="641" d="M37 1528q25 13 100.5 55.5t110.5 61.5t90 44t96 37q74 21 113 -14q10 -9 18.5 -20.5t19.5 -29t17 -26.5q10 -16 14 -24.5t2.5 -19.5t-14.5 -19q-76 -45 -205 -102.5t-194 -77.5q-69 -21 -94 8q-45 50 -64 65q-49 40 -10 62z" />
<glyph unicode="&#xb5;" d="M92 623q0 34 4 54.5t18 42t47 31t85 7.5q50 -2 81 -11.5t48 -28.5t23.5 -41t9.5 -59q7 -79 -31 -113t-129 -28q-156 10 -156 146z" />
<glyph unicode="&#xb6;" horiz-adv-x="995" d="M20 834q0 80 25.5 141.5t93.5 111.5q63 134 140 188t190 54q81 0 275 -26t264 -29q43 -3 18 -49q-10 -19 -37 -57.5t-41 -65.5q-25 -53 -86 -68q12 -588 3 -810q-4 -90 -11 -158q-2 -24 -9.5 -31t-33.5 -4q-27 4 -43.5 7.5t-45.5 14t-45.5 31t-19.5 49.5q-8 129 -7.5 249 t3.5 337.5t2 322.5q-14 3 -40.5 10.5t-41.5 10.5q1 -111 7 -356t7.5 -372t-5.5 -321q-1 -20 -10 -27t-27 -5q-13 1 -23.5 4t-27.5 9t-33 11q-22 6 -32 10t-24.5 14.5t-23 30t-12.5 48.5q-12 78 0 342q-157 29 -253 143.5t-96 239.5z" />
<glyph unicode="&#xb7;" d="M92 623q0 34 4 54.5t18 42t47 31t85 7.5q50 -2 81 -11.5t48 -28.5t23.5 -41t9.5 -59q7 -79 -31 -113t-129 -28q-156 10 -156 146z" />
<glyph unicode="&#xb8;" d="M92 623q0 34 4 54.5t18 42t47 31t85 7.5q50 -2 81 -11.5t48 -28.5t23.5 -41t9.5 -59q7 -79 -31 -113t-129 -28q-156 10 -156 146z" />
<glyph unicode="&#xba;" d="M92 623q0 34 4 54.5t18 42t47 31t85 7.5q50 -2 81 -11.5t48 -28.5t23.5 -41t9.5 -59q7 -79 -31 -113t-129 -28q-156 10 -156 146z" />
<glyph unicode="&#xbb;" d="M92 623q0 34 4 54.5t18 42t47 31t85 7.5q50 -2 81 -11.5t48 -28.5t23.5 -41t9.5 -59q7 -79 -31 -113t-129 -28q-156 10 -156 146z" />
<glyph unicode="&#xbf;" horiz-adv-x="944" d="M22.5 356q6.5 45 30.5 88q25 43 73 87t107 89t86 72q49 49 67.5 94.5t16.5 100.5v10.5v9.5t0.5 6.5t2 6t4 4.5t6.5 5l10 5q45 22 96 2q74 -29 99 -37q56 -19 65 -70q23 -116 -26.5 -203t-165.5 -182q-91 -74 -139.5 -133.5t-41.5 -107.5q81 -12 222.5 75.5t230.5 182.5 q34 37 65 -10q13 -18 30 -54.5t24 -48.5q43 -73 -21 -158q-68 -88 -185 -164.5t-198 -76.5q-118 0 -243 125q-89 37 -142 86t-66.5 100t-7 96zM348 1178q-2 20 0 39t6 36t16.5 31t31.5 23.5t50.5 13.5t73.5 2q62 -4 101.5 -15.5t61.5 -33.5t31.5 -47t14.5 -66 q11 -88 -34.5 -123.5t-155.5 -25.5q-190 18 -197 166z" />
<glyph unicode="&#xc0;" horiz-adv-x="1009" d="M12 422q-2 19 2 27t21 12q24 7 49 10q73 347 192 662q17 43 44 61t71 29q46 11 64 20q-25 48 -23 57q2 16 17 21q43 12 100 6q78 -8 88 -8q90 0 127 -88q25 -58 48.5 -168.5t36 -189.5t36.5 -248q56 -369 85 -489q20 -87 42 -144q9 -20 4.5 -31t-29.5 -14 q-7 -3 -52.5 -0.5t-60.5 2.5q-30 0 -50 3t-44 13t-43.5 32.5t-36.5 57.5q-29 58 -65 207q-195 -13 -328 -16q-32 -112 -55 -226q-3 -19 -7.5 -25.5t-15.5 -8.5q-27 -4 -61 10q-17 6 -36.5 30.5t-37.5 39.5q-54 43 -49 133q4 60 8 90q-1 2 -2 6t-2 6q-6 18 -15.5 41.5 t-14.5 41t-7 38.5zM204.5 1592q-1.5 11 2.5 19.5t14 24.5q6 9 17 26.5t19.5 29t18.5 20.5q39 35 113 14q41 -12 96 -37t90 -44t110.5 -61.5t100.5 -55.5q39 -22 -10 -62q-16 -12 -63 -65q-26 -29 -95 -8q-65 20 -194 77.5t-205 102.5q-13 8 -14.5 19zM377 504q67 4 209 8 q-67 404 -78 459q-30 -120 -131 -467z" />
<glyph unicode="&#xc1;" horiz-adv-x="1009" d="M12 422q-2 19 2 27t21 12q24 7 49 10q73 347 192 662q17 43 44 61t71 29q46 11 64 20q-25 48 -23 57q2 16 17 21q43 12 100 6q78 -8 88 -8q90 0 127 -88q25 -58 48.5 -168.5t36 -189.5t36.5 -248q56 -369 85 -489q20 -87 42 -144q9 -20 4.5 -31t-29.5 -14 q-7 -3 -52.5 -0.5t-60.5 2.5q-30 0 -50 3t-44 13t-43.5 32.5t-36.5 57.5q-29 58 -65 207q-195 -13 -328 -16q-32 -112 -55 -226q-3 -19 -7.5 -25.5t-15.5 -8.5q-27 -4 -61 10q-17 6 -36.5 30.5t-37.5 39.5q-54 43 -49 133q4 60 8 90q-1 2 -2 6t-2 6q-6 18 -15.5 41.5 t-14.5 41t-7 38.5zM250 1528q25 13 100.5 55.5t110.5 61.5t90 44t96 37q74 21 113 -14q10 -9 18.5 -20.5t19.5 -29t17 -26.5q10 -16 14 -24.5t2.5 -19.5t-14.5 -19q-76 -45 -205 -102.5t-194 -77.5q-69 -21 -94 8q-45 50 -64 65q-49 40 -10 62zM377 504q67 4 209 8 q-67 404 -78 459q-30 -120 -131 -467z" />
<glyph unicode="&#xc2;" horiz-adv-x="1009" d="M12 422q-2 19 2 27t21 12q24 7 49 10q73 347 192 662q17 43 44 61t71 29q46 11 64 20q-25 48 -23 57q2 16 17 21q43 12 100 6q78 -8 88 -8q90 0 127 -88q25 -58 48.5 -168.5t36 -189.5t36.5 -248q56 -369 85 -489q20 -87 42 -144q9 -20 4.5 -31t-29.5 -14 q-7 -3 -52.5 -0.5t-60.5 2.5q-30 0 -50 3t-44 13t-43.5 32.5t-36.5 57.5q-29 58 -65 207q-195 -13 -328 -16q-32 -112 -55 -226q-3 -19 -7.5 -25.5t-15.5 -8.5q-27 -4 -61 10q-17 6 -36.5 30.5t-37.5 39.5q-54 43 -49 133q4 60 8 90q-1 2 -2 6t-2 6q-6 18 -15.5 41.5 t-14.5 41t-7 38.5zM157.5 1455q-1.5 15 12.5 24q24 18 84.5 73t130.5 113.5t127 93.5q31 19 72 -12q35 -25 141.5 -124.5t146.5 -131.5q37 -28 -2 -64q-15 -14 -41 -29.5t-38 -25.5q-13 -11 -25.5 -10.5t-36.5 14.5q-117 73 -192 142q-34 -26 -102 -80t-83 -66 q-19 -14 -36.5 -14.5t-47.5 12.5q-21 10 -49 32t-41 28q-19 10 -20.5 25zM377 504q67 4 209 8q-67 404 -78 459q-30 -120 -131 -467z" />
<glyph unicode="&#xc3;" horiz-adv-x="1009" d="M12 422q-2 19 2 27t21 12q24 7 49 10q73 347 192 662q17 43 44 61t71 29q46 11 64 20q-25 48 -23 57q2 16 17 21q43 12 100 6q78 -8 88 -8q90 0 127 -88q25 -58 48.5 -168.5t36 -189.5t36.5 -248q56 -369 85 -489q20 -87 42 -144q9 -20 4.5 -31t-29.5 -14 q-7 -3 -52.5 -0.5t-60.5 2.5q-30 0 -50 3t-44 13t-43.5 32.5t-36.5 57.5q-29 58 -65 207q-195 -13 -328 -16q-32 -112 -55 -226q-3 -19 -7.5 -25.5t-15.5 -8.5q-27 -4 -61 10q-17 6 -36.5 30.5t-37.5 39.5q-54 43 -49 133q4 60 8 90q-1 2 -2 6t-2 6q-6 18 -15.5 41.5 t-14.5 41t-7 38.5zM195 1422.5q0 17.5 3.5 39t2.5 41.5q-3 57 41 92q33 28 81.5 46t114 22t133.5 -21q89 -31 149 -33t109 21q33 12 33 -20q0 -36 -10.5 -74.5t-11.5 -54.5q-3 -41 -37 -60q-36 -22 -87 -24t-87.5 6t-91.5 24q-65 17 -140.5 1.5t-146.5 -58.5 q-16 -13 -27.5 -12.5t-19.5 24.5q-8 23 -8 40.5zM377 504q67 4 209 8q-67 404 -78 459q-30 -120 -131 -467z" />
<glyph unicode="&#xc4;" horiz-adv-x="1009" d="M12 422q-2 19 2 27t21 12q24 7 49 10q73 347 192 662q17 43 44 61t71 29q46 11 64 20q-25 48 -23 57q2 16 17 21q43 12 100 6q78 -8 88 -8q90 0 127 -88q25 -58 48.5 -168.5t36 -189.5t36.5 -248q56 -369 85 -489q20 -87 42 -144q9 -20 4.5 -31t-29.5 -14 q-7 -3 -52.5 -0.5t-60.5 2.5q-30 0 -50 3t-44 13t-43.5 32.5t-36.5 57.5q-29 58 -65 207q-195 -13 -328 -16q-32 -112 -55 -226q-3 -19 -7.5 -25.5t-15.5 -8.5q-27 -4 -61 10q-17 6 -36.5 30.5t-37.5 39.5q-54 43 -49 133q4 60 8 90q-1 2 -2 6t-2 6q-6 18 -15.5 41.5 t-14.5 41t-7 38.5zM255 1472.5q-7 56.5 11 110.5q10 32 72 12q6 -1 23.5 -2.5t25.5 -3t22 -5.5t21.5 -9.5t14.5 -16t10 -24.5q7 -39 1.5 -80.5t-18.5 -62.5q-11 -18 -24 -20.5t-31 3.5q-8 2 -27.5 3t-36.5 5t-32 15q-25 19 -32 75.5zM377 504q67 4 209 8q-67 404 -78 459 q-30 -120 -131 -467zM584.5 1495q-3.5 56 11.5 94q6 16 24.5 18.5t51.5 -5.5q5 -1 34.5 1.5t54.5 -6t36 -36.5q18 -47 11.5 -107t-30.5 -68q-23 -8 -94 0q-23 -5 -40.5 -1.5t-33.5 22.5q-22 32 -25.5 88z" />
<glyph unicode="&#xc5;" horiz-adv-x="1009" d="M12 422q-2 19 2 27t21 12q24 7 49 10q73 347 192 662q17 43 44 61t71 29q46 11 64 20q-25 48 -23 57q2 16 17 21q43 12 100 6q78 -8 88 -8q90 0 127 -88q25 -58 48.5 -168.5t36 -189.5t36.5 -248q56 -369 85 -489q20 -87 42 -144q9 -20 4.5 -31t-29.5 -14 q-7 -3 -52.5 -0.5t-60.5 2.5q-30 0 -50 3t-44 13t-43.5 32.5t-36.5 57.5q-29 58 -65 207q-195 -13 -328 -16q-32 -112 -55 -226q-3 -19 -7.5 -25.5t-15.5 -8.5q-27 -4 -61 10q-17 6 -36.5 30.5t-37.5 39.5q-54 43 -49 133q4 60 8 90q-1 2 -2 6t-2 6q-6 18 -15.5 41.5 t-14.5 41t-7 38.5zM352 1593q0 59 32.5 120t80.5 85q58 28 125 -45q153 -63 121 -217q-14 -71 -67.5 -112.5t-106.5 -39.5q-48 3 -97 72q-88 40 -88 137zM377 504q67 4 209 8q-67 404 -78 459q-30 -120 -131 -467zM485 1497q36 -8 69.5 19t39.5 73q8 70 -37 115 q-47 -20 -71.5 -92t-0.5 -115z" />
<glyph unicode="&#xc6;" horiz-adv-x="1345" d="M12 561q-2 19 2 27t23 14q20 7 72 19q84 335 217 604q17 33 32 43t48 10q18 0 61 -4.5t80 -5.5q9 17 24 27t26 12.5t32 5.5q10 1 82 9t104 11t92 7.5t106.5 4t86.5 -5.5q66 -7 94.5 -23.5t42.5 -53.5q4 -10 17 -50.5t22 -58.5q27 -51 24 -92q-1 -17 -9 -21t-34 -2 q-68 3 -208 -11t-205 -13q20 -120 41 -318q187 19 305 4q20 -3 27 -8t14 -24t11.5 -49t6.5 -37q2 -8 12.5 -23t12.5 -29q6 -28 2 -43q-9 -30 -27 -32q-163 -24 -331 -35q12 -86 18 -127q213 17 295 8q28 -3 38 -9t19 -26q5 -12 8.5 -26.5t6 -33.5t4.5 -28q3 -11 12.5 -27.5 t9.5 -31.5q0 -26 -6 -41q-1 -1 -2 -4.5t-1.5 -4.5t-2 -3.5t-4 -3t-7 -2t-10.5 -1.5q-84 -8 -150 -20t-147.5 -31.5t-111.5 -25.5q-50 -10 -73 -4.5t-38 30.5q-7 10 -20 39t-17 37q-29 5 -45 17.5t-26 45.5q-33 118 -56 263q-181 -15 -272 -17q-50 -175 -94 -373 q-5 -20 -9 -26.5t-14 -7.5q-28 -4 -59 12q-13 6 -22 13.5t-23.5 21.5t-28.5 26q-65 55 -57 140q9 103 30 221q-8 12 -12 22q-6 17 -15.5 40t-15 40.5t-8.5 38.5zM420 664l153 12q-22 177 -43 315q-38 -101 -110 -327z" />
<glyph unicode="&#xc7;" horiz-adv-x="942" d="M20 635q4 156 59.5 300t147.5 245t201 139q53 18 91.5 6.5t86.5 -57.5q20 -6 60 -15.5t64 -16.5t55 -20t52.5 -32.5t36.5 -46.5q59 -112 48 -248q-1 -30 -7 -51t-19 -35.5t-22 -21t-30 -19.5q-23 -14 -52 -34.5t-40 -27.5q-22 -17 -38.5 -7t-21.5 42q-34 274 -131 322 q-93 -65 -155.5 -183t-81 -238t3.5 -229.5t84 -160.5q103 -28 214 32.5t177 167.5q24 44 57 -6q6 -8 11 -19t8 -19t6 -23.5t4 -21.5t3.5 -24.5t2.5 -21.5q1 -10 6.5 -32.5t7.5 -37t-2 -38t-16 -47.5q-26 -54 -89.5 -107.5t-129.5 -71.5q-59 -15 -133 -2v-45q58 1 94.5 -25 t42.5 -65q6 -32 -3.5 -59.5t-19.5 -39.5t-32 -32q-2 -2 -11.5 -10.5t-12.5 -11t-11.5 -9t-12.5 -9t-11.5 -7t-13 -6t-13 -3t-15.5 -1.5q-26 -1 -60.5 15t-62.5 42q-9 8 -11.5 18t-0.5 15.5t6 15.5q3 6 7.5 20.5t7.5 20.5q10 17 30 0q32 -27 71.5 -35t72.5 9q0 31 -21.5 45.5 t-46.5 9.5q-27 -5 -43 6q-9 7 -27 16t-24 13q-24 14 -21 43q4 46 4 121q-79 45 -145 120q-244 153 -236 488z" />
<glyph unicode="&#xc8;" horiz-adv-x="829" d="M11 1228.5q5 13.5 32 14.5q40 2 164 16t204.5 19.5t190.5 -0.5q62 -6 93 -23.5t44 -54.5q8 -22 29 -58t23 -40q23 -43 20 -86q-1 -15 -9.5 -19t-33.5 -2q-71 3 -228 -11t-216 -15q2 -39 5 -121t5 -119q183 29 317 12q20 -3 27 -8t14 -24t12 -49.5t7 -36.5q3 -9 12.5 -23 t11.5 -27q5 -32 2 -45q-5 -17 -10 -24t-16 -8q-13 -2 -73 -11t-97 -13.5t-96.5 -9.5t-108.5 -5q-4 -108 -8 -156q249 29 372 16q28 -3 37.5 -8.5t18.5 -25.5q8 -19 18 -88q2 -12 13 -28.5t10 -31.5q-1 -6 -1.5 -13t-0.5 -11.5t-0.5 -9t-1.5 -7.5q-1 -6 -2.5 -9t-7.5 -5.5 t-17 -3.5q-84 -8 -171.5 -24.5t-184.5 -38.5t-131 -29q-47 -10 -74 -5.5t-45 27.5q-17 21 -33 49q-12 2 -37 2q-27 0 -37.5 10.5t-13.5 34.5q-10 88 -12 192t4 206.5t13 194.5t15.5 191.5t10.5 160.5q-13 24 -27.5 72.5t-24.5 70.5q-12 25 -7 38.5zM114.5 1567 q-1.5 11 2.5 20t14 25q6 9 17 26.5t19.5 29t18.5 20.5q39 35 113 14q41 -12 95.5 -37t91.5 -45t109.5 -61t100.5 -56q39 -21 -10 -61q-13 -10 -23.5 -21t-23 -26t-16.5 -19q-26 -29 -95 -8q-65 20 -194 77.5t-205 102.5q-13 8 -14.5 19z" />
<glyph unicode="&#xc9;" horiz-adv-x="829" d="M11 1228.5q5 13.5 32 14.5q40 2 164 16t204.5 19.5t190.5 -0.5q62 -6 93 -23.5t44 -54.5q8 -22 29 -58t23 -40q23 -43 20 -86q-1 -15 -9.5 -19t-33.5 -2q-71 3 -228 -11t-216 -15q2 -39 5 -121t5 -119q183 29 317 12q20 -3 27 -8t14 -24t12 -49.5t7 -36.5q3 -9 12.5 -23 t11.5 -27q5 -32 2 -45q-5 -17 -10 -24t-16 -8q-13 -2 -73 -11t-97 -13.5t-96.5 -9.5t-108.5 -5q-4 -108 -8 -156q249 29 372 16q28 -3 37.5 -8.5t18.5 -25.5q8 -19 18 -88q2 -12 13 -28.5t10 -31.5q-1 -6 -1.5 -13t-0.5 -11.5t-0.5 -9t-1.5 -7.5q-1 -6 -2.5 -9t-7.5 -5.5 t-17 -3.5q-84 -8 -171.5 -24.5t-184.5 -38.5t-131 -29q-47 -10 -74 -5.5t-45 27.5q-17 21 -33 49q-12 2 -37 2q-27 0 -37.5 10.5t-13.5 34.5q-10 88 -12 192t4 206.5t13 194.5t15.5 191.5t10.5 160.5q-13 24 -27.5 72.5t-24.5 70.5q-12 25 -7 38.5zM90 1503q28 15 100.5 56 t109.5 61t91.5 45t95.5 37q74 21 113 -14q10 -9 18.5 -20.5t19.5 -29t17 -26.5q10 -16 14 -25t2.5 -20t-14.5 -19q-76 -45 -205 -102.5t-194 -77.5q-69 -21 -94 8q-4 5 -13 15.5t-15 17t-16 16t-20 17.5q-49 40 -10 61z" />
<glyph unicode="&#xca;" horiz-adv-x="829" d="M11 1228.5q5 13.5 32 14.5q40 2 164 16t204.5 19.5t190.5 -0.5q62 -6 93 -23.5t44 -54.5q8 -22 29 -58t23 -40q23 -43 20 -86q-1 -15 -9.5 -19t-33.5 -2q-71 3 -228 -11t-216 -15q2 -39 5 -121t5 -119q183 29 317 12q20 -3 27 -8t14 -24t12 -49.5t7 -36.5q3 -9 12.5 -23 t11.5 -27q5 -32 2 -45q-5 -17 -10 -24t-16 -8q-13 -2 -73 -11t-97 -13.5t-96.5 -9.5t-108.5 -5q-4 -108 -8 -156q249 29 372 16q28 -3 37.5 -8.5t18.5 -25.5q8 -19 18 -88q2 -12 13 -28.5t10 -31.5q-1 -6 -1.5 -13t-0.5 -11.5t-0.5 -9t-1.5 -7.5q-1 -6 -2.5 -9t-7.5 -5.5 t-17 -3.5q-84 -8 -171.5 -24.5t-184.5 -38.5t-131 -29q-47 -10 -74 -5.5t-45 27.5q-17 21 -33 49q-12 2 -37 2q-27 0 -37.5 10.5t-13.5 34.5q-10 88 -12 192t4 206.5t13 194.5t15.5 191.5t10.5 160.5q-13 24 -27.5 72.5t-24.5 70.5q-12 25 -7 38.5zM38.5 1455 q-1.5 15 12.5 24q24 18 84.5 73t130.5 113.5t127 93.5q31 19 72 -12q35 -25 142 -124.5t147 -131.5q37 -28 -2 -64q-15 -14 -41.5 -29.5t-38.5 -25.5q-13 -11 -25.5 -10.5t-36.5 14.5q-117 73 -192 142q-34 -26 -102 -80t-83 -66q-19 -14 -36 -14.5t-47 12.5 q-21 10 -49.5 32t-41.5 28q-19 10 -20.5 25z" />
<glyph unicode="&#xcb;" horiz-adv-x="829" d="M11 1228.5q5 13.5 32 14.5q40 2 164 16t204.5 19.5t190.5 -0.5q62 -6 93 -23.5t44 -54.5q8 -22 29 -58t23 -40q23 -43 20 -86q-1 -15 -9.5 -19t-33.5 -2q-71 3 -228 -11t-216 -15q2 -39 5 -121t5 -119q183 29 317 12q20 -3 27 -8t14 -24t12 -49.5t7 -36.5q3 -9 12.5 -23 t11.5 -27q5 -32 2 -45q-5 -17 -10 -24t-16 -8q-13 -2 -73 -11t-97 -13.5t-96.5 -9.5t-108.5 -5q-4 -108 -8 -156q249 29 372 16q28 -3 37.5 -8.5t18.5 -25.5q8 -19 18 -88q2 -12 13 -28.5t10 -31.5q-1 -6 -1.5 -13t-0.5 -11.5t-0.5 -9t-1.5 -7.5q-1 -6 -2.5 -9t-7.5 -5.5 t-17 -3.5q-84 -8 -171.5 -24.5t-184.5 -38.5t-131 -29q-47 -10 -74 -5.5t-45 27.5q-17 21 -33 49q-12 2 -37 2q-27 0 -37.5 10.5t-13.5 34.5q-10 88 -12 192t4 206.5t13 194.5t15.5 191.5t10.5 160.5q-13 24 -27.5 72.5t-24.5 70.5q-12 25 -7 38.5zM136 1460q-7 57 11 111 q10 32 72 12q6 -1 23.5 -2.5t25.5 -3t22 -5.5t21.5 -9.5t14.5 -16t10 -24.5q7 -39 1.5 -81t-18.5 -63q-11 -18 -24 -20t-31 4q-8 2 -27.5 2.5t-36.5 4.5t-32 15q-25 19 -32 76zM466.5 1483q-3.5 56 10.5 94q6 16 24.5 18t51.5 -6q5 -1 34.5 1.5t54.5 -6t36 -36.5 q18 -47 11.5 -106.5t-30.5 -67.5q-23 -8 -94 0q-23 -5 -40 -1.5t-33 22.5q-22 32 -25.5 88z" />
<glyph unicode="&#xcc;" horiz-adv-x="419" d="M-90.5 1567q-1.5 11 2.5 20t14 25q5 8 17 26.5t20.5 29.5t18.5 20q39 35 112 14q41 -12 96 -37t91 -44.5t110.5 -61.5t100.5 -56q21 -13 18 -26.5t-29 -34.5q-13 -10 -23.5 -21t-23 -26t-16.5 -19q-25 -29 -94 -8q-65 20 -194.5 77.5t-205.5 102.5q-13 8 -14.5 19z M35 299q-1 108 4.5 244.5t11.5 229t18.5 252t16.5 216.5q1 16 10 22t29 9q6 1 27 6t39 8t32 2q19 -2 35.5 -10t32.5 -20t26 -17q18 -9 24 -19t7 -34q3 -81 12 -257t15.5 -307t5.5 -308t-14 -320q-1 -25 -10.5 -31t-41.5 -4q-81 6 -112 6q-40 0 -64 10.5t-55 36.5 q-29 25 -38 84.5t-11 200.5z" />
<glyph unicode="&#xcd;" horiz-adv-x="419" d="M-45 1503q28 15 100.5 56t109.5 61t91.5 45t95.5 37q74 21 113 -14q10 -9 18.5 -20.5t19.5 -29t17 -26.5q10 -16 14 -25t2.5 -20t-14.5 -19q-76 -45 -205 -102.5t-194 -77.5q-69 -21 -94 8q-4 5 -13 15.5t-15 17t-16 16t-20 17.5q-49 40 -10 61zM35 299q-1 108 4.5 244.5 t11.5 229t18.5 252t16.5 216.5q1 16 10 22t29 9q6 1 27 6t39 8t32 2q19 -2 35.5 -10t32.5 -20t26 -17q18 -9 24 -19t7 -34q3 -81 12 -257t15.5 -307t5.5 -308t-14 -320q-1 -25 -10.5 -31t-41.5 -4q-81 6 -112 6q-40 0 -64 10.5t-55 36.5q-29 25 -38 84.5t-11 200.5z" />
<glyph unicode="&#xce;" horiz-adv-x="419" d="M-157.5 1455q-1.5 15 12.5 24q24 18 84.5 73t130.5 113.5t127 93.5q17 10 32.5 7.5t38.5 -19.5q35 -25 142 -124.5t147 -131.5q37 -28 -2 -64q-15 -14 -41.5 -29.5t-38.5 -25.5q-13 -11 -25 -10.5t-36 14.5q-120 75 -193 142q-33 -25 -100.5 -79t-83.5 -67 q-19 -14 -36.5 -14.5t-47.5 12.5q-21 10 -49 32t-41 28q-19 10 -20.5 25zM35 299q-1 108 4.5 244.5t11.5 229t18.5 252t16.5 216.5q1 16 10 22t29 9q6 1 27 6t39 8t32 2q19 -2 35.5 -10t32.5 -20t26 -17q18 -9 24 -19t7 -34q3 -81 12 -257t15.5 -307t5.5 -308t-14 -320 q-1 -25 -10.5 -31t-41.5 -4q-81 6 -112 6q-40 0 -64 10.5t-55 36.5q-29 25 -38 84.5t-11 200.5z" />
<glyph unicode="&#xcf;" horiz-adv-x="419" d="M-62.5 1460q-6.5 57 11.5 111q10 32 71 12q6 -1 23.5 -2.5t25.5 -3t22 -5.5t21.5 -9.5t14.5 -16t10 -24.5q7 -39 2 -81t-18 -63q-11 -18 -24 -20t-31 4q-8 2 -28 2.5t-37 4.5t-32 15q-25 19 -31.5 76zM35 299q-1 108 4.5 244.5t11.5 229t18.5 252t16.5 216.5q1 16 10 22 t29 9q6 1 27 6t39 8t32 2q19 -2 35.5 -10t32.5 -20t26 -17q18 -9 24 -19t7 -34q3 -81 12 -257t15.5 -307t5.5 -308t-14 -320q-1 -25 -10.5 -31t-41.5 -4q-81 6 -112 6q-40 0 -64 10.5t-55 36.5q-29 25 -38 84.5t-11 200.5zM267.5 1483q-3.5 56 11.5 94q6 16 24 18t51 -6 q5 -1 34.5 1.5t54.5 -6t36 -36.5q18 -47 12 -106.5t-30 -67.5q-23 -8 -94 0q-23 -5 -40.5 -1.5t-33.5 22.5q-22 32 -25.5 88z" />
<glyph unicode="&#xd1;" horiz-adv-x="985" d="M38.5 333.5q-2.5 166.5 1.5 273.5t16.5 322t15.5 281q1 24 13 32.5t48 14.5q59 11 96 11q17 0 51 -11.5t48 -13.5q21 -4 31 -7t20.5 -12.5t17.5 -27.5q22 -53 76 -205.5t111.5 -295.5t117.5 -253q-5 175 6 505t11 358q0 14 0.5 19.5t6 10.5t17.5 8q47 12 76 -8 q33 -23 58 -37q26 -14 39 -38.5t14 -71.5q0 -25 9 -301t8 -471.5t-17 -325.5q-2 -19 -9.5 -31.5t-14 -18t-34.5 -24.5q-46 -32 -98 -18q-46 12 -104 12h-12h-11t-9 0.5t-9.5 1.5t-7.5 2.5t-8 4t-7.5 6.5t-8 9t-7.5 11q-47 76 -87 160.5t-80 179.5t-61 139q3 -90 17 -288 t14 -265q0 -14 -1.5 -19.5t-8.5 -11t-23 -8.5q-49 -8 -114 17q-17 7 -37 11t-45 7.5t-41 7.5q-33 8 -47.5 21.5t-18.5 44.5q-16 126 -18.5 292.5zM158 1426.5q0 17.5 3.5 39t2.5 41.5q-3 57 41 92q33 28 81.5 46t114.5 22.5t134 -20.5q90 -31 149 -33.5t109 20.5 q32 12 32 -20q0 -36 -10.5 -74.5t-11.5 -54.5q-3 -41 -37 -60q-36 -22 -87.5 -23.5t-87 6t-91.5 24.5q-66 17 -140.5 1t-146.5 -59q-16 -13 -27.5 -12.5t-19.5 24.5q-8 23 -8 40.5z" />
<glyph unicode="&#xd2;" horiz-adv-x="1093" d="M16 639q3 211 105.5 390.5t228.5 242.5q73 39 148 -2q2 -1 12.5 -8t15.5 -9q114 3 208 -34.5t156.5 -101.5t105.5 -149t62 -174.5t19 -181.5q0 -112 -23.5 -208t-61 -162.5t-88.5 -119t-101 -83t-103 -47.5q-85 -27 -162 -1t-159 91q-110 28 -193.5 109t-127.5 198 t-42 250zM247.5 1567q-1.5 11 2.5 20t14 25q6 9 17 26.5t19.5 29t18.5 20.5q39 35 113 14q41 -12 95.5 -37t91.5 -45t109.5 -61t100.5 -56q39 -21 -10 -61q-13 -10 -23.5 -21t-23 -26t-16.5 -19q-25 -29 -94 -8q-65 20 -194.5 77.5t-205.5 102.5q-13 8 -14.5 19zM330 643.5 q-13 -109.5 10 -214t80 -169.5q92 -21 177 28t137 152t52 230q0 125 -63 225t-160 131q-99 -62 -159.5 -167.5t-73.5 -215z" />
<glyph unicode="&#xd3;" horiz-adv-x="1093" d="M16 639q3 211 105.5 390.5t228.5 242.5q73 39 148 -2q2 -1 12.5 -8t15.5 -9q114 3 208 -34.5t156.5 -101.5t105.5 -149t62 -174.5t19 -181.5q0 -112 -23.5 -208t-61 -162.5t-88.5 -119t-101 -83t-103 -47.5q-85 -27 -162 -1t-159 91q-110 28 -193.5 109t-127.5 198 t-42 250zM258 1476.5q-3 13.5 18 26.5q26 14 100.5 56t110.5 61.5t91 44.5t96 37q73 21 112 -14q10 -9 18.5 -20t20.5 -29.5t17 -26.5q10 -16 14 -25t2.5 -20t-14.5 -19q-76 -45 -205.5 -102.5t-194.5 -77.5q-69 -21 -94 8q-4 4 -16.5 19t-23 26t-23.5 21q-26 21 -29 34.5z M330 643.5q-13 -109.5 10 -214t80 -169.5q92 -21 177 28t137 152t52 230q0 125 -63 225t-160 131q-99 -62 -159.5 -167.5t-73.5 -215z" />
<glyph unicode="&#xd4;" horiz-adv-x="1093" d="M16 639q3 211 105.5 390.5t228.5 242.5q73 39 148 -2q2 -1 12.5 -8t15.5 -9q114 3 208 -34.5t156.5 -101.5t105.5 -149t62 -174.5t19 -181.5q0 -112 -23.5 -208t-61 -162.5t-88.5 -119t-101 -83t-103 -47.5q-85 -27 -162 -1t-159 91q-110 28 -193.5 109t-127.5 198 t-42 250zM180.5 1452.5q-1.5 15.5 12.5 24.5q24 18 84.5 73t130.5 113.5t127 93.5q17 10 32.5 7.5t38.5 -19.5q35 -25 142 -124.5t147 -131.5q37 -28 -2 -64q-15 -14 -41.5 -29.5t-38.5 -25.5q-13 -11 -25 -10.5t-36 14.5q-120 75 -193 142q-33 -25 -100.5 -79t-83.5 -67 q-19 -14 -36.5 -14.5t-47.5 12.5q-21 10 -49 31.5t-41 27.5q-19 10 -20.5 25.5zM330 643.5q-13 -109.5 10 -214t80 -169.5q92 -21 177 28t137 152t52 230q0 125 -63 225t-160 131q-99 -62 -159.5 -167.5t-73.5 -215z" />
<glyph unicode="&#xd5;" horiz-adv-x="1093" d="M16 639q3 211 105.5 390.5t228.5 242.5q73 39 148 -2q2 -1 12.5 -8t15.5 -9q114 3 208 -34.5t156.5 -101.5t105.5 -149t62 -174.5t19 -181.5q0 -112 -23.5 -208t-61 -162.5t-88.5 -119t-101 -83t-103 -47.5q-85 -27 -162 -1t-159 91q-110 28 -193.5 109t-127.5 198 t-42 250zM213 1422.5q0 17.5 3.5 39t2.5 41.5q-3 57 41 92q33 28 81.5 46t114.5 22t134 -21q89 -31 149 -33t109 21q33 12 33 -20q0 -36 -11 -74t-12 -55q-3 -41 -37 -60q-36 -22 -87 -24t-87.5 6t-91.5 24q-65 17 -140.5 1.5t-146.5 -58.5q-16 -13 -27.5 -12.5t-19.5 24.5 q-8 23 -8 40.5zM330 643.5q-13 -109.5 10 -214t80 -169.5q92 -21 177 28t137 152t52 230q0 125 -63 225t-160 131q-99 -62 -159.5 -167.5t-73.5 -215z" />
<glyph unicode="&#xd6;" horiz-adv-x="1093" d="M16 639q3 211 105.5 390.5t228.5 242.5q73 39 148 -2q2 -1 12.5 -8t15.5 -9q114 3 208 -34.5t156.5 -101.5t105.5 -149t62 -174.5t19 -181.5q0 -112 -23.5 -208t-61 -162.5t-88.5 -119t-101 -83t-103 -47.5q-85 -27 -162 -1t-159 91q-110 28 -193.5 109t-127.5 198 t-42 250zM269.5 1460q-6.5 57 11.5 111q10 32 71 12q6 -1 23.5 -2.5t25.5 -3t22 -5.5t21.5 -9.5t14.5 -16t10 -24.5q7 -39 2 -81t-18 -63q-11 -18 -24.5 -20.5t-31.5 4.5q-8 2 -27.5 2.5t-36.5 4.5t-32 15q-25 19 -31.5 76zM330 643.5q-13 -109.5 10 -214t80 -169.5 q92 -21 177 28t137 152t52 230q0 125 -63 225t-160 131q-99 -62 -159.5 -167.5t-73.5 -215zM599.5 1483q-3.5 56 10.5 94q6 16 24.5 18t51.5 -6q5 -1 34.5 1.5t54.5 -6t36 -36.5q18 -47 12 -106.5t-30 -67.5t-95 0q-23 -5 -40 -1.5t-33 22.5q-22 32 -25.5 88z" />
<glyph unicode="&#xd8;" horiz-adv-x="1093" d="M16 637q2 107 32.5 212.5t78.5 187t106 142.5t117 91q73 39 148 -2q2 -1 12.5 -8t15.5 -9q144 6 260 -57q44 68 78 123q14 24 33.5 25.5t34.5 -21.5q6 -9 22.5 -27t23.5 -30t7 -40.5t-14 -66.5q-22 -57 -37 -90q72 -91 107.5 -212t35.5 -245q0 -111 -23.5 -207.5 t-61 -163t-88 -119t-100.5 -83t-102 -47.5q-34 -11 -68.5 -13t-64.5 4t-61 19.5t-57.5 29.5t-55.5 38q-7 -12 -88 -160q-15 -27 -37 -29q-51 -4 -77 4q-25 8 -56 47q-10 12 -14 17.5t-10 15t-7 16t-1 16t4 19.5q30 93 71 181q-80 80 -123.5 195.5t-40.5 246.5zM319 461 q83 146 326 522q-47 29 -90 43q-147 -92 -206.5 -250.5t-29.5 -314.5zM498 252q131 12 221 134t86 290q0 40 -14 98q-39 -74 -87 -159.5t-110.5 -194.5t-95.5 -168z" />
<glyph unicode="&#xd9;" horiz-adv-x="907" d="M31 606q0 120 13.5 303t31.5 303q3 23 19 27.5t44 -4.5q17 -5 97 -41q48 -23 69 -31q46 -18 43 -78q-2 -48 -17 -185.5t-24.5 -249.5t0 -233t47.5 -177q83 22 132.5 158t48.5 343q-1 68 -9 276.5t-6 260.5q2 21 8 30.5t23 12.5q76 13 129 -16q14 -7 28.5 -11.5t35.5 -9 t28 -6.5q72 -20 80 -129q22 -302 24 -374q11 -368 -91 -566q-62 -121 -169 -195q-51 -36 -96.5 -48t-104.5 6t-124 75q-101 43 -160 129q-100 143 -100 430zM153.5 1592q-1.5 11 2.5 19.5t14 24.5q6 9 17 26.5t19.5 29t18.5 20.5q39 35 113 14q41 -12 96 -37t90 -44 t110.5 -61.5t100.5 -55.5q39 -22 -10 -62q-16 -12 -63 -65q-26 -29 -95 -8q-65 20 -194 77.5t-205 102.5q-13 8 -14.5 19z" />
<glyph unicode="&#xda;" horiz-adv-x="907" d="M31 606q0 120 13.5 303t31.5 303q3 23 19 27.5t44 -4.5q17 -5 97 -41q48 -23 69 -31q46 -18 43 -78q-2 -48 -17 -185.5t-24.5 -249.5t0 -233t47.5 -177q83 22 132.5 158t48.5 343q-1 68 -9 276.5t-6 260.5q2 21 8 30.5t23 12.5q76 13 129 -16q14 -7 28.5 -11.5t35.5 -9 t28 -6.5q72 -20 80 -129q22 -302 24 -374q11 -368 -91 -566q-62 -121 -169 -195q-51 -36 -96.5 -48t-104.5 6t-124 75q-101 43 -160 129q-100 143 -100 430zM176 1503q28 15 100.5 56t109.5 61t91.5 45t95.5 37q74 21 113 -14q10 -9 18.5 -20.5t19.5 -29t17 -26.5 q10 -16 14 -25t2.5 -20t-14.5 -19q-76 -45 -205 -102.5t-194 -77.5q-69 -21 -94 8q-4 5 -13 15.5t-15 17t-16 16t-20 17.5q-49 40 -10 61z" />
<glyph unicode="&#xdb;" horiz-adv-x="907" d="M31 606q0 120 13.5 303t31.5 303q3 23 19 27.5t44 -4.5q17 -5 97 -41q48 -23 69 -31q46 -18 43 -78q-2 -48 -17 -185.5t-24.5 -249.5t0 -233t47.5 -177q83 22 132.5 158t48.5 343q-1 68 -9 276.5t-6 260.5q2 21 8 30.5t23 12.5q76 13 129 -16q14 -7 28.5 -11.5t35.5 -9 t28 -6.5q72 -20 80 -129q22 -302 24 -374q11 -368 -91 -566q-62 -121 -169 -195q-51 -36 -96.5 -48t-104.5 6t-124 75q-101 43 -160 129q-100 143 -100 430zM85.5 1452.5q-1.5 15.5 12.5 24.5q24 18 84.5 73t130.5 113.5t127 93.5q31 19 72 -12q35 -25 142 -124.5 t147 -131.5q37 -28 -2 -64q-15 -14 -41.5 -29.5t-38.5 -25.5q-13 -11 -25.5 -10.5t-36.5 14.5q-117 73 -192 142q-33 -25 -100.5 -79t-83.5 -67q-19 -14 -36.5 -14.5t-47.5 12.5q-21 10 -49.5 31.5t-41.5 27.5q-19 10 -20.5 25.5z" />
<glyph unicode="&#xdc;" horiz-adv-x="907" d="M31 606q0 120 13.5 303t31.5 303q3 23 19 27.5t44 -4.5q17 -5 97 -41q48 -23 69 -31q46 -18 43 -78q-2 -48 -17 -185.5t-24.5 -249.5t0 -233t47.5 -177q83 22 132.5 158t48.5 343q-1 68 -9 276.5t-6 260.5q2 21 8 30.5t23 12.5q76 13 129 -16q14 -7 28.5 -11.5t35.5 -9 t28 -6.5q72 -20 80 -129q22 -302 24 -374q11 -368 -91 -566q-62 -121 -169 -195q-51 -36 -96.5 -48t-104.5 6t-124 75q-101 43 -160 129q-100 143 -100 430zM175 1460q-7 57 11 111q10 32 72 12q6 -1 23.5 -2.5t25.5 -3t22 -5.5t21.5 -9.5t14.5 -16t10 -24.5q7 -39 1.5 -81 t-18.5 -63q-11 -18 -24 -20t-31 4q-8 2 -27.5 2.5t-36.5 4.5t-32 15q-25 19 -32 76zM504.5 1483q-3.5 56 11.5 94q6 16 24.5 18t51.5 -6q5 -1 34.5 1.5t54.5 -6t36 -36.5q18 -47 11.5 -106.5t-30.5 -67.5q-23 -8 -94 0q-23 -5 -40.5 -1.5t-33.5 22.5q-22 32 -25.5 88z" />
<glyph unicode="&#xdd;" horiz-adv-x="964" d="M1 1169q3 12 22 31q8 8 24.5 34t34.5 34q13 6 29 6.5t39 -2t36 -2.5q4 0 16 0.5t17 0t15.5 -1.5t16.5 -4t15 -8t16.5 -13t14.5 -19q67 -107 225 -445q69 139 163.5 299.5t164.5 263.5q11 17 28.5 11.5t32.5 -27.5q9 -13 20.5 -32t18.5 -29q29 -45 2 -107 q-132 -319 -309 -627q2 -106 -3 -303t-5 -215q0 -22 -10.5 -31t-36.5 -16q-36 -10 -86 -14q-30 -2 -96 22q-38 14 -53.5 35.5t-22.5 77.5q-10 78 -6 393q-111 165 -192.5 337t-123.5 306q-10 33 -7 45zM373 1528q25 13 100.5 55.5t110.5 61.5t90 44t96 37q74 21 113 -14 q10 -9 18.5 -20.5t19.5 -29t17 -26.5q10 -16 14 -24.5t2.5 -19.5t-14.5 -19q-76 -45 -205 -102.5t-194 -77.5q-69 -21 -95 8q-47 53 -63 65q-49 40 -10 62z" />
<glyph unicode="&#xdf;" d="M92 623q0 34 4 54.5t18 42t47 31t85 7.5q50 -2 81 -11.5t48 -28.5t23.5 -41t9.5 -59q7 -79 -31 -113t-129 -28q-156 10 -156 146z" />
<glyph unicode="&#xe0;" horiz-adv-x="1009" d="M12 422q-2 19 2 27t21 12q24 7 49 10q73 347 192 662q17 43 44 61t71 29q46 11 64 20q-25 48 -23 57q2 16 17 21q43 12 100 6q78 -8 88 -8q90 0 127 -88q25 -58 48.5 -168.5t36 -189.5t36.5 -248q56 -369 85 -489q20 -87 42 -144q9 -20 4.5 -31t-29.5 -14 q-7 -3 -52.5 -0.5t-60.5 2.5q-30 0 -50 3t-44 13t-43.5 32.5t-36.5 57.5q-29 58 -65 207q-195 -13 -328 -16q-32 -112 -55 -226q-3 -19 -7.5 -25.5t-15.5 -8.5q-27 -4 -61 10q-17 6 -36.5 30.5t-37.5 39.5q-54 43 -49 133q4 60 8 90q-1 2 -2 6t-2 6q-6 18 -15.5 41.5 t-14.5 41t-7 38.5zM204.5 1592q-1.5 11 2.5 19.5t14 24.5q6 9 17 26.5t19.5 29t18.5 20.5q39 35 113 14q41 -12 96 -37t90 -44t110.5 -61.5t100.5 -55.5q39 -22 -10 -62q-16 -12 -63 -65q-26 -29 -95 -8q-65 20 -194 77.5t-205 102.5q-13 8 -14.5 19zM377 504q67 4 209 8 q-67 404 -78 459q-30 -120 -131 -467z" />
<glyph unicode="&#xe1;" horiz-adv-x="1009" d="M12 422q-2 19 2 27t21 12q24 7 49 10q73 347 192 662q17 43 44 61t71 29q46 11 64 20q-25 48 -23 57q2 16 17 21q43 12 100 6q78 -8 88 -8q90 0 127 -88q25 -58 48.5 -168.5t36 -189.5t36.5 -248q56 -369 85 -489q20 -87 42 -144q9 -20 4.5 -31t-29.5 -14 q-7 -3 -52.5 -0.5t-60.5 2.5q-30 0 -50 3t-44 13t-43.5 32.5t-36.5 57.5q-29 58 -65 207q-195 -13 -328 -16q-32 -112 -55 -226q-3 -19 -7.5 -25.5t-15.5 -8.5q-27 -4 -61 10q-17 6 -36.5 30.5t-37.5 39.5q-54 43 -49 133q4 60 8 90q-1 2 -2 6t-2 6q-6 18 -15.5 41.5 t-14.5 41t-7 38.5zM250 1528q25 13 100.5 55.5t110.5 61.5t90 44t96 37q74 21 113 -14q10 -9 18.5 -20.5t19.5 -29t17 -26.5q10 -16 14 -24.5t2.5 -19.5t-14.5 -19q-76 -45 -205 -102.5t-194 -77.5q-69 -21 -94 8q-45 50 -64 65q-49 40 -10 62zM377 504q67 4 209 8 q-67 404 -78 459q-30 -120 -131 -467z" />
<glyph unicode="&#xe2;" horiz-adv-x="1009" d="M12 422q-2 19 2 27t21 12q24 7 49 10q73 347 192 662q17 43 44 61t71 29q46 11 64 20q-25 48 -23 57q2 16 17 21q43 12 100 6q78 -8 88 -8q90 0 127 -88q25 -58 48.5 -168.5t36 -189.5t36.5 -248q56 -369 85 -489q20 -87 42 -144q9 -20 4.5 -31t-29.5 -14 q-7 -3 -52.5 -0.5t-60.5 2.5q-30 0 -50 3t-44 13t-43.5 32.5t-36.5 57.5q-29 58 -65 207q-195 -13 -328 -16q-32 -112 -55 -226q-3 -19 -7.5 -25.5t-15.5 -8.5q-27 -4 -61 10q-17 6 -36.5 30.5t-37.5 39.5q-54 43 -49 133q4 60 8 90q-1 2 -2 6t-2 6q-6 18 -15.5 41.5 t-14.5 41t-7 38.5zM157.5 1455q-1.5 15 12.5 24q24 18 84.5 73t130.5 113.5t127 93.5q31 19 72 -12q35 -25 141.5 -124.5t146.5 -131.5q37 -28 -2 -64q-15 -14 -41 -29.5t-38 -25.5q-13 -11 -25.5 -10.5t-36.5 14.5q-117 73 -192 142q-34 -26 -102 -80t-83 -66 q-19 -14 -36.5 -14.5t-47.5 12.5q-21 10 -49 32t-41 28q-19 10 -20.5 25zM377 504q67 4 209 8q-67 404 -78 459q-30 -120 -131 -467z" />
<glyph unicode="&#xe3;" horiz-adv-x="1009" d="M12 422q-2 19 2 27t21 12q24 7 49 10q73 347 192 662q17 43 44 61t71 29q46 11 64 20q-25 48 -23 57q2 16 17 21q43 12 100 6q78 -8 88 -8q90 0 127 -88q25 -58 48.5 -168.5t36 -189.5t36.5 -248q56 -369 85 -489q20 -87 42 -144q9 -20 4.5 -31t-29.5 -14 q-7 -3 -52.5 -0.5t-60.5 2.5q-30 0 -50 3t-44 13t-43.5 32.5t-36.5 57.5q-29 58 -65 207q-195 -13 -328 -16q-32 -112 -55 -226q-3 -19 -7.5 -25.5t-15.5 -8.5q-27 -4 -61 10q-17 6 -36.5 30.5t-37.5 39.5q-54 43 -49 133q4 60 8 90q-1 2 -2 6t-2 6q-6 18 -15.5 41.5 t-14.5 41t-7 38.5zM195 1422.5q0 17.5 3.5 39t2.5 41.5q-3 57 41 92q33 28 81.5 46t114 22t133.5 -21q89 -31 149 -33t109 21q33 12 33 -20q0 -36 -10.5 -74.5t-11.5 -54.5q-3 -41 -37 -60q-36 -22 -87 -24t-87.5 6t-91.5 24q-65 17 -140.5 1.5t-146.5 -58.5 q-16 -13 -27.5 -12.5t-19.5 24.5q-8 23 -8 40.5zM377 504q67 4 209 8q-67 404 -78 459q-30 -120 -131 -467z" />
<glyph unicode="&#xe4;" horiz-adv-x="1009" d="M12 422q-2 19 2 27t21 12q24 7 49 10q73 347 192 662q17 43 44 61t71 29q46 11 64 20q-25 48 -23 57q2 16 17 21q43 12 100 6q78 -8 88 -8q90 0 127 -88q25 -58 48.5 -168.5t36 -189.5t36.5 -248q56 -369 85 -489q20 -87 42 -144q9 -20 4.5 -31t-29.5 -14 q-7 -3 -52.5 -0.5t-60.5 2.5q-30 0 -50 3t-44 13t-43.5 32.5t-36.5 57.5q-29 58 -65 207q-195 -13 -328 -16q-32 -112 -55 -226q-3 -19 -7.5 -25.5t-15.5 -8.5q-27 -4 -61 10q-17 6 -36.5 30.5t-37.5 39.5q-54 43 -49 133q4 60 8 90q-1 2 -2 6t-2 6q-6 18 -15.5 41.5 t-14.5 41t-7 38.5zM255 1472.5q-7 56.5 11 110.5q10 32 72 12q6 -1 23.5 -2.5t25.5 -3t22 -5.5t21.5 -9.5t14.5 -16t10 -24.5q7 -39 1.5 -80.5t-18.5 -62.5q-11 -18 -24 -20.5t-31 3.5q-8 2 -27.5 3t-36.5 5t-32 15q-25 19 -32 75.5zM377 504q67 4 209 8q-67 404 -78 459 q-30 -120 -131 -467zM584.5 1495q-3.5 56 11.5 94q6 16 24.5 18.5t51.5 -5.5q5 -1 34.5 1.5t54.5 -6t36 -36.5q18 -47 11.5 -107t-30.5 -68q-23 -8 -94 0q-23 -5 -40.5 -1.5t-33.5 22.5q-22 32 -25.5 88z" />
<glyph unicode="&#xe5;" horiz-adv-x="1009" d="M12 422q-2 19 2 27t21 12q24 7 49 10q73 347 192 662q17 43 44 61t71 29q46 11 64 20q-25 48 -23 57q2 16 17 21q43 12 100 6q78 -8 88 -8q90 0 127 -88q25 -58 48.5 -168.5t36 -189.5t36.5 -248q56 -369 85 -489q20 -87 42 -144q9 -20 4.5 -31t-29.5 -14 q-7 -3 -52.5 -0.5t-60.5 2.5q-30 0 -50 3t-44 13t-43.5 32.5t-36.5 57.5q-29 58 -65 207q-195 -13 -328 -16q-32 -112 -55 -226q-3 -19 -7.5 -25.5t-15.5 -8.5q-27 -4 -61 10q-17 6 -36.5 30.5t-37.5 39.5q-54 43 -49 133q4 60 8 90q-1 2 -2 6t-2 6q-6 18 -15.5 41.5 t-14.5 41t-7 38.5zM352 1593q0 59 32.5 120t80.5 85q58 28 125 -45q153 -63 121 -217q-14 -71 -67.5 -112.5t-106.5 -39.5q-48 3 -97 72q-88 40 -88 137zM377 504q67 4 209 8q-67 404 -78 459q-30 -120 -131 -467zM485 1497q36 -8 69.5 19t39.5 73q8 70 -37 115 q-47 -20 -71.5 -92t-0.5 -115z" />
<glyph unicode="&#xe6;" horiz-adv-x="1345" d="M12 561q-2 19 2 27t23 14q20 7 72 19q84 335 217 604q17 33 32 43t48 10q18 0 61 -4.5t80 -5.5q9 17 24 27t26 12.5t32 5.5q10 1 82 9t104 11t92 7.5t106.5 4t86.5 -5.5q66 -7 94.5 -23.5t42.5 -53.5q4 -10 17 -50.5t22 -58.5q27 -51 24 -92q-1 -17 -9 -21t-34 -2 q-68 3 -208 -11t-205 -13q20 -120 41 -318q187 19 305 4q20 -3 27 -8t14 -24t11.5 -49t6.5 -37q2 -8 12.5 -23t12.5 -29q6 -28 2 -43q-9 -30 -27 -32q-163 -24 -331 -35q12 -86 18 -127q213 17 295 8q28 -3 38 -9t19 -26q5 -12 8.5 -26.5t6 -33.5t4.5 -28q3 -11 12.5 -27.5 t9.5 -31.5q0 -26 -6 -41q-1 -1 -2 -4.5t-1.5 -4.5t-2 -3.5t-4 -3t-7 -2t-10.5 -1.5q-84 -8 -150 -20t-147.5 -31.5t-111.5 -25.5q-50 -10 -73 -4.5t-38 30.5q-7 10 -20 39t-17 37q-29 5 -45 17.5t-26 45.5q-33 118 -56 263q-181 -15 -272 -17q-50 -175 -94 -373 q-5 -20 -9 -26.5t-14 -7.5q-28 -4 -59 12q-13 6 -22 13.5t-23.5 21.5t-28.5 26q-65 55 -57 140q9 103 30 221q-8 12 -12 22q-6 17 -15.5 40t-15 40.5t-8.5 38.5zM420 664l153 12q-22 177 -43 315q-38 -101 -110 -327z" />
<glyph unicode="&#xe7;" horiz-adv-x="942" d="M20 635q4 156 59.5 300t147.5 245t201 139q53 18 91.5 6.5t86.5 -57.5q20 -6 60 -15.5t64 -16.5t55 -20t52.5 -32.5t36.5 -46.5q59 -112 48 -248q-1 -30 -7 -51t-19 -35.5t-22 -21t-30 -19.5q-23 -14 -52 -34.5t-40 -27.5q-22 -17 -38.5 -7t-21.5 42q-34 274 -131 322 q-93 -65 -155.5 -183t-81 -238t3.5 -229.5t84 -160.5q103 -28 214 32.5t177 167.5q24 44 57 -6q6 -8 11 -19t8 -19t6 -23.5t4 -21.5t3.5 -24.5t2.5 -21.5q1 -10 6.5 -32.5t7.5 -37t-2 -38t-16 -47.5q-26 -54 -89.5 -107.5t-129.5 -71.5q-59 -15 -133 -2v-45q58 1 94.5 -25 t42.5 -65q6 -32 -3.5 -59.5t-19.5 -39.5t-32 -32q-2 -2 -11.5 -10.5t-12.5 -11t-11.5 -9t-12.5 -9t-11.5 -7t-13 -6t-13 -3t-15.5 -1.5q-26 -1 -60.5 15t-62.5 42q-9 8 -11.5 18t-0.5 15.5t6 15.5q3 6 7.5 20.5t7.5 20.5q10 17 30 0q32 -27 71.5 -35t72.5 9q0 31 -21.5 45.5 t-46.5 9.5q-27 -5 -43 6q-9 7 -27 16t-24 13q-24 14 -21 43q4 46 4 121q-79 45 -145 120q-244 153 -236 488z" />
<glyph unicode="&#xe8;" horiz-adv-x="829" d="M11 1228.5q5 13.5 32 14.5q40 2 164 16t204.5 19.5t190.5 -0.5q62 -6 93 -23.5t44 -54.5q8 -22 29 -58t23 -40q23 -43 20 -86q-1 -15 -9.5 -19t-33.5 -2q-71 3 -228 -11t-216 -15q2 -39 5 -121t5 -119q183 29 317 12q20 -3 27 -8t14 -24t12 -49.5t7 -36.5q3 -9 12.5 -23 t11.5 -27q5 -32 2 -45q-5 -17 -10 -24t-16 -8q-13 -2 -73 -11t-97 -13.5t-96.5 -9.5t-108.5 -5q-4 -108 -8 -156q249 29 372 16q28 -3 37.5 -8.5t18.5 -25.5q8 -19 18 -88q2 -12 13 -28.5t10 -31.5q-1 -6 -1.5 -13t-0.5 -11.5t-0.5 -9t-1.5 -7.5q-1 -6 -2.5 -9t-7.5 -5.5 t-17 -3.5q-84 -8 -171.5 -24.5t-184.5 -38.5t-131 -29q-47 -10 -74 -5.5t-45 27.5q-17 21 -33 49q-12 2 -37 2q-27 0 -37.5 10.5t-13.5 34.5q-10 88 -12 192t4 206.5t13 194.5t15.5 191.5t10.5 160.5q-13 24 -27.5 72.5t-24.5 70.5q-12 25 -7 38.5zM114.5 1567 q-1.5 11 2.5 20t14 25q6 9 17 26.5t19.5 29t18.5 20.5q39 35 113 14q41 -12 95.5 -37t91.5 -45t109.5 -61t100.5 -56q39 -21 -10 -61q-13 -10 -23.5 -21t-23 -26t-16.5 -19q-26 -29 -95 -8q-65 20 -194 77.5t-205 102.5q-13 8 -14.5 19z" />
<glyph unicode="&#xe9;" horiz-adv-x="829" d="M11 1228.5q5 13.5 32 14.5q40 2 164 16t204.5 19.5t190.5 -0.5q62 -6 93 -23.5t44 -54.5q8 -22 29 -58t23 -40q23 -43 20 -86q-1 -15 -9.5 -19t-33.5 -2q-71 3 -228 -11t-216 -15q2 -39 5 -121t5 -119q183 29 317 12q20 -3 27 -8t14 -24t12 -49.5t7 -36.5q3 -9 12.5 -23 t11.5 -27q5 -32 2 -45q-5 -17 -10 -24t-16 -8q-13 -2 -73 -11t-97 -13.5t-96.5 -9.5t-108.5 -5q-4 -108 -8 -156q249 29 372 16q28 -3 37.5 -8.5t18.5 -25.5q8 -19 18 -88q2 -12 13 -28.5t10 -31.5q-1 -6 -1.5 -13t-0.5 -11.5t-0.5 -9t-1.5 -7.5q-1 -6 -2.5 -9t-7.5 -5.5 t-17 -3.5q-84 -8 -171.5 -24.5t-184.5 -38.5t-131 -29q-47 -10 -74 -5.5t-45 27.5q-17 21 -33 49q-12 2 -37 2q-27 0 -37.5 10.5t-13.5 34.5q-10 88 -12 192t4 206.5t13 194.5t15.5 191.5t10.5 160.5q-13 24 -27.5 72.5t-24.5 70.5q-12 25 -7 38.5zM90 1503q28 15 100.5 56 t109.5 61t91.5 45t95.5 37q74 21 113 -14q10 -9 18.5 -20.5t19.5 -29t17 -26.5q10 -16 14 -25t2.5 -20t-14.5 -19q-76 -45 -205 -102.5t-194 -77.5q-69 -21 -94 8q-4 5 -13 15.5t-15 17t-16 16t-20 17.5q-49 40 -10 61z" />
<glyph unicode="&#xea;" horiz-adv-x="829" d="M11 1228.5q5 13.5 32 14.5q40 2 164 16t204.5 19.5t190.5 -0.5q62 -6 93 -23.5t44 -54.5q8 -22 29 -58t23 -40q23 -43 20 -86q-1 -15 -9.5 -19t-33.5 -2q-71 3 -228 -11t-216 -15q2 -39 5 -121t5 -119q183 29 317 12q20 -3 27 -8t14 -24t12 -49.5t7 -36.5q3 -9 12.5 -23 t11.5 -27q5 -32 2 -45q-5 -17 -10 -24t-16 -8q-13 -2 -73 -11t-97 -13.5t-96.5 -9.5t-108.5 -5q-4 -108 -8 -156q249 29 372 16q28 -3 37.5 -8.5t18.5 -25.5q8 -19 18 -88q2 -12 13 -28.5t10 -31.5q-1 -6 -1.5 -13t-0.5 -11.5t-0.5 -9t-1.5 -7.5q-1 -6 -2.5 -9t-7.5 -5.5 t-17 -3.5q-84 -8 -171.5 -24.5t-184.5 -38.5t-131 -29q-47 -10 -74 -5.5t-45 27.5q-17 21 -33 49q-12 2 -37 2q-27 0 -37.5 10.5t-13.5 34.5q-10 88 -12 192t4 206.5t13 194.5t15.5 191.5t10.5 160.5q-13 24 -27.5 72.5t-24.5 70.5q-12 25 -7 38.5zM38.5 1455 q-1.5 15 12.5 24q24 18 84.5 73t130.5 113.5t127 93.5q31 19 72 -12q35 -25 142 -124.5t147 -131.5q37 -28 -2 -64q-15 -14 -41.5 -29.5t-38.5 -25.5q-13 -11 -25.5 -10.5t-36.5 14.5q-117 73 -192 142q-34 -26 -102 -80t-83 -66q-19 -14 -36 -14.5t-47 12.5 q-21 10 -49.5 32t-41.5 28q-19 10 -20.5 25z" />
<glyph unicode="&#xeb;" horiz-adv-x="829" d="M11 1228.5q5 13.5 32 14.5q40 2 164 16t204.5 19.5t190.5 -0.5q62 -6 93 -23.5t44 -54.5q8 -22 29 -58t23 -40q23 -43 20 -86q-1 -15 -9.5 -19t-33.5 -2q-71 3 -228 -11t-216 -15q2 -39 5 -121t5 -119q183 29 317 12q20 -3 27 -8t14 -24t12 -49.5t7 -36.5q3 -9 12.5 -23 t11.5 -27q5 -32 2 -45q-5 -17 -10 -24t-16 -8q-13 -2 -73 -11t-97 -13.5t-96.5 -9.5t-108.5 -5q-4 -108 -8 -156q249 29 372 16q28 -3 37.5 -8.5t18.5 -25.5q8 -19 18 -88q2 -12 13 -28.5t10 -31.5q-1 -6 -1.5 -13t-0.5 -11.5t-0.5 -9t-1.5 -7.5q-1 -6 -2.5 -9t-7.5 -5.5 t-17 -3.5q-84 -8 -171.5 -24.5t-184.5 -38.5t-131 -29q-47 -10 -74 -5.5t-45 27.5q-17 21 -33 49q-12 2 -37 2q-27 0 -37.5 10.5t-13.5 34.5q-10 88 -12 192t4 206.5t13 194.5t15.5 191.5t10.5 160.5q-13 24 -27.5 72.5t-24.5 70.5q-12 25 -7 38.5zM136 1460q-7 57 11 111 q10 32 72 12q6 -1 23.5 -2.5t25.5 -3t22 -5.5t21.5 -9.5t14.5 -16t10 -24.5q7 -39 1.5 -81t-18.5 -63q-11 -18 -24 -20t-31 4q-8 2 -27.5 2.5t-36.5 4.5t-32 15q-25 19 -32 76zM466.5 1483q-3.5 56 10.5 94q6 16 24.5 18t51.5 -6q5 -1 34.5 1.5t54.5 -6t36 -36.5 q18 -47 11.5 -106.5t-30.5 -67.5q-23 -8 -94 0q-23 -5 -40 -1.5t-33 22.5q-22 32 -25.5 88z" />
<glyph unicode="&#xec;" horiz-adv-x="419" d="M-90.5 1567q-1.5 11 2.5 20t14 25q5 8 17 26.5t20.5 29.5t18.5 20q39 35 112 14q41 -12 96 -37t91 -44.5t110.5 -61.5t100.5 -56q21 -13 18 -26.5t-29 -34.5q-13 -10 -23.5 -21t-23 -26t-16.5 -19q-25 -29 -94 -8q-65 20 -194.5 77.5t-205.5 102.5q-13 8 -14.5 19z M35 299q-1 108 4.5 244.5t11.5 229t18.5 252t16.5 216.5q1 16 10 22t29 9q6 1 27 6t39 8t32 2q19 -2 35.5 -10t32.5 -20t26 -17q18 -9 24 -19t7 -34q3 -81 12 -257t15.5 -307t5.5 -308t-14 -320q-1 -25 -10.5 -31t-41.5 -4q-81 6 -112 6q-40 0 -64 10.5t-55 36.5 q-29 25 -38 84.5t-11 200.5z" />
<glyph unicode="&#xed;" horiz-adv-x="419" d="M-45 1503q28 15 100.5 56t109.5 61t91.5 45t95.5 37q74 21 113 -14q10 -9 18.5 -20.5t19.5 -29t17 -26.5q10 -16 14 -25t2.5 -20t-14.5 -19q-76 -45 -205 -102.5t-194 -77.5q-69 -21 -94 8q-4 5 -13 15.5t-15 17t-16 16t-20 17.5q-49 40 -10 61zM35 299q-1 108 4.5 244.5 t11.5 229t18.5 252t16.5 216.5q1 16 10 22t29 9q6 1 27 6t39 8t32 2q19 -2 35.5 -10t32.5 -20t26 -17q18 -9 24 -19t7 -34q3 -81 12 -257t15.5 -307t5.5 -308t-14 -320q-1 -25 -10.5 -31t-41.5 -4q-81 6 -112 6q-40 0 -64 10.5t-55 36.5q-29 25 -38 84.5t-11 200.5z" />
<glyph unicode="&#xee;" horiz-adv-x="419" d="M-157.5 1455q-1.5 15 12.5 24q24 18 84.5 73t130.5 113.5t127 93.5q17 10 32.5 7.5t38.5 -19.5q35 -25 142 -124.5t147 -131.5q37 -28 -2 -64q-15 -14 -41.5 -29.5t-38.5 -25.5q-13 -11 -25 -10.5t-36 14.5q-120 75 -193 142q-33 -25 -100.5 -79t-83.5 -67 q-19 -14 -36.5 -14.5t-47.5 12.5q-21 10 -49 32t-41 28q-19 10 -20.5 25zM35 299q-1 108 4.5 244.5t11.5 229t18.5 252t16.5 216.5q1 16 10 22t29 9q6 1 27 6t39 8t32 2q19 -2 35.5 -10t32.5 -20t26 -17q18 -9 24 -19t7 -34q3 -81 12 -257t15.5 -307t5.5 -308t-14 -320 q-1 -25 -10.5 -31t-41.5 -4q-81 6 -112 6q-40 0 -64 10.5t-55 36.5q-29 25 -38 84.5t-11 200.5z" />
<glyph unicode="&#xef;" horiz-adv-x="419" d="M-62.5 1460q-6.5 57 11.5 111q10 32 71 12q6 -1 23.5 -2.5t25.5 -3t22 -5.5t21.5 -9.5t14.5 -16t10 -24.5q7 -39 2 -81t-18 -63q-11 -18 -24 -20t-31 4q-8 2 -28 2.5t-37 4.5t-32 15q-25 19 -31.5 76zM35 299q-1 108 4.5 244.5t11.5 229t18.5 252t16.5 216.5q1 16 10 22 t29 9q6 1 27 6t39 8t32 2q19 -2 35.5 -10t32.5 -20t26 -17q18 -9 24 -19t7 -34q3 -81 12 -257t15.5 -307t5.5 -308t-14 -320q-1 -25 -10.5 -31t-41.5 -4q-81 6 -112 6q-40 0 -64 10.5t-55 36.5q-29 25 -38 84.5t-11 200.5zM267.5 1483q-3.5 56 11.5 94q6 16 24 18t51 -6 q5 -1 34.5 1.5t54.5 -6t36 -36.5q18 -47 12 -106.5t-30 -67.5q-23 -8 -94 0q-23 -5 -40.5 -1.5t-33.5 22.5q-22 32 -25.5 88z" />
<glyph unicode="&#xf1;" horiz-adv-x="985" d="M38.5 333.5q-2.5 166.5 1.5 273.5t16.5 322t15.5 281q1 24 13 32.5t48 14.5q59 11 96 11q17 0 51 -11.5t48 -13.5q21 -4 31 -7t20.5 -12.5t17.5 -27.5q22 -53 76 -205.5t111.5 -295.5t117.5 -253q-5 175 6 505t11 358q0 14 0.5 19.5t6 10.5t17.5 8q47 12 76 -8 q33 -23 58 -37q26 -14 39 -38.5t14 -71.5q0 -25 9 -301t8 -471.5t-17 -325.5q-2 -19 -9.5 -31.5t-14 -18t-34.5 -24.5q-46 -32 -98 -18q-46 12 -104 12h-12h-11t-9 0.5t-9.5 1.5t-7.5 2.5t-8 4t-7.5 6.5t-8 9t-7.5 11q-47 76 -87 160.5t-80 179.5t-61 139q3 -90 17 -288 t14 -265q0 -14 -1.5 -19.5t-8.5 -11t-23 -8.5q-49 -8 -114 17q-17 7 -37 11t-45 7.5t-41 7.5q-33 8 -47.5 21.5t-18.5 44.5q-16 126 -18.5 292.5zM158 1426.5q0 17.5 3.5 39t2.5 41.5q-3 57 41 92q33 28 81.5 46t114.5 22.5t134 -20.5q90 -31 149 -33.5t109 20.5 q32 12 32 -20q0 -36 -10.5 -74.5t-11.5 -54.5q-3 -41 -37 -60q-36 -22 -87.5 -23.5t-87 6t-91.5 24.5q-66 17 -140.5 1t-146.5 -59q-16 -13 -27.5 -12.5t-19.5 24.5q-8 23 -8 40.5z" />
<glyph unicode="&#xf2;" horiz-adv-x="1093" d="M16 639q3 211 105.5 390.5t228.5 242.5q73 39 148 -2q2 -1 12.5 -8t15.5 -9q114 3 208 -34.5t156.5 -101.5t105.5 -149t62 -174.5t19 -181.5q0 -112 -23.5 -208t-61 -162.5t-88.5 -119t-101 -83t-103 -47.5q-85 -27 -162 -1t-159 91q-110 28 -193.5 109t-127.5 198 t-42 250zM247.5 1567q-1.5 11 2.5 20t14 25q6 9 17 26.5t19.5 29t18.5 20.5q39 35 113 14q41 -12 95.5 -37t91.5 -45t109.5 -61t100.5 -56q39 -21 -10 -61q-13 -10 -23.5 -21t-23 -26t-16.5 -19q-25 -29 -94 -8q-65 20 -194.5 77.5t-205.5 102.5q-13 8 -14.5 19zM330 643.5 q-13 -109.5 10 -214t80 -169.5q92 -21 177 28t137 152t52 230q0 125 -63 225t-160 131q-99 -62 -159.5 -167.5t-73.5 -215z" />
<glyph unicode="&#xf3;" horiz-adv-x="1093" d="M16 639q3 211 105.5 390.5t228.5 242.5q73 39 148 -2q2 -1 12.5 -8t15.5 -9q114 3 208 -34.5t156.5 -101.5t105.5 -149t62 -174.5t19 -181.5q0 -112 -23.5 -208t-61 -162.5t-88.5 -119t-101 -83t-103 -47.5q-85 -27 -162 -1t-159 91q-110 28 -193.5 109t-127.5 198 t-42 250zM258 1476.5q-3 13.5 18 26.5q26 14 100.5 56t110.5 61.5t91 44.5t96 37q73 21 112 -14q10 -9 18.5 -20t20.5 -29.5t17 -26.5q10 -16 14 -25t2.5 -20t-14.5 -19q-76 -45 -205.5 -102.5t-194.5 -77.5q-69 -21 -94 8q-4 4 -16.5 19t-23 26t-23.5 21q-26 21 -29 34.5z M330 643.5q-13 -109.5 10 -214t80 -169.5q92 -21 177 28t137 152t52 230q0 125 -63 225t-160 131q-99 -62 -159.5 -167.5t-73.5 -215z" />
<glyph unicode="&#xf4;" horiz-adv-x="1093" d="M16 639q3 211 105.5 390.5t228.5 242.5q73 39 148 -2q2 -1 12.5 -8t15.5 -9q114 3 208 -34.5t156.5 -101.5t105.5 -149t62 -174.5t19 -181.5q0 -112 -23.5 -208t-61 -162.5t-88.5 -119t-101 -83t-103 -47.5q-85 -27 -162 -1t-159 91q-110 28 -193.5 109t-127.5 198 t-42 250zM180.5 1452.5q-1.5 15.5 12.5 24.5q24 18 84.5 73t130.5 113.5t127 93.5q17 10 32.5 7.5t38.5 -19.5q35 -25 142 -124.5t147 -131.5q37 -28 -2 -64q-15 -14 -41.5 -29.5t-38.5 -25.5q-13 -11 -25 -10.5t-36 14.5q-120 75 -193 142q-33 -25 -100.5 -79t-83.5 -67 q-19 -14 -36.5 -14.5t-47.5 12.5q-21 10 -49 31.5t-41 27.5q-19 10 -20.5 25.5zM330 643.5q-13 -109.5 10 -214t80 -169.5q92 -21 177 28t137 152t52 230q0 125 -63 225t-160 131q-99 -62 -159.5 -167.5t-73.5 -215z" />
<glyph unicode="&#xf5;" horiz-adv-x="1093" d="M16 639q3 211 105.5 390.5t228.5 242.5q73 39 148 -2q2 -1 12.5 -8t15.5 -9q114 3 208 -34.5t156.5 -101.5t105.5 -149t62 -174.5t19 -181.5q0 -112 -23.5 -208t-61 -162.5t-88.5 -119t-101 -83t-103 -47.5q-85 -27 -162 -1t-159 91q-110 28 -193.5 109t-127.5 198 t-42 250zM213 1422.5q0 17.5 3.5 39t2.5 41.5q-3 57 41 92q33 28 81.5 46t114.5 22t134 -21q89 -31 149 -33t109 21q33 12 33 -20q0 -36 -11 -74t-12 -55q-3 -41 -37 -60q-36 -22 -87 -24t-87.5 6t-91.5 24q-65 17 -140.5 1.5t-146.5 -58.5q-16 -13 -27.5 -12.5t-19.5 24.5 q-8 23 -8 40.5zM330 643.5q-13 -109.5 10 -214t80 -169.5q92 -21 177 28t137 152t52 230q0 125 -63 225t-160 131q-99 -62 -159.5 -167.5t-73.5 -215z" />
<glyph unicode="&#xf6;" horiz-adv-x="1093" d="M16 639q3 211 105.5 390.5t228.5 242.5q73 39 148 -2q2 -1 12.5 -8t15.5 -9q114 3 208 -34.5t156.5 -101.5t105.5 -149t62 -174.5t19 -181.5q0 -112 -23.5 -208t-61 -162.5t-88.5 -119t-101 -83t-103 -47.5q-85 -27 -162 -1t-159 91q-110 28 -193.5 109t-127.5 198 t-42 250zM269.5 1460q-6.5 57 11.5 111q10 32 71 12q6 -1 23.5 -2.5t25.5 -3t22 -5.5t21.5 -9.5t14.5 -16t10 -24.5q7 -39 2 -81t-18 -63q-11 -18 -24.5 -20.5t-31.5 4.5q-8 2 -27.5 2.5t-36.5 4.5t-32 15q-25 19 -31.5 76zM330 643.5q-13 -109.5 10 -214t80 -169.5 q92 -21 177 28t137 152t52 230q0 125 -63 225t-160 131q-99 -62 -159.5 -167.5t-73.5 -215zM599.5 1483q-3.5 56 10.5 94q6 16 24.5 18t51.5 -6q5 -1 34.5 1.5t54.5 -6t36 -36.5q18 -47 12 -106.5t-30 -67.5t-95 0q-23 -5 -40 -1.5t-33 22.5q-22 32 -25.5 88z" />
<glyph unicode="&#xf7;" d="M92 623q0 34 4 54.5t18 42t47 31t85 7.5q50 -2 81 -11.5t48 -28.5t23.5 -41t9.5 -59q7 -79 -31 -113t-129 -28q-156 10 -156 146z" />
<glyph unicode="&#xf8;" horiz-adv-x="1093" d="M16 637q2 107 32.5 212.5t78.5 187t106 142.5t117 91q73 39 148 -2q2 -1 12.5 -8t15.5 -9q144 6 260 -57q44 68 78 123q14 24 33.5 25.5t34.5 -21.5q6 -9 22.5 -27t23.5 -30t7 -40.5t-14 -66.5q-22 -57 -37 -90q72 -91 107.5 -212t35.5 -245q0 -111 -23.5 -207.5 t-61 -163t-88 -119t-100.5 -83t-102 -47.5q-34 -11 -68.5 -13t-64.5 4t-61 19.5t-57.5 29.5t-55.5 38q-7 -12 -88 -160q-15 -27 -37 -29q-51 -4 -77 4q-25 8 -56 47q-10 12 -14 17.5t-10 15t-7 16t-1 16t4 19.5q30 93 71 181q-80 80 -123.5 195.5t-40.5 246.5zM319 461 q83 146 326 522q-47 29 -90 43q-147 -92 -206.5 -250.5t-29.5 -314.5zM498 252q131 12 221 134t86 290q0 40 -14 98q-39 -74 -87 -159.5t-110.5 -194.5t-95.5 -168z" />
<glyph unicode="&#xf9;" horiz-adv-x="907" d="M31 606q0 120 13.5 303t31.5 303q3 23 19 27.5t44 -4.5q17 -5 97 -41q48 -23 69 -31q46 -18 43 -78q-2 -48 -17 -185.5t-24.5 -249.5t0 -233t47.5 -177q83 22 132.5 158t48.5 343q-1 68 -9 276.5t-6 260.5q2 21 8 30.5t23 12.5q76 13 129 -16q14 -7 28.5 -11.5t35.5 -9 t28 -6.5q72 -20 80 -129q22 -302 24 -374q11 -368 -91 -566q-62 -121 -169 -195q-51 -36 -96.5 -48t-104.5 6t-124 75q-101 43 -160 129q-100 143 -100 430zM153.5 1592q-1.5 11 2.5 19.5t14 24.5q6 9 17 26.5t19.5 29t18.5 20.5q39 35 113 14q41 -12 96 -37t90 -44 t110.5 -61.5t100.5 -55.5q39 -22 -10 -62q-16 -12 -63 -65q-26 -29 -95 -8q-65 20 -194 77.5t-205 102.5q-13 8 -14.5 19z" />
<glyph unicode="&#xfa;" horiz-adv-x="907" d="M31 606q0 120 13.5 303t31.5 303q3 23 19 27.5t44 -4.5q17 -5 97 -41q48 -23 69 -31q46 -18 43 -78q-2 -48 -17 -185.5t-24.5 -249.5t0 -233t47.5 -177q83 22 132.5 158t48.5 343q-1 68 -9 276.5t-6 260.5q2 21 8 30.5t23 12.5q76 13 129 -16q14 -7 28.5 -11.5t35.5 -9 t28 -6.5q72 -20 80 -129q22 -302 24 -374q11 -368 -91 -566q-62 -121 -169 -195q-51 -36 -96.5 -48t-104.5 6t-124 75q-101 43 -160 129q-100 143 -100 430zM176 1503q28 15 100.5 56t109.5 61t91.5 45t95.5 37q74 21 113 -14q10 -9 18.5 -20.5t19.5 -29t17 -26.5 q10 -16 14 -25t2.5 -20t-14.5 -19q-76 -45 -205 -102.5t-194 -77.5q-69 -21 -94 8q-4 5 -13 15.5t-15 17t-16 16t-20 17.5q-49 40 -10 61z" />
<glyph unicode="&#xfb;" horiz-adv-x="907" d="M31 606q0 120 13.5 303t31.5 303q3 23 19 27.5t44 -4.5q17 -5 97 -41q48 -23 69 -31q46 -18 43 -78q-2 -48 -17 -185.5t-24.5 -249.5t0 -233t47.5 -177q83 22 132.5 158t48.5 343q-1 68 -9 276.5t-6 260.5q2 21 8 30.5t23 12.5q76 13 129 -16q14 -7 28.5 -11.5t35.5 -9 t28 -6.5q72 -20 80 -129q22 -302 24 -374q11 -368 -91 -566q-62 -121 -169 -195q-51 -36 -96.5 -48t-104.5 6t-124 75q-101 43 -160 129q-100 143 -100 430zM85.5 1452.5q-1.5 15.5 12.5 24.5q24 18 84.5 73t130.5 113.5t127 93.5q31 19 72 -12q35 -25 142 -124.5 t147 -131.5q37 -28 -2 -64q-15 -14 -41.5 -29.5t-38.5 -25.5q-13 -11 -25.5 -10.5t-36.5 14.5q-117 73 -192 142q-33 -25 -100.5 -79t-83.5 -67q-19 -14 -36.5 -14.5t-47.5 12.5q-21 10 -49.5 31.5t-41.5 27.5q-19 10 -20.5 25.5z" />
<glyph unicode="&#xfc;" horiz-adv-x="907" d="M31 606q0 120 13.5 303t31.5 303q3 23 19 27.5t44 -4.5q17 -5 97 -41q48 -23 69 -31q46 -18 43 -78q-2 -48 -17 -185.5t-24.5 -249.5t0 -233t47.5 -177q83 22 132.5 158t48.5 343q-1 68 -9 276.5t-6 260.5q2 21 8 30.5t23 12.5q76 13 129 -16q14 -7 28.5 -11.5t35.5 -9 t28 -6.5q72 -20 80 -129q22 -302 24 -374q11 -368 -91 -566q-62 -121 -169 -195q-51 -36 -96.5 -48t-104.5 6t-124 75q-101 43 -160 129q-100 143 -100 430zM175 1460q-7 57 11 111q10 32 72 12q6 -1 23.5 -2.5t25.5 -3t22 -5.5t21.5 -9.5t14.5 -16t10 -24.5q7 -39 1.5 -81 t-18.5 -63q-11 -18 -24 -20t-31 4q-8 2 -27.5 2.5t-36.5 4.5t-32 15q-25 19 -32 76zM504.5 1483q-3.5 56 11.5 94q6 16 24.5 18t51.5 -6q5 -1 34.5 1.5t54.5 -6t36 -36.5q18 -47 11.5 -106.5t-30.5 -67.5q-23 -8 -94 0q-23 -5 -40.5 -1.5t-33.5 22.5q-22 32 -25.5 88z" />
<glyph unicode="&#xfd;" horiz-adv-x="964" d="M1 1169q3 12 22 31q8 8 24.5 34t34.5 34q13 6 29 6.5t39 -2t36 -2.5q4 0 16 0.5t17 0t15.5 -1.5t16.5 -4t15 -8t16.5 -13t14.5 -19q67 -107 225 -445q69 139 163.5 299.5t164.5 263.5q11 17 28.5 11.5t32.5 -27.5q9 -13 20.5 -32t18.5 -29q29 -45 2 -107 q-132 -319 -309 -627q2 -106 -3 -303t-5 -215q0 -22 -10.5 -31t-36.5 -16q-36 -10 -86 -14q-30 -2 -96 22q-38 14 -53.5 35.5t-22.5 77.5q-10 78 -6 393q-111 165 -192.5 337t-123.5 306q-10 33 -7 45zM373 1528q25 13 100.5 55.5t110.5 61.5t90 44t96 37q74 21 113 -14 q10 -9 18.5 -20.5t19.5 -29t17 -26.5q10 -16 14 -24.5t2.5 -19.5t-14.5 -19q-76 -45 -205 -102.5t-194 -77.5q-69 -21 -95 8q-47 53 -63 65q-49 40 -10 62z" />
<glyph unicode="&#xff;" horiz-adv-x="964" d="M1 1169q3 12 22 31q8 8 24.5 34t34.5 34q13 6 29 6.5t39 -2t36 -2.5q4 0 16 0.5t17 0t15.5 -1.5t16.5 -4t15 -8t16.5 -13t14.5 -19q67 -107 225 -445q69 139 163.5 299.5t164.5 263.5q11 17 28.5 11.5t32.5 -27.5q9 -13 20.5 -32t18.5 -29q29 -45 2 -107 q-132 -319 -309 -627q2 -106 -3 -303t-5 -215q0 -22 -10.5 -31t-36.5 -16q-36 -10 -86 -14q-30 -2 -96 22q-38 14 -53.5 35.5t-22.5 77.5q-10 78 -6 393q-111 165 -192.5 337t-123.5 306q-10 33 -7 45zM208 1460q-7 57 11 111q10 32 72 12q6 -1 23.5 -2.5t25.5 -3t22 -5.5 t21.5 -9.5t14.5 -16t10 -24.5q7 -39 1.5 -81t-18.5 -63q-11 -18 -24 -20t-31 4q-8 2 -27.5 2.5t-36.5 4.5t-32 15q-25 19 -32 76zM537.5 1483q-3.5 56 11.5 94q6 16 24.5 18t51.5 -6q5 -1 34.5 1.5t54.5 -6t36 -36.5q18 -47 11.5 -106.5t-30.5 -67.5q-23 -8 -94 0 q-23 -5 -40.5 -1.5t-33.5 22.5q-22 32 -25.5 88z" />
<glyph unicode="&#x152;" horiz-adv-x="1591" d="M20 637q2 107 32.5 213.5t78 189.5t106 145.5t117.5 92.5q75 39 150 -2q8 -4 28 -16q115 3 199 -31q64 3 200 18t247.5 23t177.5 0q65 -8 94 -24.5t41 -53.5q5 -15 11.5 -29.5t12 -23.5t14.5 -23.5t13 -21.5q26 -45 23 -86q-1 -15 -9.5 -19t-33.5 -2q-70 3 -228 -11 t-217 -15q1 -28 4 -111.5t4 -132.5q178 31 320 14q21 -3 28 -8.5t13 -24.5q5 -17 8.5 -47t7.5 -39q3 -8 13.5 -22.5t13.5 -28.5q7 -34 2 -43q-11 -26 -18 -31q-4 -1 -9 -2q-16 -2 -74.5 -10.5t-96.5 -13.5t-97 -10t-109 -5q0 -80 -6 -157q85 12 190.5 17t182.5 -1 q27 -3 36.5 -9t18.5 -26q5 -12 8.5 -26t6 -32.5t4.5 -27.5q3 -13 12.5 -29.5t9.5 -29.5q0 -31 -4 -41q0 -1 -1 -3q-3 -11 -12 -13l-15 -2q-65 -7 -147 -21t-127.5 -23t-139 -29t-103.5 -22q-41 -11 -69.5 -7t-48.5 30q-5 7 -20 30t-23 35q-63 -46 -133 -69 q-85 -27 -162 -1.5t-160 89.5q-166 42 -268 199.5t-97 359.5zM334 646q-13 -111 10 -216.5t80 -171.5q92 -21 178 28t138.5 152t52.5 230q0 125 -64 229.5t-160 136.5q-100 -62 -161 -169.5t-74 -218.5z" />
<glyph unicode="&#x153;" horiz-adv-x="1591" d="M20 637q2 107 32.5 213.5t78 189.5t106 145.5t117.5 92.5q75 39 150 -2q8 -4 28 -16q115 3 199 -31q64 3 200 18t247.5 23t177.5 0q65 -8 94 -24.5t41 -53.5q5 -15 11.5 -29.5t12 -23.5t14.5 -23.5t13 -21.5q26 -45 23 -86q-1 -15 -9.5 -19t-33.5 -2q-70 3 -228 -11 t-217 -15q1 -28 4 -111.5t4 -132.5q178 31 320 14q21 -3 28 -8.5t13 -24.5q5 -17 8.5 -47t7.5 -39q3 -8 13.5 -22.5t13.5 -28.5q7 -34 2 -43q-11 -26 -18 -31q-4 -1 -9 -2q-16 -2 -74.5 -10.5t-96.5 -13.5t-97 -10t-109 -5q0 -80 -6 -157q85 12 190.5 17t182.5 -1 q27 -3 36.5 -9t18.5 -26q5 -12 8.5 -26t6 -32.5t4.5 -27.5q3 -13 12.5 -29.5t9.5 -29.5q0 -31 -4 -41q0 -1 -1 -3q-3 -11 -12 -13l-15 -2q-65 -7 -147 -21t-127.5 -23t-139 -29t-103.5 -22q-41 -11 -69.5 -7t-48.5 30q-5 7 -20 30t-23 35q-63 -46 -133 -69 q-85 -27 -162 -1.5t-160 89.5q-166 42 -268 199.5t-97 359.5zM334 646q-13 -111 10 -216.5t80 -171.5q92 -21 178 28t138.5 152t52.5 230q0 125 -64 229.5t-160 136.5q-100 -62 -161 -169.5t-74 -218.5z" />
<glyph unicode="&#x178;" horiz-adv-x="964" d="M1 1169q3 12 22 31q8 8 24.5 34t34.5 34q13 6 29 6.5t39 -2t36 -2.5q4 0 16 0.5t17 0t15.5 -1.5t16.5 -4t15 -8t16.5 -13t14.5 -19q67 -107 225 -445q69 139 163.5 299.5t164.5 263.5q11 17 28.5 11.5t32.5 -27.5q9 -13 20.5 -32t18.5 -29q29 -45 2 -107 q-132 -319 -309 -627q2 -106 -3 -303t-5 -215q0 -22 -10.5 -31t-36.5 -16q-36 -10 -86 -14q-30 -2 -96 22q-38 14 -53.5 35.5t-22.5 77.5q-10 78 -6 393q-111 165 -192.5 337t-123.5 306q-10 33 -7 45zM208 1460q-7 57 11 111q10 32 72 12q6 -1 23.5 -2.5t25.5 -3t22 -5.5 t21.5 -9.5t14.5 -16t10 -24.5q7 -39 1.5 -81t-18.5 -63q-11 -18 -24 -20t-31 4q-8 2 -27.5 2.5t-36.5 4.5t-32 15q-25 19 -32 76zM537.5 1483q-3.5 56 11.5 94q6 16 24.5 18t51.5 -6q5 -1 34.5 1.5t54.5 -6t36 -36.5q18 -47 11.5 -106.5t-30.5 -67.5q-23 -8 -94 0 q-23 -5 -40.5 -1.5t-33.5 22.5q-22 32 -25.5 88z" />
<glyph unicode="&#x2c6;" horiz-adv-x="817" d="M40.5 1483q-1.5 15 12.5 24q16 11 140.5 122.5t201.5 158.5q31 19 72 -12q35 -25 142 -124.5t147 -131.5q37 -28 -2 -64q-15 -14 -41.5 -29.5t-38.5 -25.5q-13 -11 -25.5 -10.5t-36.5 14.5q-120 75 -192 141q-34 -26 -102 -80t-82 -65q-19 -14 -36.5 -14.5t-47.5 12.5 q-21 10 -49.5 31.5t-41.5 27.5q-19 10 -20.5 25z" />
<glyph unicode="&#x2dc;" horiz-adv-x="708" d="M21 1435.5q0 17.5 3.5 39t2.5 41.5q-3 57 41 92q33 28 81.5 46t114 22t133.5 -21q90 -31 149 -33.5t109 20.5q33 12 33 -20q0 -36 -10.5 -74.5t-11.5 -54.5q-3 -40 -37 -59q-36 -22 -87.5 -24t-88 6t-91.5 24q-66 17 -140 1t-146 -59q-16 -13 -27.5 -12t-19.5 25 q-8 23 -8 40.5z" />
<glyph unicode="&#x2000;" horiz-adv-x="902" />
<glyph unicode="&#x2001;" horiz-adv-x="1805" />
<glyph unicode="&#x2002;" horiz-adv-x="902" />
<glyph unicode="&#x2003;" horiz-adv-x="1805" />
<glyph unicode="&#x2004;" horiz-adv-x="601" />
<glyph unicode="&#x2005;" horiz-adv-x="451" />
<glyph unicode="&#x2006;" horiz-adv-x="300" />
<glyph unicode="&#x2007;" horiz-adv-x="300" />
<glyph unicode="&#x2008;" horiz-adv-x="225" />
<glyph unicode="&#x2009;" horiz-adv-x="361" />
<glyph unicode="&#x200a;" horiz-adv-x="100" />
<glyph unicode="&#x2010;" horiz-adv-x="626" d="M20 688q1 18 3.5 26t11.5 15t28 10q90 13 222.5 14t236.5 -10q28 -3 42.5 -14.5t21.5 -38.5q5 -18 6.5 -58.5t5.5 -53.5q8 -37 7.5 -46t-9.5 -32q-7 -19 -16.5 -23t-34.5 -6q-278 -23 -416 -12q-50 5 -66 55q-28 86 -30 92q-16 42 -13 82z" />
<glyph unicode="&#x2011;" horiz-adv-x="626" d="M20 688q1 18 3.5 26t11.5 15t28 10q90 13 222.5 14t236.5 -10q28 -3 42.5 -14.5t21.5 -38.5q5 -18 6.5 -58.5t5.5 -53.5q8 -37 7.5 -46t-9.5 -32q-7 -19 -16.5 -23t-34.5 -6q-278 -23 -416 -12q-50 5 -66 55q-28 86 -30 92q-16 42 -13 82z" />
<glyph unicode="&#x2012;" horiz-adv-x="626" d="M20 688q1 18 3.5 26t11.5 15t28 10q90 13 222.5 14t236.5 -10q28 -3 42.5 -14.5t21.5 -38.5q5 -18 6.5 -58.5t5.5 -53.5q8 -37 7.5 -46t-9.5 -32q-7 -19 -16.5 -23t-34.5 -6q-278 -23 -416 -12q-50 5 -66 55q-28 86 -30 92q-16 42 -13 82z" />
<glyph unicode="&#x2013;" horiz-adv-x="749" d="M20 692q1 18 3.5 26.5t11 15t26.5 9.5q90 13 285 14.5t299 -9.5q27 -3 40.5 -15t21.5 -39q5 -19 7.5 -58.5t6.5 -53.5q8 -37 7.5 -46t-9.5 -32q-7 -19 -16.5 -23t-34.5 -6q-95 -8 -258.5 -13t-280.5 1q-50 5 -66 55q-28 86 -30 92q-16 42 -13 82z" />
<glyph unicode="&#x2014;" horiz-adv-x="894" d="M20 690q1 18 3.5 26t11.5 15t28 10q90 13 357.5 14t370.5 -10q29 -3 42 -14t21 -39q5 -18 6.5 -58.5t5.5 -53.5q9 -35 8 -46t-10 -32q-8 -19 -17 -23t-34 -6q-87 -7 -330 -12.5t-354 0.5q-50 5 -66 55q-28 86 -30 92q-16 42 -13 82z" />
<glyph unicode="&#x2018;" horiz-adv-x="374" d="M22.5 1464.5q6.5 20.5 32.5 36.5q8 5 22.5 17.5t27.5 19t30 6.5h11h13t11.5 -0.5t12.5 -3t11.5 -6t11.5 -9.5t9 -14q69 -135 137 -516q8 -49 -41 -49q-11 0 -38 -5t-42 -3q-14 2 -20.5 3t-20 12t-24.5 32q-35 68 -78 191.5t-63 214.5q-9 53 -2.5 73.5z" />
<glyph unicode="&#x2019;" horiz-adv-x="374" d="M20 975q7 108 53.5 271.5t98.5 277.5q11 25 30 26.5t36 -8.5q14 -6 38.5 -21.5t34.5 -21.5q31 -17 39 -42.5t-2 -78.5q-19 -99 -61 -216.5t-80 -188.5q-9 -20 -22.5 -31t-21.5 -13t-22 -3q-10 -1 -35.5 1t-39.5 1q-24 -2 -35.5 8t-10.5 39z" />
<glyph unicode="&#x201a;" horiz-adv-x="374" d="M-10 -248q7 108 53 271.5t98 277.5q11 25 30 26.5t36 -8.5q14 -6 39 -22t35 -21q31 -17 38.5 -42t-2.5 -78q-20 -102 -59.5 -220.5t-75.5 -185.5q-19 -42 -71 -47q-10 -1 -36 1t-40 1q-24 -2 -35 8t-10 39z" />
<glyph unicode="&#x201c;" horiz-adv-x="620" d="M22.5 1446q7.5 24 38.5 41q12 6 36 21t38 22q48 23 66 -19q52 -114 98 -277t53 -271q1 -28 -10 -38t-35 -10h-76q-13 0 -21 1.5t-20.5 12.5t-23.5 32q-38 74 -80 191.5t-61 215.5q-10 54 -2.5 78zM326 1391q-6 42 4 64t37 38q8 5 26.5 18t32.5 21t29 12q39 13 53 -28 q38 -112 70 -281t18 -231q-5 -28 -20.5 -33t-32.5 4q-13 4 -37.5 5t-36.5 5q-36 6 -57 68q-63 183 -86 338z" />
<glyph unicode="&#x201d;" horiz-adv-x="620" d="M23 1004q-14 62 18 231t70 281q14 41 53 28q15 -4 29 -12t32.5 -21t26.5 -18q27 -16 37 -38t4 -64q-23 -155 -86 -338q-21 -62 -57 -68q-13 -4 -37 -5t-37 -5q-17 -9 -32.5 -4t-20.5 33zM266 963q7 108 53.5 270.5t98.5 277.5q18 42 65 19q14 -7 38 -22t36 -21 q31 -18 39 -41.5t-2 -77.5q-19 -98 -61 -215.5t-80 -191.5q-11 -21 -23.5 -32t-21 -12.5t-21.5 -1.5h-76q-24 0 -35 10t-10 38z" />
<glyph unicode="&#x201e;" horiz-adv-x="620" d="M-10 -244q-14 62 18 231t70 281q15 42 53 29q15 -4 29 -12t32.5 -21t26.5 -18q27 -16 37 -38.5t4 -64.5q-23 -155 -86 -338q-21 -61 -57 -67q-13 -4 -37.5 -5t-36.5 -5q-17 -9 -32.5 -4.5t-20.5 32.5zM233 -285q7 108 53.5 271.5t98.5 277.5q18 42 66 19 q14 -7 37.5 -21.5t35.5 -21.5q31 -18 39 -41.5t-2 -77.5q-19 -98 -61 -216t-80 -192q-11 -21 -23.5 -31.5t-20.5 -12t-22 -1.5h-75q-24 0 -35.5 10t-10.5 37z" />
<glyph unicode="&#x2022;" d="M41 623q0 45 5 72t23.5 56.5t62 42.5t112.5 11q67 -2 109 -14.5t64.5 -38.5t31 -55.5t12.5 -78.5q9 -106 -42 -151.5t-171 -36.5q-207 15 -207 193z" />
<glyph unicode="&#x2026;" horiz-adv-x="1583" d="M61 117q-6 86 42 121t161 26q53 -4 91.5 -19t59.5 -38.5t30 -49.5t8 -57q-1 -29 -4 -47.5t-14 -40t-30.5 -33t-56 -18.5t-88.5 -4q-62 4 -101 15t-59.5 33t-28.5 47t-10 65zM610 117q0 30 2.5 49.5t12.5 42.5t28.5 36t53.5 21.5t84 7.5q60 -1 97 -11.5t56.5 -33t26.5 -48 t10 -68.5q6 -90 -37.5 -128t-148.5 -32q-185 10 -185 164zM1153 117q0 30 2 50t12.5 44.5t28.5 38.5t53 23t84 8q59 -1 96.5 -12.5t56 -35.5t25 -50t9.5 -70q6 -89 -35.5 -123.5t-147.5 -28.5q-184 10 -184 156z" />
<glyph unicode="&#x202f;" horiz-adv-x="361" />
<glyph unicode="&#x2039;" d="M92 623q0 34 4 54.5t18 42t47 31t85 7.5q50 -2 81 -11.5t48 -28.5t23.5 -41t9.5 -59q7 -79 -31 -113t-129 -28q-156 10 -156 146z" />
<glyph unicode="&#x203a;" d="M92 623q0 34 4 54.5t18 42t47 31t85 7.5q50 -2 81 -11.5t48 -28.5t23.5 -41t9.5 -59q7 -79 -31 -113t-129 -28q-156 10 -156 146z" />
<glyph unicode="&#x205f;" horiz-adv-x="451" />
<glyph unicode="&#x2122;" horiz-adv-x="1421" d="M59 1323q-24 40 17 43q49 4 220.5 23.5t328.5 32t268 8.5q28 -1 42 -15.5t26 -44.5q32 -79 30 -110q-1 -18 -7.5 -24t-22.5 -9q-84 -19 -433 -35q15 -446 -6 -655q-3 -23 -13 -30.5t-36 -6.5q-15 1 -39 11.5t-35 12.5q-34 11 -50.5 30t-20.5 58q-13 110 9 525q2 33 3 49 q-24 -1 -72.5 -2t-66.5 -2q-22 -2 -39 4.5t-41 30.5q-20 21 -31.5 40.5t-19 39t-11.5 26.5zM614 561q-2 68 12.5 284.5t16.5 287.5q1 15 7.5 21.5t13.5 7.5t26 1q12 0 25.5 -3.5t34 -10.5t38.5 -12q7 -2 26.5 -6t29 -7.5t23.5 -10.5t21.5 -19t10.5 -29q19 -115 55 -246 q82 384 133 496q11 25 27.5 29.5t38.5 -1.5q14 -1 86 -26q69 -7 88 -14q22 -8 28 -20t3 -44q-14 -198 -7.5 -471t1.5 -328q-5 -29 -35 -26q-10 1 -42 2t-50 6q-24 7 -36 24t-18 64q-11 81 0 371q-24 -86 -51.5 -221.5t-40.5 -180.5q-5 -18 -10.5 -26t-19.5 -9q-11 -1 -72 13 q-4 1 -15 3.5t-14.5 3.5t-11 4t-11.5 7.5t-9.5 11.5t-10.5 17q-44 89 -90 250q-1 -69 2.5 -176t1.5 -142q-2 -23 -6.5 -29.5t-21.5 -7.5q-10 -1 -24.5 1t-37 7.5t-29.5 6.5q-32 7 -47.5 17t-26 40.5t-12.5 89.5z" />
<glyph unicode="&#x25fc;" horiz-adv-x="1351" d="M0 0v1352h1352v-1352h-1352z" />
<glyph unicode="&#xfb01;" d="M92 623q0 34 4 54.5t18 42t47 31t85 7.5q50 -2 81 -11.5t48 -28.5t23.5 -41t9.5 -59q7 -79 -31 -113t-129 -28q-156 10 -156 146z" />
<glyph unicode="&#xfb02;" d="M92 623q0 34 4 54.5t18 42t47 31t85 7.5q50 -2 81 -11.5t48 -28.5t23.5 -41t9.5 -59q7 -79 -31 -113t-129 -28q-156 10 -156 146z" />
</font>
</defs>
</svg>
