<?xml version="1.0" standalone="no"?>
<!DOCTYPE svg PUBLIC "-//W3C//DTD SVG 1.1//EN" "http://www.w3.org/Graphics/SVG/1.1/DTD/svg11.dtd" >
<svg xmlns="http://www.w3.org/2000/svg">
<metadata></metadata>
<defs>
<font id="brownthin_italic" horiz-adv-x="1163" >
<font-face units-per-em="2048" ascent="1638" descent="-410" />
<missing-glyph horiz-adv-x="542" />
<glyph unicode="&#xfb01;" d="M92 844l6 37h287l39 223q22 123 49 184q41 84 117.5 135.5t181.5 51.5q50 0 102 -15l-10 -35q-47 13 -92 13q-175 0 -260 -156q-27 -54 -49 -178l-39 -223h618l-155 -881h-39l149 844h-579l-150 -844h-39l150 844h-287zM1018 1208q0 26 17.5 44t43.5 18t44 -18t18 -44 t-18 -43.5t-44 -17.5t-43.5 17.5t-17.5 43.5z" />
<glyph unicode="&#xfb02;" d="M92 844l6 37h287l39 223q22 123 49 184q41 84 117.5 135.5t181.5 51.5q50 0 102 -15l-10 -35q-47 13 -92 13q-175 0 -260 -156q-27 -54 -49 -178l-39 -223h577l103 573h39l-256 -1454h-39l147 844h-577l-150 -844h-39l150 844h-287z" />
<glyph unicode="&#xfb03;" horiz-adv-x="1843" d="M92 844l6 37h287l39 223q22 123 49 184q41 84 117.5 135.5t181.5 51.5q50 0 102 -15l-10 -35q-47 13 -92 13q-175 0 -260 -156q-27 -54 -49 -178l-39 -223h641l39 223q22 123 49 184q41 84 117.5 135.5t181.5 51.5q50 0 102 -15l-10 -35q-47 13 -92 13q-175 0 -260 -156 q-27 -54 -49 -178l-39 -223h618l-155 -881h-39l149 844h-579l-150 -844h-39l150 844h-641l-150 -844h-39l150 844h-287zM1698 1208q0 26 17.5 44t43.5 18t44 -18t18 -44t-18 -43.5t-44 -17.5t-43.5 17.5t-17.5 43.5z" />
<glyph unicode="&#xfb04;" horiz-adv-x="1843" d="M92 844l6 37h287l39 223q22 123 49 184q41 84 117.5 135.5t181.5 51.5q50 0 102 -15l-10 -35q-47 13 -92 13q-175 0 -260 -156q-27 -54 -49 -178l-39 -223h641l39 223q22 123 49 184q41 84 117.5 135.5t181.5 51.5q50 0 102 -15l-10 -35q-47 13 -92 13q-175 0 -260 -156 q-27 -54 -49 -178l-39 -223h577l103 573h39l-256 -1454h-39l147 844h-577l-150 -844h-39l150 844h-641l-150 -844h-39l150 844h-287z" />
<glyph horiz-adv-x="0" />
<glyph horiz-adv-x="682" />
<glyph unicode=" "  horiz-adv-x="542" />
<glyph unicode="&#x09;" horiz-adv-x="542" />
<glyph unicode="&#xa0;" horiz-adv-x="542" />
<glyph unicode="!" horiz-adv-x="491" d="M102 51q0 29 21.5 50.5t50.5 21.5t50.5 -21.5t21.5 -50.5t-21.5 -50t-50.5 -21t-50.5 21t-21.5 50zM217 410l180 1024h39l-180 -1024h-39z" />
<glyph unicode="&#x22;" horiz-adv-x="759" d="M266 952l86 482h39l-86 -482h-39zM614 952l86 482h39l-86 -482h-39z" />
<glyph unicode="#" horiz-adv-x="1167" d="M98 492l6 36h230l102 377h-225l6 37h229l134 492h38l-133 -492h392l133 492h39l-134 -492h226l-6 -37h-230l-102 -377h225l-6 -36h-229l-131 -492h-39l131 492h-392l-131 -492h-38l131 492h-226zM373 528h391l102 377h-391z" />
<glyph unicode="$" horiz-adv-x="1046" d="M31 221l35 21q59 -99 162 -162.5t251 -63.5q98 0 185 42.5t143.5 126t56.5 188.5q0 61 -21 112t-57 87.5t-82.5 68t-97.5 58l-102 53t-97.5 57.5t-82.5 66t-57 84t-21 108q0 120 63.5 210t159 133.5t205.5 43.5h10l39 215h39l-39 -217q66 -6 126.5 -29.5t94 -46.5 t72.5 -57l-27 -29q-136 127 -315 127q-68 0 -134.5 -21.5t-124 -62.5t-93 -109t-35.5 -153q0 -55 21 -100.5t57 -79t82.5 -62.5t97.5 -55t102 -53t97.5 -60.5t82.5 -72.5t57 -94t21 -121q0 -166 -122.5 -279.5t-303.5 -113.5h-14l-39 -216h-39l39 218q-124 11 -226.5 71.5 t-168.5 167.5z" />
<glyph unicode="%" horiz-adv-x="1648" d="M168 1092q0 157 100.5 259.5t251.5 102.5q135 0 228.5 -91t93.5 -222q0 -157 -101 -260t-252 -103q-135 0 -228 91.5t-93 222.5zM209 1092q0 -116 81.5 -196.5t198.5 -80.5q134 0 223 93.5t89 232.5q0 115 -82 195.5t-199 80.5q-133 0 -222 -92.5t-89 -232.5zM285 0 l1089 1434h51l-1089 -1434h-51zM868 293q0 157 100.5 259.5t252.5 102.5q135 0 228 -91t93 -222q0 -157 -100.5 -259.5t-251.5 -102.5q-135 0 -228.5 91t-93.5 222zM909 293q0 -115 82 -196t199 -81q133 0 222 93t89 233q0 115 -81.5 195.5t-198.5 80.5q-134 0 -223 -93 t-89 -232z" />
<glyph unicode="&#x26;" horiz-adv-x="1339" d="M66 379q0 73 24 138.5t61 113.5t93.5 92t109 74t119.5 61q-75 87 -112 159t-37 148q0 124 83.5 206.5t210.5 82.5q117 0 197 -75t80 -187q0 -38 -10.5 -72t-25 -60.5t-43.5 -53t-53 -44.5t-67.5 -41.5t-72.5 -38t-82 -38.5l497 -551q133 200 133 455q0 64 -4 126l41 7 q4 -43 4 -133q0 -273 -145 -486l238 -262h-56l-207 227q-92 -117 -218.5 -182t-276.5 -65q-206 0 -343.5 108.5t-137.5 290.5zM106 385q0 -156 117.5 -262.5t323.5 -106.5q136 0 258 63.5t209 178.5l-514 571q-59 -27 -107 -53.5t-104 -68.5t-94 -86.5t-63.5 -106 t-25.5 -129.5zM365 1165q0 -75 40.5 -145t108.5 -146q45 20 66.5 30t61 29.5t59 33t49 34t44.5 39.5t31 43t22.5 51.5t6.5 57.5q0 98 -70 161.5t-166 63.5q-110 0 -181.5 -74.5t-71.5 -177.5z" />
<glyph unicode="'" horiz-adv-x="411" d="M266 952l86 482h39l-86 -482h-39z" />
<glyph unicode="(" horiz-adv-x="849" d="M346 301q0 613 471 1153l31 -27q-461 -527 -461 -1126q0 -390 172 -711l-35 -20q-178 327 -178 731z" />
<glyph unicode=")" horiz-adv-x="849" d="M20 -403q461 527 461 1126q0 390 -172 711l35 20q178 -327 178 -731q0 -613 -471 -1153z" />
<glyph unicode="*" horiz-adv-x="1003" d="M201 1120l12 37l360 -125l72 402h39l-74 -404l406 127l12 -35l-420 -131l185 -325l-33 -19l-187 326l-284 -326l-29 25l289 329z" />
<glyph unicode="+" horiz-adv-x="1071" d="M133 514l6 37h391l70 391h37l-70 -391h391l-6 -37h-391l-67 -391h-37l67 391h-391z" />
<glyph unicode="," horiz-adv-x="552" d="M35 -287l227 451h47l-227 -451h-47z" />
<glyph unicode="-" horiz-adv-x="839" d="M176 492l6 36h492l-6 -36h-492z" />
<glyph unicode="." horiz-adv-x="552" d="M154 51q0 29 21 50.5t50 21.5t50.5 -21.5t21.5 -50.5t-21.5 -50t-50.5 -21t-50 21t-21 50z" />
<glyph unicode="/" horiz-adv-x="987" d="M10 0l918 1434h49l-918 -1434h-49z" />
<glyph unicode="0" horiz-adv-x="1208" d="M160 498q0 133 20 264t65.5 257t110.5 222t163 154.5t216 58.5q201 0 304.5 -140t103.5 -378q0 -133 -20 -264t-65.5 -257t-111 -222t-163.5 -154.5t-216 -58.5q-201 0 -304 139.5t-103 378.5zM201 498q0 -226 93 -354t273 -128q91 0 170 39.5t136.5 108.5t102 158.5 t72 193.5t41 209.5t13.5 210.5q0 225 -93.5 353t-273.5 128q-91 0 -170 -39.5t-136.5 -108.5t-102 -158.5t-71.5 -193.5t-40.5 -209t-13.5 -210z" />
<glyph unicode="1" horiz-adv-x="796" d="M266 1196l6 45l373 193h19l-252 -1434h-39l239 1370z" />
<glyph unicode="2" horiz-adv-x="1085" d="M31 0l2 20l741 703q113 107 159 192.5t46 178.5q0 129 -94 226t-242 97q-126 0 -217.5 -65t-140.5 -170l-37 18q55 115 153.5 184.5t239.5 69.5q161 0 270 -103t109 -257q0 -98 -46.5 -190t-162.5 -202l-702 -665h757l-6 -37h-829z" />
<glyph unicode="3" horiz-adv-x="1097" d="M31 221l37 19q48 -102 152.5 -163t234.5 -61q186 0 319 130.5t133 316.5q0 169 -114.5 285t-290.5 116q-61 0 -113 -14l4 20l543 527h-637l6 37h711l-4 -21l-527 -512h17q193 0 319.5 -125t126.5 -313q0 -132 -66.5 -243.5t-180 -175.5t-246.5 -64q-145 0 -257.5 66 t-166.5 175z" />
<glyph unicode="4" horiz-adv-x="1150" d="M31 410l4 20l975 1004h20l-174 -988h244l-6 -36h-244l-72 -410h-39l72 410h-780zM104 446h713l158 895z" />
<glyph unicode="5" horiz-adv-x="1101" d="M111 166l28 24q61 -84 161.5 -129t211.5 -45q181 0 308.5 127.5t127.5 307.5q0 167 -112.5 280t-284.5 113q-179 0 -311 -139l-21 6l225 723h609l-6 -37h-570l-186 -598q119 82 260 82q190 0 314 -123.5t124 -306.5q0 -196 -138.5 -333.5t-338.5 -137.5 q-118 0 -223.5 46.5t-177.5 139.5z" />
<glyph unicode="6" horiz-adv-x="1146" d="M129 408q0 184 150 350l616 676h57l-551 -603q90 46 211 46q187 0 309.5 -123.5t122.5 -304.5q0 -129 -65 -237.5t-175 -170t-239 -61.5q-188 0 -312 123.5t-124 304.5zM170 408q0 -165 113 -278.5t282 -113.5q182 0 310.5 126t128.5 307q0 165 -111 278t-281 113 q-77 0 -152.5 -25.5t-133.5 -66.5l-11 -11q-145 -145 -145 -329z" />
<glyph unicode="7" horiz-adv-x="962" d="M82 0l919 1397h-802l6 37h860l-4 -21l-930 -1413h-49z" />
<glyph unicode="8" horiz-adv-x="1146" d="M139 371q0 167 107 288t270 148q-88 38 -140 115t-52 172q0 155 108.5 257.5t265.5 102.5q148 0 247 -92t99 -225t-80.5 -229t-207.5 -124q119 -43 190.5 -140.5t71.5 -221.5q0 -189 -133.5 -315.5t-325.5 -126.5q-181 0 -300.5 113t-119.5 278zM180 371q0 -149 108 -252 t271 -103q175 0 296.5 118t121.5 288q0 149 -108 251.5t-271 102.5q-175 0 -296.5 -117.5t-121.5 -287.5zM365 1094q0 -118 87.5 -199.5t217.5 -81.5q140 0 237 93.5t97 230.5q0 118 -88 199t-218 81q-140 0 -236.5 -93t-96.5 -230z" />
<glyph unicode="9" horiz-adv-x="1132" d="M186 985q0 129 65 237.5t175.5 170t239.5 61.5q188 0 312 -123.5t124 -304.5q0 -184 -150 -350l-616 -676h-57l550 602q-88 -45 -211 -45q-187 0 -309.5 123.5t-122.5 304.5zM227 985q0 -165 110.5 -278t280.5 -113q77 0 153 25.5t134 66.5l10 10q146 146 146 330 q0 165 -113 278t-282 113q-182 0 -310.5 -125.5t-128.5 -306.5z" />
<glyph unicode=":" horiz-adv-x="552" d="M154 51q0 29 21 50.5t50 21.5t50.5 -21.5t21.5 -50.5t-21.5 -50t-50.5 -21t-50 21t-21 50zM291 829q0 29 21 50.5t50 21.5t50.5 -21.5t21.5 -50.5t-21.5 -50t-50.5 -21t-50 21t-21 50z" />
<glyph unicode=";" horiz-adv-x="552" d="M35 -287l227 451h47l-227 -451h-47zM291 829q0 29 21 50.5t50 21.5t50.5 -21.5t21.5 -50.5t-21.5 -50t-50.5 -21t-50 21t-21 50z" />
<glyph unicode="&#x3c;" horiz-adv-x="1071" d="M115 522l4 21l880 352l-8 -43l-807 -324l695 -319l-7 -39z" />
<glyph unicode="=" horiz-adv-x="1071" d="M102 332l7 37h819l-6 -37h-820zM168 700l6 37h819l-6 -37h-819z" />
<glyph unicode="&#x3e;" horiz-adv-x="1071" d="M92 170l8 43l807 324l-694 319l6 39l758 -352l-4 -21z" />
<glyph unicode="?" horiz-adv-x="1060" d="M256 1165q45 129 148 209t253 80q160 0 261.5 -92.5t101.5 -231.5q0 -75 -29.5 -137t-77 -105t-104.5 -80t-114.5 -67.5t-105 -61t-77 -68.5t-29.5 -81q0 -55 41 -106l-32 -25q-14 14 -32 51t-18 80q0 50 29.5 93t77 75.5t104.5 64t114.5 66.5t105 75t77 98t29.5 128 q0 123 -90.5 205t-231.5 82q-135 0 -228 -73.5t-134 -190.5zM348 51q0 29 21.5 50.5t50.5 21.5t50.5 -21.5t21.5 -50.5t-21.5 -50t-50.5 -21t-50.5 21t-21.5 50z" />
<glyph unicode="@" horiz-adv-x="2088" d="M178 512q0 184 70.5 350.5t190.5 287t285.5 192t348.5 71.5q174 0 333 -62.5t276.5 -169.5t187 -260t69.5 -325q0 -132 -42 -240t-128.5 -175.5t-203.5 -67.5q-79 0 -145.5 37.5t-84.5 109.5q-50 -60 -132 -103.5t-181 -43.5q-166 0 -275.5 109.5t-109.5 271.5 q0 176 126 296.5t304 120.5q207 0 332 -168l26 150h39l-80 -459q-14 -75 -14 -121q0 -79 54.5 -121t140.5 -42q152 0 242.5 125t90.5 321q0 169 -68.5 316.5t-182 248t-263.5 158t-311 57.5q-138 0 -268 -43t-235 -123t-184.5 -186t-123 -238t-43.5 -274q0 -177 68.5 -337.5 t183.5 -275.5t273 -183t331 -68q277 0 494 168l22 -33q-107 -83 -240 -127.5t-278 -44.5q-183 0 -348.5 71.5t-285.5 192t-190.5 287t-70.5 350.5zM678 494q0 -147 97.5 -245.5t246.5 -98.5q96 0 176 44.5t131 108.5q0 39 14 125l46 266q-46 76 -129.5 128t-192.5 52 q-159 0 -274 -109.5t-115 -270.5z" />
<glyph unicode="A" horiz-adv-x="1351" d="M-20 0l868 1434h18l363 -1434h-41l-125 489h-739l-297 -489h-47zM346 526h707l-209 824z" />
<glyph unicode="B" horiz-adv-x="1265" d="M117 0l252 1434h403q142 0 213 -56q119 -89 119 -248q0 -99 -55 -182t-144 -127q-16 -10 -35 -16q125 -31 204 -130.5t79 -236.5q0 -128 -72.5 -237.5t-185.5 -157.5q-98 -43 -266 -43h-512zM162 37h452q170 0 260 39q104 43 171 145.5t67 216.5q0 101 -47 180t-127 121 q-81 43 -217 43h-428zM299 819h410q106 0 178 35q77 37 126.5 113.5t49.5 162.5q0 142 -105 220q-65 47 -184 47h-373z" />
<glyph unicode="C" horiz-adv-x="1507" d="M147 676q0 152 55.5 293.5t152 248.5t238 171.5t302.5 64.5q342 0 571 -260l-28 -27q-214 250 -543 250q-152 0 -286 -62t-225 -164.5t-143.5 -236.5t-52.5 -278q0 -190 87.5 -341.5t240 -235t342.5 -83.5q151 0 281.5 60t228.5 164l29 -27q-101 -109 -240 -171t-299 -62 q-150 0 -281 51.5t-226 142t-149.5 220.5t-54.5 282z" />
<glyph unicode="D" horiz-adv-x="1507" d="M117 0l252 1434h366q336 0 529 -193q178 -181 178 -483q0 -148 -59.5 -286.5t-165.5 -246.5q-219 -225 -611 -225h-489zM162 37h444q373 0 584 217q99 102 155 233.5t56 270.5q0 288 -168 459q-180 180 -502 180h-330z" />
<glyph unicode="E" horiz-adv-x="1044" d="M117 0l252 1434h737l-6 -37h-699l-102 -578h535l-7 -37h-534l-131 -745h719l-7 -37h-757z" />
<glyph unicode="F" horiz-adv-x="1003" d="M117 0l252 1434h737l-6 -37h-699l-102 -578h535l-7 -37h-534l-137 -782h-39z" />
<glyph unicode="G" horiz-adv-x="1605" d="M147 676q0 152 55.5 293.5t152 248.5t238 171.5t302.5 64.5q342 0 571 -260l-28 -27q-214 250 -543 250q-152 0 -286 -62t-225 -164.5t-143.5 -236.5t-52.5 -278q0 -190 87.5 -341.5t240 -235t342.5 -83.5q146 0 276 56t226 155l98 555h-534l6 37h573l-106 -606 q-100 -108 -241 -170.5t-298 -62.5q-150 0 -281 51.5t-226 142t-149.5 220.5t-54.5 282z" />
<glyph unicode="H" horiz-adv-x="1517" d="M117 0l252 1434h39l-109 -615h1036l109 615h39l-252 -1434h-39l137 782h-1036l-137 -782h-39z" />
<glyph unicode="I" horiz-adv-x="442" d="M117 0l252 1434h39l-252 -1434h-39z" />
<glyph unicode="J" horiz-adv-x="952" d="M20 197l39 14q44 -95 128 -145t180 -50q163 0 254 125q53 72 81 240l187 1053h39l-185 -1053q-31 -182 -84 -256q-106 -145 -292 -145q-114 0 -204.5 55.5t-142.5 161.5z" />
<glyph unicode="K" horiz-adv-x="1226" d="M117 0l252 1434h41l-115 -652l924 652h69l-948 -670l739 -764h-55l-733 756l-133 -756h-41z" />
<glyph unicode="L" horiz-adv-x="983" d="M117 0l252 1434h39l-246 -1397h719l-7 -37h-757z" />
<glyph unicode="M" horiz-adv-x="1691" d="M117 0l252 1434h18l438 -1051l813 1051h19l-252 -1434h-39l231 1311l-770 -983h-18l-420 995l-233 -1323h-39z" />
<glyph unicode="N" horiz-adv-x="1527" d="M117 0l252 1434h18l830 -1350l237 1350h39l-252 -1434h-18l-832 1348l-235 -1348h-39z" />
<glyph unicode="O" horiz-adv-x="1662" d="M147 676q0 150 61.5 294.5t170.5 256.5q109 111 248 169t286 58q141 0 267 -51t223 -148q94 -96 144 -224.5t50 -272.5q0 -151 -61.5 -295.5t-169.5 -255.5q-109 -111 -248.5 -169t-286.5 -58q-141 0 -266.5 50.5t-222.5 147.5q-95 96 -145 225.5t-50 272.5zM188 676 q0 -134 47 -258t136 -213q90 -91 212.5 -140t247.5 -49q137 0 269 55.5t235 159.5q103 106 162 245t59 282q0 134 -46.5 258t-135.5 213q-90 91 -212.5 139.5t-248.5 48.5q-137 0 -268.5 -55.5t-234.5 -159.5q-103 -106 -162.5 -244.5t-59.5 -281.5z" />
<glyph unicode="P" horiz-adv-x="1175" d="M117 0l252 1434h487q147 0 225 -60q125 -92 125 -262q0 -106 -58 -194.5t-151 -135.5q-80 -41 -225 -41h-485l-131 -741h-39zM293 778h479q125 0 205 37q84 40 136 121.5t52 175.5q0 156 -110 234q-73 51 -199 51h-455z" />
<glyph unicode="Q" horiz-adv-x="1673" d="M147 676q0 150 61.5 294.5t170.5 256.5q109 111 248 169t286 58q141 0 267 -51t223 -148q94 -96 144 -224.5t50 -272.5q0 -151 -61.5 -295.5t-169.5 -255.5l-6 -6l156 -201h-48l-135 174q-106 -95 -236 -144.5t-266 -49.5q-141 0 -266.5 50.5t-222.5 147.5 q-95 96 -145 225.5t-50 272.5zM188 676q0 -134 47 -258t136 -213q90 -91 212.5 -140t247.5 -49q128 0 253 49t225 142l-375 487l31 23l370 -486q103 106 162 245t59 282q0 134 -46.5 258t-135.5 213q-90 91 -212.5 139.5t-248.5 48.5q-137 0 -268.5 -55.5t-234.5 -159.5 q-103 -106 -162.5 -244.5t-59.5 -281.5z" />
<glyph unicode="R" horiz-adv-x="1259" d="M117 0l252 1434h444q142 0 213 -56q119 -89 119 -248q0 -99 -55 -182t-144 -127q-76 -39 -231 -39h-70l512 -782h-47l-512 782h-305l-137 -782h-39zM299 819h418q139 0 211 35q77 37 126.5 113.5t49.5 162.5q0 142 -105 220q-65 47 -184 47h-414z" />
<glyph unicode="S" horiz-adv-x="1046" d="M31 221l35 21q59 -99 162 -162.5t251 -63.5q98 0 185 42.5t143.5 126t56.5 188.5q0 61 -21 112t-57 87.5t-82.5 68t-97.5 58l-102 53t-97.5 57.5t-82.5 66t-57 84t-21 108q0 120 63.5 210t159 133.5t205.5 43.5q80 0 151 -23.5t109.5 -49t81.5 -62.5l-27 -29 q-136 127 -315 127q-68 0 -134.5 -21.5t-124 -62.5t-93 -109t-35.5 -153q0 -55 21 -100.5t57 -79t82.5 -62.5t97.5 -55t102 -53t97.5 -60.5t82.5 -72.5t57 -94t21 -121q0 -166 -122.5 -279.5t-303.5 -113.5q-140 0 -257.5 61t-190.5 180z" />
<glyph unicode="T" horiz-adv-x="1001" d="M184 1397l6 37h940l-6 -37h-450l-246 -1397h-39l246 1397h-451z" />
<glyph unicode="U" horiz-adv-x="1488" d="M195 436q0 55 18 154l147 844h39l-149 -850q-14 -89 -14 -144q0 -184 134 -304t330 -120q233 0 377.5 134t190.5 393l157 891h39l-157 -897q-48 -273 -200.5 -415t-406.5 -142q-138 0 -253.5 58.5t-183.5 163.5t-68 234z" />
<glyph unicode="V" horiz-adv-x="1273" d="M209 1434h41l311 -1348l785 1348h47l-834 -1434h-18z" />
<glyph unicode="W" horiz-adv-x="1906" d="M229 1434h41l197 -1328l651 1328h19l180 -1325l663 1325h45l-716 -1434h-19l-180 1321l-649 -1321h-19z" />
<glyph unicode="X" horiz-adv-x="1236" d="M-10 0l661 788l-319 646h47l303 -611l512 611h53l-547 -652l390 -782h-46l-372 748l-629 -748h-53z" />
<glyph unicode="Y" horiz-adv-x="1075" d="M205 1434h45l332 -682l573 682h53l-612 -729l-123 -705h-39l123 707z" />
<glyph unicode="Z" horiz-adv-x="1193" d="M-10 0l2 20l1159 1377h-854l6 37h922l-4 -21l-1164 -1376h963l-6 -37h-1024z" />
<glyph unicode="[" horiz-adv-x="849" d="M197 -410l325 1844h418l-6 -37h-379l-313 -1770h379l-7 -37h-417z" />
<glyph unicode="\" horiz-adv-x="483" d="M10 1434h43l420 -1434h-43z" />
<glyph unicode="]" horiz-adv-x="849" d="M-74 -410l6 37h379l314 1770h-379l6 37h418l-326 -1844h-418z" />
<glyph unicode="^" horiz-adv-x="1044" d="M176 717l486 717h18l233 -717h-43l-208 643l-439 -643h-47z" />
<glyph unicode="_" horiz-adv-x="901" d="M-43 -37l8 37h799l-8 -37h-799z" />
<glyph unicode="`" horiz-adv-x="530" d="M143 1311h45l199 -267h-45z" />
<glyph unicode="a" d="M92 418q0 135 66 246t180 174t252 63q123 0 222 -58t161 -145l31 183h38l-155 -881h-39l22 129q-60 -65 -148 -107t-187 -42q-191 0 -317 125.5t-126 312.5zM133 418q0 -171 114 -286.5t288 -115.5q101 0 191 46.5t153 123.5l84 469q-58 89 -153 149t-220 60 q-190 0 -323.5 -128.5t-133.5 -317.5z" />
<glyph unicode="b" horiz-adv-x="1159" d="M106 0l256 1454h39l-122 -702q60 65 148 107t187 42q191 0 317 -125.5t126 -312.5q0 -135 -66 -246t-180 -174t-252 -63q-123 0 -222 57.5t-161 144.5l-31 -182h-39zM186 225q58 -89 153 -149t220 -60q190 0 323.5 129t133.5 318q0 171 -114 286t-288 115 q-101 0 -191 -46.5t-153 -123.5z" />
<glyph unicode="c" horiz-adv-x="1034" d="M92 408q0 206 142 349.5t350 143.5q106 0 201 -45t157 -123l-29 -24q-57 72 -143 113.5t-186 41.5q-190 0 -320.5 -134t-130.5 -322q0 -164 122 -278t292 -114q191 0 317 136l27 -29q-140 -143 -344 -143q-87 0 -169 31t-145.5 85t-102 135.5t-38.5 176.5z" />
<glyph unicode="d" d="M92 418q0 135 66 246t180 174t252 63q123 0 222 -58t161 -145l131 756h39l-256 -1454h-39l22 129q-60 -65 -148 -107t-187 -42q-191 0 -317 125.5t-126 312.5zM133 418q0 -171 114 -286.5t288 -115.5q101 0 191 46.5t153 123.5l84 469q-58 89 -153 149t-220 60 q-190 0 -323.5 -128.5t-133.5 -317.5z" />
<glyph unicode="e" horiz-adv-x="1034" d="M92 408q0 135 59 248.5t162 179t228 65.5q165 0 278 -110t113 -277q0 -31 -2 -47h-795q-2 -18 -2 -59q0 -130 68 -230q53 -76 138.5 -119t188.5 -43q182 0 310 131l26 -30q-137 -137 -334 -137q-108 0 -204.5 43t-157.5 131q-76 109 -76 254zM141 504h750 q0 162 -100.5 261t-249.5 99t-259.5 -102.5t-140.5 -257.5z" />
<glyph unicode="f" horiz-adv-x="751" d="M92 844l6 37h287l39 223q22 123 49 184q41 84 117.5 135.5t181.5 51.5q50 0 102 -15l-10 -35q-47 13 -92 13q-175 0 -260 -156q-27 -54 -49 -178l-39 -223h358l-6 -37h-358l-150 -844h-39l150 844h-287z" />
<glyph unicode="g" d="M8 -307l33 24q133 -192 385 -192q212 0 317 143q32 44 52.5 105t40.5 164l34 192q-60 -65 -148 -107t-187 -42q-191 0 -317 125.5t-126 312.5q0 135 66 246t180 174t252 63q123 0 222 -58t161 -145l31 183h38l-174 -987q-25 -153 -92 -248q-115 -158 -350 -158 q-269 0 -418 205zM133 418q0 -171 114 -286.5t288 -115.5q101 0 191 46.5t153 123.5l84 469q-58 89 -153 149t-220 60q-190 0 -323.5 -128.5t-133.5 -317.5z" />
<glyph unicode="h" horiz-adv-x="1146" d="M106 0l256 1454h39l-131 -754q70 88 172.5 144.5t214.5 56.5q82 0 151.5 -31t115.5 -88q69 -88 69 -215q0 -38 -18 -151l-74 -416h-39l78 438q14 86 14 127q0 116 -63 195q-81 104 -234 104q-118 0 -221.5 -64.5t-179.5 -176.5l-111 -623h-39z" />
<glyph unicode="i" horiz-adv-x="421" d="M106 0l156 881h39l-156 -881h-39zM276 1208q0 26 18 44t44 18t43.5 -18t17.5 -44t-17.5 -43.5t-43.5 -17.5t-44 17.5t-18 43.5z" />
<glyph unicode="j" horiz-adv-x="479" d="M-225 -463l8 37q30 -6 63 -6q173 0 256 153q28 58 48 181l172 979h38l-172 -979q-24 -135 -47 -187q-41 -83 -115.5 -133.5t-179.5 -50.5q-28 0 -71 6zM336 1208q0 26 17.5 44t43.5 18t44 -18t18 -44t-18 -43.5t-44 -17.5t-43.5 17.5t-17.5 43.5z" />
<glyph unicode="k" horiz-adv-x="942" d="M106 0l256 1454h39l-168 -956l621 383h78l-649 -400l557 -481h-64l-547 475l-84 -475h-39z" />
<glyph unicode="l" horiz-adv-x="421" d="M106 0l256 1454h39l-256 -1454h-39z" />
<glyph unicode="m" horiz-adv-x="1878" d="M106 0l156 881h39l-31 -181q71 88 171.5 144.5t207.5 56.5q166 0 262 -119q47 -64 60 -131q47 65 102 117t141.5 92.5t178.5 40.5q166 0 262 -119q69 -88 69 -215q0 -38 -18 -151l-74 -416h-39l78 438q15 92 15 127q0 115 -64 195q-81 104 -229 104q-128 0 -234 -75 t-180 -195q2 -8 2 -27q0 -38 -18 -151l-74 -416h-39l78 438q14 86 14 127q0 116 -63 195q-81 104 -230 104q-112 0 -214.5 -65t-178.5 -176l-111 -623h-39z" />
<glyph unicode="n" horiz-adv-x="1146" d="M106 0l156 881h39l-31 -181q70 88 172.5 144.5t214.5 56.5q82 0 151.5 -31t115.5 -88q69 -88 69 -215q0 -38 -18 -151l-74 -416h-39l78 438q14 86 14 127q0 116 -63 195q-81 104 -234 104q-118 0 -221.5 -64.5t-179.5 -176.5l-111 -623h-39z" />
<glyph unicode="o" horiz-adv-x="1134" d="M92 418q0 132 67 243.5t180.5 175.5t246.5 64q192 0 319 -126t127 -312q0 -132 -66.5 -243.5t-180 -175.5t-246.5 -64q-192 0 -319.5 126t-127.5 312zM133 418q0 -169 116.5 -285.5t289.5 -116.5q121 0 224.5 59t165.5 162.5t62 225.5q0 169 -116 285t-289 116 q-90 0 -173.5 -35t-145 -94t-98 -142t-36.5 -175z" />
<glyph unicode="p" horiz-adv-x="1159" d="M20 -492l242 1373h39l-22 -129q60 65 148 107t187 42q191 0 317 -125.5t126 -312.5q0 -135 -66 -246t-180 -174t-252 -63q-123 0 -222 57.5t-161 144.5l-117 -674h-39zM186 225q58 -89 153 -149t220 -60q190 0 323.5 129t133.5 318q0 171 -114 286t-288 115 q-101 0 -191 -46.5t-153 -123.5z" />
<glyph unicode="q" d="M92 418q0 135 66 246t180 174t252 63q123 0 222 -58t161 -145l31 183h38l-241 -1373h-39l108 621q-60 -65 -148 -107t-187 -42q-191 0 -317 125.5t-126 312.5zM133 418q0 -171 114 -286.5t288 -115.5q101 0 191 46.5t153 123.5l84 469q-58 89 -153 149t-220 60 q-190 0 -323.5 -128.5t-133.5 -317.5z" />
<glyph unicode="r" horiz-adv-x="657" d="M106 0l156 881h39l-29 -172q124 192 334 192q19 0 31 -2l-8 -37q-12 2 -27 2q-207 0 -346 -241l-111 -623h-39z" />
<glyph unicode="s" horiz-adv-x="808" d="M31 111l28 28q123 -123 299 -123q96 0 174 59.5t78 155.5q0 52 -25 90t-65 61t-88 42t-96 37.5t-88 42t-65 63t-25 92.5q0 76 44.5 133t109.5 83t137 26q144 0 268 -88l-25 -29q-100 80 -243 80q-63 0 -118 -21t-93.5 -69t-38.5 -115q0 -46 25 -80t65 -55t88 -39t96 -38 t88 -45.5t65 -69t25 -101.5q0 -107 -89 -179t-202 -72q-186 0 -329 131z" />
<glyph unicode="t" horiz-adv-x="792" d="M82 844l6 37h287l47 266h39l-47 -266h358l-6 -37h-358l-86 -490q-15 -97 -15 -127q0 -96 67.5 -153.5t178.5 -57.5q37 0 84 9l4 -37q-39 -8 -88 -8q-120 0 -203.5 65.5t-83.5 181.5q0 27 17 127l86 490h-287z" />
<glyph unicode="u" horiz-adv-x="1144" d="M150 313q0 39 18 152l74 416h39l-78 -439q-15 -92 -15 -127q0 -114 64 -194q82 -105 229 -105q112 0 214.5 65.5t178.5 176.5l111 623h39l-156 -881h-39l31 180q-70 -87 -171 -143.5t-208 -56.5q-167 0 -262 118q-69 88 -69 215z" />
<glyph unicode="v" horiz-adv-x="970" d="M113 881h43l245 -805l531 805h49l-580 -881h-18z" />
<glyph unicode="w" horiz-adv-x="1490" d="M123 881h41l186 -797l451 797h18l164 -793l461 793h47l-512 -881h-18l-166 788l-447 -788h-18z" />
<glyph unicode="x" horiz-adv-x="940" d="M0 0l444 489l-227 392h49l209 -363l330 363h53l-360 -398l278 -483h-47l-264 453l-410 -453h-55z" />
<glyph unicode="y" horiz-adv-x="958" d="M31 -496l372 578l-307 799h41l295 -756l488 756h49l-889 -1377h-49z" />
<glyph unicode="z" horiz-adv-x="903" d="M-10 0l4 20l788 824h-602l6 37h676l-4 -21l-792 -823h688l-6 -37h-758z" />
<glyph unicode="{" horiz-adv-x="849" d="M233 492l7 40q52 5 84.5 28.5t52.5 74.5q25 65 40.5 169t22.5 192t26.5 179t51.5 140q41 63 115.5 91t195.5 28h52l-7 -37h-51q-107 0 -172.5 -25.5t-103.5 -81.5q-34 -49 -51.5 -162t-33 -254.5t-38.5 -220.5q-15 -52 -41 -87t-76 -58q26 -11 46 -42.5t20 -82.5 q0 -93 -49.5 -274t-49.5 -275q0 -95 58.5 -151t187.5 -56h41l-6 -37h-41q-139 0 -208.5 67t-69.5 175q0 93 49 275t49 276t-101 109z" />
<glyph unicode="|" horiz-adv-x="307" d="M-23 -410l326 1844h39l-326 -1844h-39z" />
<glyph unicode="}" horiz-adv-x="849" d="M-14 -410l6 37h51q107 0 172.5 25.5t103.5 81.5q34 49 51.5 162t33 254.5t38.5 220.5q15 52 41 87t76 58q-26 11 -45.5 42.5t-19.5 82.5q0 93 49 274t49 275q0 95 -58.5 151t-187.5 56h-41l6 37h41q139 0 209 -67t70 -175q0 -93 -49.5 -275t-49.5 -276t101 -109l-6 -40 q-53 -5 -85.5 -28.5t-52.5 -74.5q-25 -65 -40.5 -169t-22.5 -192t-26.5 -179t-51.5 -140q-41 -63 -115.5 -91t-195.5 -28h-51z" />
<glyph unicode="~" horiz-adv-x="983" d="M92 461q39 94 97.5 138t125.5 44q45 0 86 -18.5t72.5 -45t62 -53t67 -45t75.5 -18.5q62 0 106 40t80 118l37 -13q-39 -94 -97.5 -138t-125.5 -44q-45 0 -86 18.5t-72.5 45t-62 53t-67 45t-75.5 18.5q-63 0 -106.5 -39.5t-79.5 -117.5z" />
<glyph unicode="&#xa1;" horiz-adv-x="491" d="M47 -492l180 1024h39l-180 -1024h-39zM227 829q0 29 21.5 50.5t50.5 21.5t50.5 -21.5t21.5 -50.5t-21.5 -50t-50.5 -21t-50.5 21t-21.5 50z" />
<glyph unicode="&#xa2;" horiz-adv-x="1034" d="M92 408q0 206 142 349.5t350 143.5q6 0 19.5 -1t19.5 -1l39 217h38l-38 -221q174 -31 280 -162l-29 -24q-57 72 -143 113.5t-186 41.5q-190 0 -320.5 -134t-130.5 -322q0 -164 122 -278t292 -114q191 0 317 136l27 -29q-140 -143 -344 -143q-8 0 -24 1t-23 1l-37 -218 h-39l39 224q-157 26 -264 140t-107 280z" />
<glyph unicode="&#xa3;" horiz-adv-x="978" d="M-20 0l2 20q97 38 185 115.5t146 185t58 214.5q0 97 -25 208h-194l6 37h180q-3 11 -10 41.5t-10 44t-8.5 41t-8 45.5t-4.5 43t-2 49q0 169 113.5 289.5t287.5 120.5q104 0 193.5 -52t130.5 -136l-35 -19q-38 72 -114.5 121t-174.5 49q-155 0 -257.5 -109t-102.5 -264 q0 -35 5 -74.5t9 -58.5t16.5 -71t14.5 -60h258l-6 -37h-244q23 -126 23 -211q0 -82 -28 -161t-74.5 -141.5t-96.5 -109.5t-104 -83h768l-7 -37h-890z" />
<glyph unicode="&#xa4;" horiz-adv-x="1024" d="M82 315l147 148q-98 109 -98 256t98 256l-147 147l27 27l147 -148q110 99 256 99t256 -99l147 148l27 -27l-147 -147q98 -109 98 -256t-98 -256l147 -148l-27 -26l-147 147q-109 -98 -256 -98t-256 98l-147 -147zM172 719q0 -141 99.5 -240.5t240.5 -99.5t240.5 99.5 t99.5 240.5t-99.5 240.5t-240.5 99.5t-240.5 -99.5t-99.5 -240.5z" />
<glyph unicode="&#xa5;" horiz-adv-x="1075" d="M78 535l6 36h448l25 136l-76 155h-346l6 37h322l-258 535h45l332 -682l573 682h53l-450 -535h325l-6 -37h-350l-131 -157l-25 -134h455l-6 -36h-455l-92 -535h-39l92 535h-448z" />
<glyph unicode="&#xa6;" horiz-adv-x="389" d="M18 -410l142 799h39l-142 -799h-39zM203 635l141 799h39l-141 -799h-39z" />
<glyph unicode="&#xa7;" horiz-adv-x="1069" d="M39 -336l27 29q140 -127 329 -127q90 0 170.5 34.5t133.5 104.5t53 160q0 65 -27.5 115.5t-72.5 80.5t-102.5 58t-117 48t-117 50t-102.5 64.5t-72.5 91.5t-27.5 131q0 135 84 238t219 139q-129 83 -129 237q0 78 36 143.5t94 106.5t127.5 63.5t139.5 22.5 q196 0 356 -135l-26 -29q-140 127 -330 127q-90 0 -170 -34.5t-133 -104.5t-53 -160q0 -65 27.5 -115.5t72.5 -80.5t102.5 -58t117 -48t117 -50t102.5 -64.5t72.5 -91.5t27.5 -131q0 -135 -85 -239t-220 -138q131 -88 131 -237q0 -78 -36 -143.5t-94 -106.5t-128 -63.5 t-140 -22.5q-196 0 -356 135zM154 504q0 -60 22 -108.5t55 -78.5t83.5 -57.5t96.5 -44.5t106 -41t99 -45q131 26 220.5 120t89.5 230q0 72 -28.5 125t-82.5 88t-106 58t-127.5 51t-118.5 51q-130 -25 -219.5 -119t-89.5 -229z" />
<glyph unicode="&#xa8;" horiz-adv-x="696" d="M143 1167q0 26 18 44t44 18t43.5 -18t17.5 -44t-17.5 -43.5t-43.5 -17.5t-44 17.5t-18 43.5zM430 1167q0 26 18 44t44 18t43.5 -18t17.5 -44t-17.5 -43.5t-43.5 -17.5t-44 17.5t-18 43.5z" />
<glyph unicode="&#xa9;" horiz-adv-x="1720" d="M174 717q0 145 57 278t153 229t229 153t278 57t278 -57t229 -153t153 -229t57 -278t-57 -278t-153 -229t-229 -153t-278 -57t-278 57t-229 153t-153 229t-57 278zM211 717q0 -138 54 -264t145 -217t217 -145t264 -54t264 54t217 145t145 217t54 264t-54 264t-145 217 t-217 145t-264 54t-264 -54t-217 -145t-145 -217t-54 -264zM508 721q0 171 113 288t278 117q149 0 254 -102l-23 -27q-96 93 -231 93q-148 0 -249 -107t-101 -262q0 -154 102.5 -260.5t255.5 -106.5q140 0 246 99l25 -29q-116 -107 -271 -107q-171 0 -285 117t-114 287z" />
<glyph unicode="&#xaa;" horiz-adv-x="870" d="M227 1133q0 136 98 228.5t240 92.5q152 0 250 -125l16 105h39l-100 -574h-39l12 72q-40 -41 -98 -66.5t-119 -25.5q-129 0 -214 84t-85 209zM268 1133q0 -108 74 -182t184 -74q125 0 230 116l49 289q-35 57 -98.5 96t-141.5 39q-125 0 -211 -82t-86 -202z" />
<glyph unicode="&#xab;" horiz-adv-x="1075" d="M158 461l4 20l364 359h58l-379 -373l248 -365h-50zM588 461l4 20l364 359h58l-379 -373l248 -365h-49z" />
<glyph unicode="&#xac;" horiz-adv-x="1071" d="M168 700l6 37h819l-71 -405h-37l65 368h-782z" />
<glyph unicode="&#xad;" horiz-adv-x="839" d="M176 492l6 36h492l-6 -36h-492z" />
<glyph unicode="&#xae;" horiz-adv-x="1720" d="M174 717q0 145 57 278t153 229t229 153t278 57t278 -57t229 -153t153 -229t57 -278t-57 -278t-153 -229t-229 -153t-278 -57t-278 57t-229 153t-153 229t-57 278zM211 717q0 -138 54 -264t145 -217t217 -145t264 -54t264 54t217 145t145 217t54 264t-54 264t-145 217 t-217 145t-264 54t-264 -54t-217 -145t-145 -217t-54 -264zM643 330v784h275q111 0 161 -41q68 -55 68 -147q0 -93 -68 -148q-50 -41 -161 -41h-11l330 -407h-45l-330 407h-178v-407h-41zM684 774h229q104 0 144 37q49 46 49 115q0 68 -49 114q-40 37 -144 37h-229v-303z " />
<glyph unicode="&#xaf;" horiz-adv-x="778" d="M143 1133v36h492v-36h-492z" />
<glyph unicode="&#xb0;" horiz-adv-x="798" d="M205 1137q0 123 87 210t210 87t210 -87t87 -210t-87 -210t-210 -87t-210 87t-87 210zM246 1137q0 -106 75 -181t181 -75t181 75t75 181t-75 181t-181 75t-181 -75t-75 -181z" />
<glyph unicode="&#xb1;" horiz-adv-x="1071" d="M66 123l6 37h819l-6 -37h-819zM141 563l6 37h394l59 342h37l-59 -342h389l-6 -37h-390l-59 -342h-37l60 342h-394z" />
<glyph unicode="&#xb2;" horiz-adv-x="557" d="M82 696l4 23l356 330q68 62 96.5 108.5t28.5 102.5q0 67 -48.5 112t-115.5 45q-110 0 -178 -106l-30 22q33 58 89 89.5t119 31.5q88 0 146.5 -56.5t58.5 -137.5q0 -110 -129 -230l-321 -297h368l-6 -37h-438z" />
<glyph unicode="&#xb3;" horiz-adv-x="552" d="M92 793l29 22q35 -47 86.5 -74.5t111.5 -27.5q88 0 157 66t69 159q0 88 -55 143.5t-144 55.5q-23 0 -63 -9l4 23l264 246h-326l6 37h394l-4 -23l-256 -237q99 -4 160 -74t61 -162q0 -106 -78.5 -184t-188.5 -78q-66 0 -128 32t-99 85z" />
<glyph unicode="&#xb4;" horiz-adv-x="530" d="M143 1044l199 267h45l-199 -267h-45z" />
<glyph unicode="&#xb5;" horiz-adv-x="1161" d="M20 -492l242 1373h39l-78 -439q-14 -86 -14 -127q0 -138 87 -218.5t214 -80.5q120 0 218.5 69t162.5 173l110 623h39l-155 -881h-39l31 178q-63 -89 -161.5 -143.5t-205.5 -54.5q-119 0 -208.5 62t-119.5 169l-123 -703h-39z" />
<glyph unicode="&#xb6;" horiz-adv-x="1382" d="M174 961q0 210 145 341.5t363 131.5h715l-6 -37h-205l-320 -1807h-39l320 1807h-432l-320 -1807h-39l170 965q-153 19 -252.5 133.5t-99.5 272.5zM215 961q0 -145 89 -247t228 -122l144 805q-199 -3 -330 -124t-131 -312z" />
<glyph unicode="&#xb7;" horiz-adv-x="552" d="M215 440q0 29 21.5 50.5t50.5 21.5t50 -21.5t21 -50.5t-21 -50t-50 -21t-50.5 21t-21.5 50z" />
<glyph unicode="&#xb8;" horiz-adv-x="407" d="M143 -287l82 287h39l-82 -287h-39z" />
<glyph unicode="&#xb9;" horiz-adv-x="409" d="M195 1290l6 43l219 101h20l-129 -738h-43l121 682z" />
<glyph unicode="&#xba;" horiz-adv-x="839" d="M227 1126q0 137 92.5 232.5t231.5 95.5q123 0 206 -83t83 -204q0 -137 -92.5 -232t-231.5 -95q-123 0 -206 83t-83 203zM268 1126q0 -106 72 -177.5t176 -71.5q122 0 202.5 84.5t80.5 205.5q0 106 -72 178t-176 72q-122 0 -202.5 -85t-80.5 -206z" />
<glyph unicode="&#xbb;" horiz-adv-x="1075" d="M61 102l379 373l-247 365h49l245 -359l-4 -20l-364 -359h-58zM492 102l378 373l-247 365h49l246 -359l-5 -20l-364 -359h-57z" />
<glyph unicode="&#xbc;" horiz-adv-x="1054" d="M-10 0l1089 1434h51l-1089 -1434h-51zM195 1290l6 43l219 101h20l-129 -738h-43l121 682zM424 195l4 20l522 522h21l-90 -506h133l-6 -36h-134l-32 -195h-43l32 195h-407zM500 231h338l73 414z" />
<glyph unicode="&#xbd;" horiz-adv-x="1236" d="M-10 0l1089 1434h51l-1089 -1434h-51zM195 1290l6 43l219 101h20l-129 -738h-43l121 682zM639 0l4 23l356 329q68 62 96.5 108.5t28.5 102.5q0 67 -48 112.5t-115 45.5q-111 0 -179 -107l-30 23q33 58 89 89.5t120 31.5q88 0 146 -57t58 -138q0 -109 -129 -229l-321 -297 h368l-6 -37h-438z" />
<glyph unicode="&#xbe;" horiz-adv-x="1157" d="M92 0l1090 1434h51l-1090 -1434h-51zM92 793l29 22q35 -47 86.5 -74.5t111.5 -27.5q88 0 157 66t69 159q0 88 -55 143.5t-144 55.5q-23 0 -63 -9l4 23l264 246h-326l6 37h394l-4 -23l-256 -237q99 -4 160 -74t61 -162q0 -106 -78.5 -184t-188.5 -78q-66 0 -128 32t-99 85 zM526 195l4 20l523 522h20l-90 -506h133l-6 -36h-133l-33 -195h-43l33 195h-408zM602 231h338l74 414z" />
<glyph unicode="&#xbf;" horiz-adv-x="1060" d="M102 -188q0 75 29.5 137t77 105t104.5 80t114.5 67.5t105 61t77 68.5t29.5 81q0 55 -41 106l33 25q14 -14 31.5 -51t17.5 -80q0 -50 -29.5 -93t-77 -75.5t-104.5 -64t-114.5 -66.5t-105 -75t-77 -98t-29.5 -128q0 -123 90.5 -205t231.5 -82q135 0 228 73.5t134 190.5 l39 -12q-45 -129 -148 -209t-253 -80q-160 0 -261.5 92.5t-101.5 231.5zM631 891q0 29 21 50.5t50 21.5t50.5 -21.5t21.5 -50.5t-21.5 -50.5t-50.5 -21.5t-50 21.5t-21 50.5z" />
<glyph unicode="&#xc0;" horiz-adv-x="1351" d="M-20 0l868 1434h18l363 -1434h-41l-125 489h-739l-297 -489h-47zM346 526h707l-209 824zM645 1782h45l199 -266h-45z" />
<glyph unicode="&#xc1;" horiz-adv-x="1351" d="M-20 0l868 1434h18l363 -1434h-41l-144 561h-677l-340 -561h-47zM389 598h645l-190 752zM850 1516l199 266h45l-199 -266h-45z" />
<glyph unicode="&#xc2;" horiz-adv-x="1351" d="M-20 0l868 1434h18l363 -1434h-41l-144 561h-677l-340 -561h-47zM389 598h645l-190 752zM600 1516l256 266h64l161 -266h-45l-147 241l-232 -241h-57z" />
<glyph unicode="&#xc3;" horiz-adv-x="1351" d="M-20 0l868 1434h18l363 -1434h-41l-125 489h-739l-297 -489h-47zM346 526h707l-209 824zM582 1573q9 71 44.5 109t92.5 38q37 0 80 -19t75.5 -41.5t72 -41.5t71.5 -19q84 0 98 117l39 -6q-9 -71 -44.5 -109t-92.5 -38q-47 0 -101.5 30t-106 60t-91.5 30q-84 0 -98 -116z " />
<glyph unicode="&#xc4;" horiz-adv-x="1351" d="M-20 0l868 1434h18l363 -1434h-41l-125 489h-739l-297 -489h-47zM346 526h707l-209 824zM680 1638q0 26 17.5 44t43.5 18t44 -18t18 -44t-18 -43.5t-44 -17.5t-43.5 17.5t-17.5 43.5zM967 1638q0 26 17.5 44t43.5 18t44 -18t18 -44t-18 -43.5t-44 -17.5t-43.5 17.5 t-17.5 43.5z" />
<glyph unicode="&#xc5;" horiz-adv-x="1351" d="M-20 0l868 1434h18l363 -1434h-41l-125 489h-739l-297 -489h-47zM346 526h707l-209 824zM725 1679q0 67 48.5 115.5t115.5 48.5t115.5 -48.5t48.5 -115.5t-48 -115t-116 -48t-116 48t-48 115zM762 1679q0 -53 37 -90t90 -37t90 37t37 90t-37 90t-90 37t-90 -37t-37 -90z " />
<glyph unicode="&#xc6;" horiz-adv-x="1808" d="M-41 0l1147 1434h764l-6 -37h-699l-102 -578h555l-6 -37h-555l-131 -745h719l-7 -37h-757l86 489h-568l-389 -489h-51zM430 526h543l151 865z" />
<glyph unicode="&#xc7;" horiz-adv-x="1507" d="M147 676q0 152 55.5 293.5t152 248.5t238 171.5t302.5 64.5q342 0 571 -260l-28 -27q-214 250 -543 250q-152 0 -286 -62t-225 -164.5t-143.5 -236.5t-52.5 -278q0 -190 87.5 -341.5t240 -235t342.5 -83.5q151 0 281.5 60t228.5 164l29 -27q-101 -109 -240 -171t-299 -62 q-50 0 -96 6l-78 -273h-39l78 279q-256 42 -416 228t-160 456z" />
<glyph unicode="&#xc8;" horiz-adv-x="1044" d="M117 0l252 1434h737l-6 -37h-699l-102 -578h535l-7 -37h-534l-131 -745h719l-7 -37h-757zM557 1782h45l199 -266h-45z" />
<glyph unicode="&#xc9;" horiz-adv-x="1044" d="M117 0l252 1434h737l-6 -37h-699l-102 -578h535l-7 -37h-534l-131 -745h719l-7 -37h-757zM698 1516l199 266h45l-199 -266h-45z" />
<glyph unicode="&#xca;" horiz-adv-x="1044" d="M117 0l252 1434h737l-6 -37h-699l-102 -578h535l-7 -37h-534l-131 -745h719l-7 -37h-757zM510 1516l256 266h63l162 -266h-45l-147 241l-232 -241h-57z" />
<glyph unicode="&#xcb;" horiz-adv-x="1044" d="M117 0l252 1434h737l-6 -37h-699l-102 -578h535l-7 -37h-534l-131 -745h719l-7 -37h-757zM557 1638q0 26 17.5 44t43.5 18t44 -18t18 -44t-18 -43.5t-44 -17.5t-43.5 17.5t-17.5 43.5zM844 1638q0 26 17.5 44t43.5 18t44 -18t18 -44t-18 -43.5t-44 -17.5t-43.5 17.5 t-17.5 43.5z" />
<glyph unicode="&#xcc;" horiz-adv-x="442" d="M117 0l252 1434h39l-252 -1434h-39zM178 1782h45l199 -266h-45z" />
<glyph unicode="&#xcd;" horiz-adv-x="442" d="M117 0l252 1434h39l-252 -1434h-39zM367 1516l198 266h45l-198 -266h-45z" />
<glyph unicode="&#xce;" horiz-adv-x="442" d="M117 0l252 1434h39l-252 -1434h-39zM152 1516l256 266h63l162 -266h-45l-148 241l-231 -241h-57z" />
<glyph unicode="&#xcf;" horiz-adv-x="442" d="M117 0l252 1434h39l-252 -1434h-39zM209 1638q0 26 17.5 44t43.5 18t44 -18t18 -44t-18 -43.5t-44 -17.5t-43.5 17.5t-17.5 43.5zM496 1638q0 26 17.5 44t43.5 18t43.5 -18t17.5 -44t-17.5 -43.5t-43.5 -17.5t-43.5 17.5t-17.5 43.5z" />
<glyph unicode="&#xd0;" horiz-adv-x="1507" d="M49 782l6 37h205l109 615h366q336 0 529 -193q178 -181 178 -483q0 -148 -59.5 -286.5t-165.5 -246.5q-219 -225 -611 -225h-489l137 782h-205zM162 37h444q373 0 584 217q99 102 155 233.5t56 270.5q0 288 -168 459q-180 180 -502 180h-330l-102 -578h410l-7 -37h-409z " />
<glyph unicode="&#xd1;" horiz-adv-x="1527" d="M117 0l252 1434h18l830 -1350l237 1350h39l-252 -1434h-18l-832 1348l-235 -1348h-39zM659 1573q9 70 45 108.5t93 38.5q37 0 80 -19t75.5 -41.5t72 -41.5t71.5 -19q84 0 98 117l39 -6q-9 -71 -44.5 -109t-92.5 -38q-47 0 -101.5 30t-106 60t-91.5 30q-85 0 -99 -116z " />
<glyph unicode="&#xd2;" horiz-adv-x="1662" d="M147 676q0 150 61.5 294.5t170.5 256.5q109 111 248 169t286 58q141 0 267 -51t223 -148q94 -96 144 -224.5t50 -272.5q0 -151 -61.5 -295.5t-169.5 -255.5q-109 -111 -248.5 -169t-286.5 -58q-141 0 -266.5 50.5t-222.5 147.5q-95 96 -145 225.5t-50 272.5zM188 676 q0 -134 47 -258t136 -213q90 -91 212.5 -140t247.5 -49q137 0 269 55.5t235 159.5q103 106 162 245t59 282q0 134 -46.5 258t-135.5 213q-90 91 -212.5 139.5t-248.5 48.5q-137 0 -268.5 -55.5t-234.5 -159.5q-103 -106 -162.5 -244.5t-59.5 -281.5zM778 1782h45l199 -266 h-45z" />
<glyph unicode="&#xd3;" horiz-adv-x="1662" d="M147 676q0 150 61.5 294.5t170.5 256.5q109 111 248 169t286 58q141 0 267 -51t223 -148q94 -96 144 -224.5t50 -272.5q0 -151 -61.5 -295.5t-169.5 -255.5q-109 -111 -248.5 -169t-286.5 -58q-141 0 -266.5 50.5t-222.5 147.5q-95 96 -145 225.5t-50 272.5zM188 676 q0 -134 47 -258t136 -213q90 -91 212.5 -140t247.5 -49q137 0 269 55.5t235 159.5q103 106 162 245t59 282q0 134 -46.5 258t-135.5 213q-90 91 -212.5 139.5t-248.5 48.5q-137 0 -268.5 -55.5t-234.5 -159.5q-103 -106 -162.5 -244.5t-59.5 -281.5zM920 1516l198 266h45 l-198 -266h-45z" />
<glyph unicode="&#xd4;" horiz-adv-x="1662" d="M147 676q0 150 61.5 294.5t170.5 256.5q109 111 248 169t286 58q141 0 267 -51t223 -148q94 -96 144 -224.5t50 -272.5q0 -151 -61.5 -295.5t-169.5 -255.5q-109 -111 -248.5 -169t-286.5 -58q-141 0 -266.5 50.5t-222.5 147.5q-95 96 -145 225.5t-50 272.5zM188 676 q0 -134 47 -258t136 -213q90 -91 212.5 -140t247.5 -49q137 0 269 55.5t235 159.5q103 106 162 245t59 282q0 134 -46.5 258t-135.5 213q-90 91 -212.5 139.5t-248.5 48.5q-137 0 -268.5 -55.5t-234.5 -159.5q-103 -106 -162.5 -244.5t-59.5 -281.5zM743 1516l256 266h64 l162 -266h-45l-148 241l-231 -241h-58z" />
<glyph unicode="&#xd5;" horiz-adv-x="1662" d="M147 676q0 150 61.5 294.5t170.5 256.5q109 111 248 169t286 58q141 0 267 -51t223 -148q94 -96 144 -224.5t50 -272.5q0 -151 -61.5 -295.5t-169.5 -255.5q-109 -111 -248.5 -169t-286.5 -58q-141 0 -266.5 50.5t-222.5 147.5q-95 96 -145 225.5t-50 272.5zM188 676 q0 -134 47 -258t136 -213q90 -91 212.5 -140t247.5 -49q137 0 269 55.5t235 159.5q103 106 162 245t59 282q0 134 -46.5 258t-135.5 213q-90 91 -212.5 139.5t-248.5 48.5q-137 0 -268.5 -55.5t-234.5 -159.5q-103 -106 -162.5 -244.5t-59.5 -281.5zM700 1573q9 70 45 108.5 t93 38.5q37 0 80 -19t75.5 -41.5t72 -41.5t71.5 -19q84 0 98 117l39 -6q-9 -71 -44.5 -109t-92.5 -38q-47 0 -101.5 30t-106 60t-91.5 30q-85 0 -99 -116z" />
<glyph unicode="&#xd6;" horiz-adv-x="1662" d="M147 676q0 150 61.5 294.5t170.5 256.5q109 111 248 169t286 58q141 0 267 -51t223 -148q94 -96 144 -224.5t50 -272.5q0 -151 -61.5 -295.5t-169.5 -255.5q-109 -111 -248.5 -169t-286.5 -58q-141 0 -266.5 50.5t-222.5 147.5q-95 96 -145 225.5t-50 272.5zM188 676 q0 -134 47 -258t136 -213q90 -91 212.5 -140t247.5 -49q137 0 269 55.5t235 159.5q103 106 162 245t59 282q0 134 -46.5 258t-135.5 213q-90 91 -212.5 139.5t-248.5 48.5q-137 0 -268.5 -55.5t-234.5 -159.5q-103 -106 -162.5 -244.5t-59.5 -281.5zM780 1638q0 26 18 44 t44 18t43.5 -18t17.5 -44t-17.5 -43.5t-43.5 -17.5t-44 17.5t-18 43.5zM1067 1638q0 26 17.5 44t43.5 18t44 -18t18 -44t-18 -43.5t-44 -17.5t-43.5 17.5t-17.5 43.5z" />
<glyph unicode="&#xd7;" horiz-adv-x="987" d="M92 213l381 322l-260 321l29 23l260 -322l379 322l24 -27l-381 -322l260 -321l-28 -23l-260 320l-379 -320z" />
<glyph unicode="&#xd8;" horiz-adv-x="1662" d="M147 676q0 150 61.5 294.5t170.5 256.5q109 111 248 169t286 58q221 0 396 -121l92 121h51l-109 -145q9 -7 19 -16t22 -20.5t19 -17.5q94 -96 144 -224.5t50 -272.5q0 -151 -61.5 -295.5t-169.5 -255.5q-109 -111 -248.5 -169t-286.5 -58q-225 0 -397 120l-90 -120h-51 l108 145q-40 32 -59 53q-95 96 -145 225.5t-50 272.5zM188 676q0 -134 47 -258t136 -213q22 -25 53 -49l862 1144q-170 117 -373 117q-137 0 -268.5 -55.5t-234.5 -159.5q-103 -106 -162.5 -244.5t-59.5 -281.5zM459 131q168 -115 372 -115q137 0 269 55.5t235 159.5 q103 106 162 245t59 282q0 134 -46.5 258t-135.5 213q-1 1 -22 20t-33 29z" />
<glyph unicode="&#xd9;" horiz-adv-x="1488" d="M195 436q0 55 18 154l147 844h39l-149 -850q-14 -89 -14 -144q0 -184 134 -304t330 -120q233 0 377.5 134t190.5 393l157 891h39l-157 -897q-48 -273 -200.5 -415t-406.5 -142q-138 0 -253.5 58.5t-183.5 163.5t-68 234zM733 1782h45l199 -266h-45z" />
<glyph unicode="&#xda;" horiz-adv-x="1488" d="M195 436q0 55 18 154l147 844h39l-149 -850q-14 -89 -14 -144q0 -184 134 -304t330 -120q233 0 377.5 134t190.5 393l157 891h39l-157 -897q-48 -273 -200.5 -415t-406.5 -142q-138 0 -253.5 58.5t-183.5 163.5t-68 234zM817 1516l199 266h45l-199 -266h-45z" />
<glyph unicode="&#xdb;" horiz-adv-x="1488" d="M195 436q0 55 18 154l147 844h39l-149 -850q-14 -89 -14 -144q0 -184 134 -304t330 -120q233 0 377.5 134t190.5 393l157 891h39l-157 -897q-48 -273 -200.5 -415t-406.5 -142q-138 0 -253.5 58.5t-183.5 163.5t-68 234zM664 1516l256 266h63l162 -266h-45l-148 241 l-231 -241h-57z" />
<glyph unicode="&#xdc;" horiz-adv-x="1488" d="M195 436q0 55 18 154l147 844h39l-149 -850q-14 -89 -14 -144q0 -184 134 -304t330 -120q233 0 377.5 134t190.5 393l157 891h39l-157 -897q-48 -273 -200.5 -415t-406.5 -142q-138 0 -253.5 58.5t-183.5 163.5t-68 234zM711 1638q0 26 17.5 44t43.5 18t44 -18t18 -44 t-18 -43.5t-44 -17.5t-43.5 17.5t-17.5 43.5zM997 1638q0 26 18 44t44 18t43.5 -18t17.5 -44t-17.5 -43.5t-43.5 -17.5t-44 17.5t-18 43.5z" />
<glyph unicode="&#xdd;" horiz-adv-x="1075" d="M205 1434h45l332 -682l573 682h53l-612 -729l-123 -705h-39l123 707zM657 1516l199 266h45l-199 -266h-45z" />
<glyph unicode="&#xde;" horiz-adv-x="1189" d="M106 0l252 1434h39l-65 -371h448q149 0 226 -59q124 -91 124 -263q0 -106 -57.5 -194t-150.5 -135q-80 -41 -226 -41h-485l-66 -371h-39zM217 408h479q128 0 205 36q84 40 136.5 121.5t52.5 175.5q0 155 -111 234q-73 51 -199 51h-454z" />
<glyph unicode="&#xdf;" horiz-adv-x="1148" d="M106 0l193 1096q35 203 139 290q109 89 246 89q146 0 240 -91t94 -225q0 -105 -58.5 -191t-164.5 -114q111 -36 181.5 -146t70.5 -241q0 -133 -61.5 -244.5t-171.5 -177t-245 -65.5q-174 0 -270 67l25 31q14 -10 38 -22t82.5 -26t124.5 -14q183 0 310 129.5t127 321.5 q0 103 -47.5 194.5t-135.5 139.5q-70 39 -202 39h-50l7 37h55q123 0 190 28q74 34 114 100t40 154q0 113 -79.5 196t-213.5 83q-128 0 -221 -80q-93 -77 -125 -262l-193 -1096h-39z" />
<glyph unicode="&#xe0;" d="M92 418q0 135 66 246t180 174t252 63q123 0 222 -58t161 -145l31 183h38l-155 -881h-39l22 129q-60 -65 -148 -107t-187 -42q-191 0 -317 125.5t-126 312.5zM133 418q0 -171 114 -286.5t288 -115.5q101 0 191 46.5t153 123.5l84 469q-58 89 -153 149t-220 60 q-190 0 -323.5 -128.5t-133.5 -317.5zM516 1311h45l199 -267h-45z" />
<glyph unicode="&#xe1;" d="M92 418q0 135 66 246t180 174t252 63q123 0 222 -58t161 -145l31 183h38l-155 -881h-39l22 129q-60 -65 -148 -107t-187 -42q-191 0 -317 125.5t-126 312.5zM133 418q0 -171 114 -286.5t288 -115.5q101 0 191 46.5t153 123.5l84 469q-58 89 -153 149t-220 60 q-190 0 -323.5 -128.5t-133.5 -317.5zM602 1044l199 267h45l-199 -267h-45z" />
<glyph unicode="&#xe2;" d="M92 418q0 135 66 246t180 174t252 63q123 0 222 -58t161 -145l31 183h38l-155 -881h-39l22 129q-60 -65 -148 -107t-187 -42q-191 0 -317 125.5t-126 312.5zM133 418q0 -171 114 -286.5t288 -115.5q101 0 191 46.5t153 123.5l84 469q-58 89 -153 149t-220 60 q-190 0 -323.5 -128.5t-133.5 -317.5zM428 1044l256 267h64l161 -267h-45l-147 242l-232 -242h-57z" />
<glyph unicode="&#xe3;" d="M92 418q0 135 66 246t180 174t252 63q123 0 222 -58t161 -145l31 183h38l-155 -881h-39l22 129q-60 -65 -148 -107t-187 -42q-191 0 -317 125.5t-126 312.5zM133 418q0 -171 114 -286.5t288 -115.5q101 0 191 46.5t153 123.5l84 469q-58 89 -153 149t-220 60 q-190 0 -323.5 -128.5t-133.5 -317.5zM403 1102q9 70 45 108.5t93 38.5q37 0 80 -19t75.5 -41.5t72 -41.5t71.5 -19q84 0 98 117l39 -6q-9 -71 -44.5 -109t-92.5 -38q-47 0 -101.5 30t-106 60t-91.5 30q-85 0 -99 -116z" />
<glyph unicode="&#xe4;" d="M92 418q0 135 66 246t180 174t252 63q123 0 222 -58t161 -145l31 183h38l-155 -881h-39l22 129q-60 -65 -148 -107t-187 -42q-191 0 -317 125.5t-126 312.5zM133 418q0 -171 114 -286.5t288 -115.5q101 0 191 46.5t153 123.5l84 469q-58 89 -153 149t-220 60 q-190 0 -323.5 -128.5t-133.5 -317.5zM485 1167q0 26 18 44t44 18t43.5 -18t17.5 -44t-17.5 -43.5t-43.5 -17.5t-44 17.5t-18 43.5zM772 1167q0 26 18 44t44 18t43.5 -18t17.5 -44t-17.5 -43.5t-43.5 -17.5t-44 17.5t-18 43.5z" />
<glyph unicode="&#xe5;" d="M92 418q0 135 66 246t180 174t252 63q123 0 222 -58t161 -145l31 183h38l-155 -881h-39l22 129q-60 -65 -148 -107t-187 -42q-191 0 -317 125.5t-126 312.5zM133 418q0 -171 114 -286.5t288 -115.5q101 0 191 46.5t153 123.5l84 469q-58 89 -153 149t-220 60 q-190 0 -323.5 -128.5t-133.5 -317.5zM547 1208q0 68 48.5 116t115.5 48t115 -48t48 -116t-48 -116t-115 -48t-115.5 48t-48.5 116zM584 1208q0 -52 37 -89.5t90 -37.5t90 37.5t37 89.5t-37 89.5t-90 37.5t-90 -37.5t-37 -89.5z" />
<glyph unicode="&#xe6;" horiz-adv-x="1869" d="M92 418q0 135 66 246t180 174t252 63q123 0 222 -58t161 -145l31 183h38l-34 -191q62 98 158 154.5t210 56.5q165 0 278 -110t113 -277q0 -31 -2 -47h-794q-2 -18 -2 -59q0 -132 67 -230q53 -76 139.5 -119t188.5 -43q181 0 309 131l27 -30q-137 -137 -334 -137 q-108 0 -204.5 43t-157.5 131q-50 69 -64 147l-53 -301h-39l22 129q-60 -65 -148 -107t-187 -42q-191 0 -317 125.5t-126 312.5zM133 418q0 -171 114 -286.5t288 -115.5q101 0 191 46.5t153 123.5l84 469q-58 89 -153 149t-220 60q-190 0 -323.5 -128.5t-133.5 -317.5z M977 504h749q0 162 -100.5 261t-249.5 99t-259 -102t-140 -258z" />
<glyph unicode="&#xe7;" horiz-adv-x="1034" d="M92 408q0 206 142 349.5t350 143.5q106 0 201 -45t157 -123l-29 -24q-57 72 -143 113.5t-186 41.5q-190 0 -320.5 -134t-130.5 -322q0 -164 122 -278t292 -114q191 0 317 136l27 -29q-140 -143 -344 -143h-23l-75 -267h-39l77 271q-166 20 -280.5 135.5t-114.5 288.5z " />
<glyph unicode="&#xe8;" horiz-adv-x="1034" d="M92 408q0 135 59 248.5t162 179t228 65.5q165 0 278 -110t113 -277q0 -31 -2 -47h-795q-2 -18 -2 -59q0 -130 68 -230q53 -76 139 -119t188 -43q182 0 310 131l26 -30q-137 -137 -334 -137q-108 0 -204.5 43t-157.5 131q-76 109 -76 254zM141 504h750q0 162 -100.5 261 t-249.5 99t-259.5 -102.5t-140.5 -257.5zM440 1311h45l199 -267h-45z" />
<glyph unicode="&#xe9;" horiz-adv-x="1034" d="M92 408q0 135 59 248.5t162 179t228 65.5q165 0 278 -110t113 -277q0 -31 -2 -47h-795q-2 -18 -2 -59q0 -130 68 -230q53 -76 139 -119t188 -43q182 0 310 131l26 -30q-137 -137 -334 -137q-108 0 -204.5 43t-157.5 131q-76 109 -76 254zM141 504h750q0 162 -100.5 261 t-249.5 99t-259.5 -102.5t-140.5 -257.5zM541 1044l198 267h45l-198 -267h-45z" />
<glyph unicode="&#xea;" horiz-adv-x="1034" d="M92 408q0 135 59 248.5t162 179t228 65.5q165 0 278 -110t113 -277q0 -31 -2 -47h-795q-2 -18 -2 -59q0 -130 68 -230q53 -76 139 -119t188 -43q182 0 310 131l26 -30q-137 -137 -334 -137q-108 0 -204.5 43t-157.5 131q-76 109 -76 254zM141 504h750q0 162 -100.5 261 t-249.5 99t-259.5 -102.5t-140.5 -257.5zM356 1044l256 267h64l162 -267h-45l-148 242l-231 -242h-58z" />
<glyph unicode="&#xeb;" horiz-adv-x="1034" d="M92 408q0 135 59 248.5t162 179t228 65.5q165 0 278 -110t113 -277q0 -31 -2 -47h-795q-2 -18 -2 -59q0 -130 68 -230q53 -76 139 -119t188 -43q182 0 310 131l26 -30q-137 -137 -334 -137q-108 0 -204.5 43t-157.5 131q-76 109 -76 254zM141 504h750q0 162 -100.5 261 t-249.5 99t-259.5 -102.5t-140.5 -257.5zM414 1167q0 26 17.5 44t43.5 18t44 -18t18 -44t-18 -43.5t-44 -17.5t-43.5 17.5t-17.5 43.5zM700 1167q0 26 18 44t44 18t43.5 -18t17.5 -44t-17.5 -43.5t-43.5 -17.5t-44 17.5t-18 43.5z" />
<glyph unicode="&#xec;" horiz-adv-x="421" d="M82 1311h45l199 -267h-45zM106 0l156 881h39l-156 -881h-39z" />
<glyph unicode="&#xed;" horiz-adv-x="421" d="M106 0l156 881h39l-156 -881h-39zM272 1044l199 267h45l-199 -267h-45z" />
<glyph unicode="&#xee;" horiz-adv-x="421" d="M53 1044l256 267h64l162 -267h-46l-147 242l-231 -242h-58zM106 0l156 881h39l-156 -881h-39z" />
<glyph unicode="&#xef;" horiz-adv-x="421" d="M104 0l156 881h39l-156 -881h-39zM115 1167q0 26 17.5 44t43.5 18t44 -18t18 -44t-18 -43.5t-44 -17.5t-43.5 17.5t-17.5 43.5zM401 1167q0 26 18 44t44 18t43.5 -18t17.5 -44t-17.5 -43.5t-43.5 -17.5t-44 17.5t-18 43.5z" />
<glyph unicode="&#xf0;" horiz-adv-x="1134" d="M92 418q0 132 67 243.5t180.5 175.5t246.5 64q169 0 286 -86l-204 442l-250 -131l-19 31l252 133l-73 164h45l65 -143l234 123l18 -33l-235 -123l262 -567q65 -140 65 -248q0 -132 -66.5 -243.5t-180 -175.5t-246.5 -64q-192 0 -319.5 126t-127.5 312zM133 418 q0 -169 116.5 -285.5t289.5 -116.5q121 0 224.5 59t165.5 162.5t62 225.5q0 97 -55 217l-23 47q-59 63 -143.5 100t-183.5 37q-90 0 -173.5 -35t-145 -94t-98 -142t-36.5 -175z" />
<glyph unicode="&#xf1;" horiz-adv-x="1146" d="M106 0l156 881h39l-31 -181q70 88 172.5 144.5t214.5 56.5q82 0 151.5 -31t115.5 -88q69 -88 69 -215q0 -38 -18 -151l-74 -416h-39l78 438q14 86 14 127q0 116 -63 195q-81 104 -234 104q-118 0 -221.5 -64.5t-179.5 -176.5l-111 -623h-39zM418 1102q9 71 44.5 109 t92.5 38q37 0 80 -19t75.5 -41.5t72 -41.5t71.5 -19q84 0 98 117l39 -6q-9 -71 -44.5 -109t-92.5 -38q-47 0 -101.5 30t-106 60t-91.5 30q-84 0 -98 -116z" />
<glyph unicode="&#xf2;" horiz-adv-x="1134" d="M92 418q0 132 67 243.5t180.5 175.5t246.5 64q192 0 319 -126t127 -312q0 -132 -66.5 -243.5t-180 -175.5t-246.5 -64q-192 0 -319.5 126t-127.5 312zM133 418q0 -169 116.5 -285.5t289.5 -116.5q121 0 224.5 59t165.5 162.5t62 225.5q0 169 -116 285t-289 116 q-90 0 -173.5 -35t-145 -94t-98 -142t-36.5 -175zM442 1311h45l199 -267h-45z" />
<glyph unicode="&#xf3;" horiz-adv-x="1134" d="M92 418q0 132 67 243.5t180.5 175.5t246.5 64q192 0 319 -126t127 -312q0 -132 -66.5 -243.5t-180 -175.5t-246.5 -64q-192 0 -319.5 126t-127.5 312zM133 418q0 -169 116.5 -285.5t289.5 -116.5q121 0 224.5 59t165.5 162.5t62 225.5q0 169 -116 285t-289 116 q-90 0 -173.5 -35t-145 -94t-98 -142t-36.5 -175zM559 1044l199 267h45l-199 -267h-45z" />
<glyph unicode="&#xf4;" horiz-adv-x="1134" d="M92 418q0 132 67 243.5t180.5 175.5t246.5 64q192 0 319 -126t127 -312q0 -132 -66.5 -243.5t-180 -175.5t-246.5 -64q-192 0 -319.5 126t-127.5 312zM133 418q0 -169 116.5 -285.5t289.5 -116.5q121 0 224.5 59t165.5 162.5t62 225.5q0 169 -116 285t-289 116 q-90 0 -173.5 -35t-145 -94t-98 -142t-36.5 -175zM379 1044l256 267h63l162 -267h-45l-147 242l-232 -242h-57z" />
<glyph unicode="&#xf5;" horiz-adv-x="1134" d="M92 418q0 132 67 243.5t180.5 175.5t246.5 64q192 0 319 -126t127 -312q0 -132 -66.5 -243.5t-180 -175.5t-246.5 -64q-192 0 -319.5 126t-127.5 312zM133 418q0 -169 116.5 -285.5t289.5 -116.5q121 0 224.5 59t165.5 162.5t62 225.5q0 169 -116 285t-289 116 q-90 0 -173.5 -35t-145 -94t-98 -142t-36.5 -175zM375 1102q9 71 44.5 109t92.5 38q37 0 80 -19t75.5 -41.5t72 -41.5t71.5 -19q84 0 98 117l39 -6q-9 -71 -44.5 -109t-92.5 -38q-47 0 -101.5 30t-106 60t-91.5 30q-84 0 -98 -116z" />
<glyph unicode="&#xf6;" horiz-adv-x="1134" d="M92 418q0 132 67 243.5t180.5 175.5t246.5 64q192 0 319 -126t127 -312q0 -132 -66.5 -243.5t-180 -175.5t-246.5 -64q-192 0 -319.5 126t-127.5 312zM133 418q0 -169 116.5 -285.5t289.5 -116.5q121 0 224.5 59t165.5 162.5t62 225.5q0 169 -116 285t-289 116 q-90 0 -173.5 -35t-145 -94t-98 -142t-36.5 -175zM436 1167q0 26 18 44t44 18t43.5 -18t17.5 -44t-17.5 -43.5t-43.5 -17.5t-44 17.5t-18 43.5zM723 1167q0 26 17.5 44t43.5 18t44 -18t18 -44t-18 -43.5t-44 -17.5t-43.5 17.5t-17.5 43.5z" />
<glyph unicode="&#xf7;" horiz-adv-x="1071" d="M133 514l6 37h819l-6 -37h-819zM412 174q0 29 21 50.5t50 21.5t50.5 -21.5t21.5 -50.5t-21.5 -50.5t-50.5 -21.5t-50 21.5t-21 50.5zM539 891q0 29 21 50.5t50 21.5t50.5 -21.5t21.5 -50.5t-21.5 -50.5t-50.5 -21.5t-50 21.5t-21 50.5z" />
<glyph unicode="&#xf8;" horiz-adv-x="1134" d="M92 418q0 132 67 243.5t180.5 175.5t246.5 64q137 0 243 -67l52 67h51l-68 -90q79 -61 123.5 -151.5t44.5 -196.5q0 -132 -66.5 -243.5t-180 -175.5t-246.5 -64q-140 0 -246 65l-49 -65h-51l67 90q-79 61 -123.5 151.5t-44.5 196.5zM133 418q0 -97 40 -179t112 -137 l522 701q-99 61 -221 61q-90 0 -173.5 -35t-145 -94t-98 -142t-36.5 -175zM317 78q97 -62 222 -62q121 0 224.5 59t165.5 162.5t62 225.5q0 95 -40 176.5t-111 138.5z" />
<glyph unicode="&#xf9;" horiz-adv-x="1144" d="M150 313q0 39 18 152l74 416h39l-78 -439q-15 -92 -15 -127q0 -114 64 -194q82 -105 229 -105q112 0 214.5 65.5t178.5 176.5l111 623h39l-156 -881h-39l31 180q-70 -87 -171 -143.5t-208 -56.5q-167 0 -262 118q-69 88 -69 215zM442 1311h45l199 -267h-45z" />
<glyph unicode="&#xfa;" horiz-adv-x="1144" d="M150 313q0 39 18 152l74 416h39l-78 -439q-15 -92 -15 -127q0 -114 64 -194q82 -105 229 -105q112 0 214.5 65.5t178.5 176.5l111 623h39l-156 -881h-39l31 180q-70 -87 -171 -143.5t-208 -56.5q-167 0 -262 118q-69 88 -69 215zM578 1044l198 267h45l-198 -267h-45z" />
<glyph unicode="&#xfb;" horiz-adv-x="1144" d="M150 313q0 39 18 152l74 416h39l-78 -439q-15 -92 -15 -127q0 -114 64 -194q82 -105 229 -105q112 0 214.5 65.5t178.5 176.5l111 623h39l-156 -881h-39l31 180q-70 -87 -171 -143.5t-208 -56.5q-167 0 -262 118q-69 88 -69 215zM399 1044l256 267h64l162 -267h-45 l-148 242l-231 -242h-58z" />
<glyph unicode="&#xfc;" horiz-adv-x="1144" d="M150 313q0 39 18 152l74 416h39l-78 -439q-15 -92 -15 -127q0 -114 64 -194q82 -105 229 -105q112 0 214.5 65.5t178.5 176.5l111 623h39l-156 -881h-39l31 180q-70 -87 -171 -143.5t-208 -56.5q-167 0 -262 118q-69 88 -69 215zM451 1167q0 26 17.5 44t43.5 18t43.5 -18 t17.5 -44t-17.5 -43.5t-43.5 -17.5t-43.5 17.5t-17.5 43.5zM737 1167q0 26 18 44t44 18t43.5 -18t17.5 -44t-17.5 -43.5t-43.5 -17.5t-44 17.5t-18 43.5z" />
<glyph unicode="&#xfd;" horiz-adv-x="958" d="M31 -496l372 578l-307 799h41l295 -756l488 756h49l-889 -1377h-49zM510 1044l199 267h45l-199 -267h-45z" />
<glyph unicode="&#xfe;" horiz-adv-x="1159" d="M20 -492l342 1946h39l-122 -702q60 65 148 107t187 42q191 0 317 -125.5t126 -312.5q0 -135 -66 -246t-180 -174t-252 -63q-123 0 -222 57.5t-161 144.5l-117 -674h-39zM186 225q58 -89 153 -149t220 -60q190 0 323.5 129t133.5 318q0 171 -114 286t-288 115 q-101 0 -191 -46.5t-153 -123.5z" />
<glyph unicode="&#xff;" horiz-adv-x="958" d="M31 -496l372 578l-307 799h41l295 -756l488 756h49l-889 -1377h-49zM393 1167q0 26 18 44t44 18t43.5 -18t17.5 -44t-17.5 -43.5t-43.5 -17.5t-44 17.5t-18 43.5zM680 1167q0 26 17.5 44t43.5 18t44 -18t18 -44t-18 -43.5t-44 -17.5t-43.5 17.5t-17.5 43.5z" />
<glyph unicode="&#x152;" horiz-adv-x="2361" d="M147 676q0 150 61.5 294.5t170.5 256.5q109 111 248 169t286 58q141 0 267 -51t223 -148q154 -157 182 -391l101 570h737l-6 -37h-699l-102 -578h555l-6 -37h-555l-131 -745h719l-7 -37h-757l67 395q-56 -109 -135 -188q-109 -111 -248.5 -169t-286.5 -58 q-141 0 -266.5 50.5t-222.5 147.5q-95 96 -145 225.5t-50 272.5zM188 676q0 -134 47 -258t136 -213q90 -91 212.5 -140t247.5 -49q137 0 269 55.5t235 159.5q103 106 162 245t59 282q0 134 -46.5 258t-135.5 213q-90 91 -212.5 139.5t-248.5 48.5q-137 0 -268.5 -55.5 t-234.5 -159.5q-103 -106 -162.5 -244.5t-59.5 -281.5z" />
<glyph unicode="&#x153;" horiz-adv-x="1933" d="M92 418q0 132 67 243.5t180.5 175.5t246.5 64q162 0 279 -92.5t153 -239.5q45 149 159 240.5t263 91.5q165 0 278 -110t113 -277q0 -31 -2 -47h-795q-2 -18 -2 -59q0 -130 68 -230q53 -76 139 -119t188 -43q182 0 310 131l26 -30q-137 -137 -333 -137q-108 0 -205 43 t-158 131q-48 67 -63 151q-51 -146 -178 -235.5t-287 -89.5q-192 0 -319.5 126t-127.5 312zM135 418q0 -169 116.5 -285.5t289.5 -116.5q121 0 224.5 59t165.5 162.5t62 225.5q0 169 -116 285t-289 116q-90 0 -173.5 -35t-145 -94t-98 -142t-36.5 -175zM1040 504h750 q0 162 -100.5 261t-249.5 99t-259.5 -102.5t-140.5 -257.5z" />
<glyph unicode="&#x178;" horiz-adv-x="1075" d="M205 1434h45l332 -682l573 682h53l-612 -729l-123 -705h-39l123 707zM524 1638q0 26 18 44t44 18t43.5 -18t17.5 -44t-17.5 -43.5t-43.5 -17.5t-44 17.5t-18 43.5zM811 1638q0 26 17.5 44t43.5 18t44 -18t18 -44t-18 -43.5t-44 -17.5t-43.5 17.5t-17.5 43.5z" />
<glyph unicode="&#x2c6;" horiz-adv-x="768" d="M143 1044l256 267h64l162 -267h-45l-148 242l-231 -242h-58z" />
<glyph unicode="&#x2dc;" horiz-adv-x="860" d="M143 1102q9 70 45 108.5t93 38.5q37 0 80 -19t75.5 -41.5t72 -41.5t71.5 -19q84 0 98 117l39 -6q-9 -71 -44.5 -109t-92.5 -38q-47 0 -101.5 30t-106 60t-91.5 30q-85 0 -99 -116z" />
<glyph unicode="&#x2000;" horiz-adv-x="921" />
<glyph unicode="&#x2001;" horiz-adv-x="1843" />
<glyph unicode="&#x2002;" horiz-adv-x="921" />
<glyph unicode="&#x2003;" horiz-adv-x="1843" />
<glyph unicode="&#x2004;" horiz-adv-x="614" />
<glyph unicode="&#x2005;" horiz-adv-x="460" />
<glyph unicode="&#x2006;" horiz-adv-x="307" />
<glyph unicode="&#x2007;" horiz-adv-x="307" />
<glyph unicode="&#x2008;" horiz-adv-x="230" />
<glyph unicode="&#x2009;" horiz-adv-x="368" />
<glyph unicode="&#x200a;" horiz-adv-x="102" />
<glyph unicode="&#x2010;" horiz-adv-x="839" d="M176 492l6 36h492l-6 -36h-492z" />
<glyph unicode="&#x2011;" horiz-adv-x="839" d="M176 492l6 36h492l-6 -36h-492z" />
<glyph unicode="&#x2012;" horiz-adv-x="839" d="M176 492l6 36h492l-6 -36h-492z" />
<glyph unicode="&#x2013;" horiz-adv-x="901" d="M53 492l6 36h799l-6 -36h-799z" />
<glyph unicode="&#x2014;" horiz-adv-x="1515" d="M53 492l6 36h1414l-7 -36h-1413z" />
<glyph unicode="&#x2018;" horiz-adv-x="413" d="M201 983l227 451h47l-227 -451h-47z" />
<glyph unicode="&#x2019;" horiz-adv-x="389" d="M199 983l227 451h47l-227 -451h-47z" />
<glyph unicode="&#x201a;" horiz-adv-x="413" d="M-20 -287l227 451h47l-227 -451h-47z" />
<glyph unicode="&#x201c;" horiz-adv-x="782" d="M201 983l227 451h47l-227 -451h-47zM569 983l228 451h47l-228 -451h-47z" />
<glyph unicode="&#x201d;" horiz-adv-x="757" d="M199 983l227 451h47l-227 -451h-47zM567 983l228 451h47l-228 -451h-47z" />
<glyph unicode="&#x201e;" horiz-adv-x="782" d="M-20 -287l227 451h47l-227 -451h-47zM348 -287l227 451h48l-228 -451h-47z" />
<glyph unicode="&#x2022;" horiz-adv-x="983" d="M164 440q0 135 96.5 231.5t231.5 96.5t231 -96.5t96 -231.5t-96 -231t-231 -96t-231.5 96t-96.5 231z" />
<glyph unicode="&#x2026;" horiz-adv-x="1454" d="M154 51q0 29 21 50.5t50 21.5t50.5 -21.5t21.5 -50.5t-21.5 -50t-50.5 -21t-50 21t-21 50zM604 51q0 29 21.5 50.5t50.5 21.5t50.5 -21.5t21.5 -50.5t-21.5 -50t-50.5 -21t-50.5 21t-21.5 50zM1055 51q0 29 21 50.5t50 21.5t50.5 -21.5t21.5 -50.5t-21.5 -50t-50.5 -21 t-50 21t-21 50z" />
<glyph unicode="&#x202f;" horiz-adv-x="368" />
<glyph unicode="&#x2039;" horiz-adv-x="645" d="M158 461l4 20l364 359h58l-379 -373l248 -365h-50z" />
<glyph unicode="&#x203a;" horiz-adv-x="645" d="M61 102l379 373l-247 365h49l245 -359l-4 -20l-364 -359h-58z" />
<glyph unicode="&#x205f;" horiz-adv-x="460" />
<glyph unicode="&#x20ac;" horiz-adv-x="1245" d="M20 535l7 36h159q-4 70 -4 107q0 91 19 184h-123l6 37h125q62 241 232.5 398t389.5 157q272 0 435 -227l-33 -23q-68 101 -172 157t-230 56q-201 0 -360 -146.5t-219 -371.5h676l-6 -37h-680q-19 -93 -19 -184q0 -72 4 -107h643l-6 -36h-631q17 -104 59 -195.5 t107.5 -165t160.5 -116t208 -42.5q258 0 416 199l30 -25q-82 -101 -198.5 -155.5t-251.5 -54.5q-227 0 -381 152.5t-190 402.5h-173z" />
<glyph unicode="&#x2122;" horiz-adv-x="1720" d="M205 1397v37h532v-37h-245v-748h-41v748h-246zM881 649v785h30l349 -598l348 598h30v-785h-41v697l-321 -558h-33l-321 558v-697h-41z" />
<glyph unicode="&#x25fc;" horiz-adv-x="880" d="M0 0v881h881v-881h-881z" />
</font>
</defs>
</svg>
