<?xml version="1.0" standalone="no"?>
<!DOCTYPE svg PUBLIC "-//W3C//DTD SVG 1.1//EN" "http://www.w3.org/Graphics/SVG/1.1/DTD/svg11.dtd" >
<svg xmlns="http://www.w3.org/2000/svg">
<metadata></metadata>
<defs>
<font id="brownregular" horiz-adv-x="1239" >
<font-face units-per-em="2048" ascent="1638" descent="-410" />
<missing-glyph horiz-adv-x="552" />
<glyph unicode="&#xfb01;" horiz-adv-x="1361" d="M51 788v175h225v81q0 183 62 271q53 76 135.5 118t179.5 42q64 0 115 -15l-41 -178q-28 8 -72 8q-42 0 -82.5 -18t-64.5 -49q-37 -48 -37 -172v-88h717v-963h-195v788h-522v-788h-195v788h-225zM963 1325q0 54 36.5 91.5t90.5 37.5t91.5 -37.5t37.5 -91.5t-37.5 -90.5 t-91.5 -36.5t-90.5 36.5t-36.5 90.5z" />
<glyph unicode="&#xfb02;" horiz-adv-x="1361" d="M51 788v175h225v81q0 183 62 271q53 76 135.5 118t179.5 42q64 0 115 -15l-41 -178q-28 8 -72 8q-42 0 -82.5 -18t-64.5 -49q-37 -48 -37 -172v-88h522v491h195v-1454h-195v788h-522v-788h-195v788h-225z" />
<glyph unicode="&#xfb03;" horiz-adv-x="2078" d="M51 788v175h225v81q0 183 62 271q53 76 135.5 118t179.5 42q64 0 115 -15l-41 -178q-28 8 -72 8q-42 0 -82.5 -18t-64.5 -49q-37 -48 -37 -172v-88h522v81q0 183 62 271q53 76 135 118t180 42q64 0 115 -15l-41 -178q-28 8 -72 8q-42 0 -82.5 -18t-64.5 -49 q-37 -48 -37 -172v-88h717v-963h-195v788h-522v-788h-195v788h-522v-788h-195v788h-225zM1679 1325q0 54 36.5 91.5t90.5 37.5t91.5 -37.5t37.5 -91.5t-37.5 -90.5t-91.5 -36.5t-90.5 36.5t-36.5 90.5z" />
<glyph unicode="&#xfb04;" horiz-adv-x="2078" d="M51 788v175h225v81q0 183 62 271q53 76 135.5 118t179.5 42q64 0 115 -15l-41 -178q-28 8 -72 8q-42 0 -82.5 -18t-64.5 -49q-37 -48 -37 -172v-88h522v81q0 183 62 271q53 76 135 118t180 42q64 0 115 -15l-41 -178q-28 8 -72 8q-42 0 -82.5 -18t-64.5 -49 q-37 -48 -37 -172v-88h522v491h195v-1454h-195v788h-522v-788h-195v788h-522v-788h-195v788h-225z" />
<glyph horiz-adv-x="0" />
<glyph horiz-adv-x="0" />
<glyph horiz-adv-x="682" />
<glyph unicode="&#xd;" horiz-adv-x="552" />
<glyph unicode=" "  horiz-adv-x="552" />
<glyph unicode="&#x09;" horiz-adv-x="552" />
<glyph unicode="&#xa0;" horiz-adv-x="552" />
<glyph unicode="!" horiz-adv-x="696" d="M205 123q0 60 41.5 101.5t101.5 41.5t102 -41.5t42 -101.5t-42 -101.5t-102 -41.5t-101.5 41.5t-41.5 101.5zM252 963v471h194v-471l-30 -512h-133z" />
<glyph unicode="&#x22;" horiz-adv-x="942" d="M164 1434h194l-30 -512h-133zM584 1434h194l-30 -512h-134z" />
<glyph unicode="#" horiz-adv-x="1187" d="M-31 399v185h258l70 266h-211v184h260l109 400h190l-108 -400h280l109 400h190l-108 -400h211v-184h-261l-69 -266h211v-185h-260l-109 -399h-190l108 399h-280l-109 -399h-190l108 399h-209zM418 584h280l70 266h-281z" />
<glyph unicode="$" horiz-adv-x="1089" d="M61 219l142 139q152 -184 350 -184q103 0 176.5 60.5t73.5 154.5q0 62 -32 109.5t-88.5 80t-116 57.5t-134.5 57.5t-123 64.5q-182 121 -182 315q0 136 94 239.5t244 131.5v225h194v-223q159 -28 287 -135l-121 -150q-117 99 -256 99q-96 0 -166.5 -52t-70.5 -141 q0 -52 32 -93t88.5 -72t116 -56t132.5 -58t120 -65q187 -123 187 -328q0 -160 -97 -269.5t-252 -137.5v-224h-194v224q-247 36 -404 231z" />
<glyph unicode="%" horiz-adv-x="1935" d="M123 1075q0 158 105.5 268.5t263.5 110.5t263 -110t105 -269t-105 -269t-263 -110t-263.5 110.5t-105.5 268.5zM307 1075q0 -87 51 -146t134 -59t133.5 59t50.5 146t-50.5 146t-133.5 59t-134 -59t-51 -146zM451 0l837 1434h197l-838 -1434h-196zM1075 358 q0 158 105.5 268.5t263.5 110.5t263 -110t105 -269q0 -158 -105 -268t-263 -110t-263.5 110t-105.5 268zM1260 358q0 -87 50.5 -145.5t133.5 -58.5t133.5 58.5t50.5 145.5t-50.5 146t-133.5 59t-133.5 -59t-50.5 -146z" />
<glyph unicode="&#x26;" horiz-adv-x="1341" d="M61 418q0 72 20 135t58 114t77.5 88.5t94.5 78.5q-76 80 -116.5 150t-40.5 149q0 133 92.5 227t236.5 94q129 0 226.5 -90t97.5 -231q0 -106 -53.5 -184t-149.5 -152l359 -359q30 79 30 172q0 129 -37 244l185 51q47 -137 47 -295q0 -170 -80 -317l295 -293h-262 l-146 143q-173 -163 -430 -163q-217 0 -360.5 120.5t-143.5 317.5zM256 418q0 -112 87 -183t222 -71q177 0 295 115l-418 419q-88 -61 -137 -127.5t-49 -152.5zM348 1133q0 -80 119 -203q71 53 108 101t37 102q0 57 -37.5 97t-91.5 40q-62 0 -98.5 -40.5t-36.5 -96.5z" />
<glyph unicode="'" horiz-adv-x="522" d="M164 1434h194l-30 -512h-133z" />
<glyph unicode="(" horiz-adv-x="911" d="M307 512q0 259 78.5 498.5t224.5 443.5l158 -108q-127 -178 -196.5 -392t-69.5 -442t69.5 -442t196.5 -392l-158 -108q-146 204 -224.5 443.5t-78.5 498.5z" />
<glyph unicode=")" horiz-adv-x="911" d="M143 -322q127 178 197 392.5t70 441.5t-70 441.5t-197 392.5l158 108q146 -204 224.5 -443.5t78.5 -498.5t-78.5 -498.5t-224.5 -443.5z" />
<glyph unicode="*" horiz-adv-x="1024" d="M82 1061l49 153l299 -96v316h164v-314l299 99l51 -156l-301 -98l186 -254l-131 -97l-186 256l-184 -256l-131 95l184 256z" />
<glyph unicode="+" horiz-adv-x="1105" d="M102 440v185h359v358h184v-358h359v-185h-359v-358h-184v358h-359z" />
<glyph unicode="," horiz-adv-x="696" d="M92 -287l154 533h225l-246 -533h-133z" />
<glyph unicode="-" horiz-adv-x="942" d="M164 440v164h614v-164h-614z" />
<glyph unicode="." horiz-adv-x="696" d="M225 123q0 60 42 101.5t102 41.5t101.5 -41.5t41.5 -101.5t-41.5 -101.5t-101.5 -41.5t-102 41.5t-42 101.5z" />
<glyph unicode="/" horiz-adv-x="890" d="M10 0l668 1434h203l-668 -1434h-203z" />
<glyph unicode="0" horiz-adv-x="1208" d="M113 717q0 158 27 288t83.5 232.5t153.5 159.5t227 57t227 -57t154 -159.5t84 -232.5t27 -288t-27 -288t-84 -232.5t-154 -159.5t-227 -57t-227 57t-153.5 159.5t-83.5 232.5t-27 288zM317 717q0 -543 287 -543t287 543t-287 543t-287 -543z" />
<glyph unicode="1" horiz-adv-x="829" d="M102 1038v203l338 193h144v-1434h-205v1178z" />
<glyph unicode="2" horiz-adv-x="1064" d="M72 0v133l489 559q91 104 128.5 174t37.5 156q0 96 -64.5 167t-162.5 71q-92 0 -153.5 -51.5t-90.5 -139.5l-182 59q27 96 79 164t114.5 101t118 47t110.5 14q185 0 310.5 -126.5t125.5 -305.5q0 -206 -187 -420l-360 -407h547v-195h-860z" />
<glyph unicode="3" horiz-adv-x="1105" d="M51 225l170 99q36 -68 109 -109t162 -41q123 0 209.5 85t86.5 212q0 129 -87 213t-222 84q-78 0 -166 -23v134l305 360h-495v195h799v-134l-316 -362q165 -25 276 -157t111 -310q0 -138 -66.5 -251.5t-178.5 -176.5t-244 -63q-151 0 -271 63.5t-182 181.5z" />
<glyph unicode="4" horiz-adv-x="1157" d="M31 348v133l737 953h143v-891h226v-195h-226v-348h-204v348h-676zM322 543h385v483z" />
<glyph unicode="5" horiz-adv-x="1126" d="M82 184l156 121q44 -58 114 -94.5t152 -36.5q126 0 205 86t79 211t-80.5 211t-209.5 86q-128 0 -217 -82l-142 21l103 727h671v-195h-503l-41 -301q77 25 135 25q137 0 250 -67t176 -179.5t63 -245.5t-63 -245.5t-176.5 -179t-251.5 -66.5q-131 0 -242 54.5t-178 149.5z " />
<glyph unicode="6" horiz-adv-x="1198" d="M113 465q0 112 47 219q40 90 135 234l340 516h231l-313 -482q27 4 78 4q130 0 238.5 -63t172.5 -175t64 -247q0 -136 -64 -248t-178.5 -177.5t-255.5 -65.5t-255 65t-177 176t-63 244zM315 471q0 -127 84 -212t209 -85q127 0 210 85.5t83 207.5q0 124 -82.5 212.5 t-206.5 88.5q-146 0 -225 -76q-72 -112 -72 -221z" />
<glyph unicode="7" horiz-adv-x="1064" d="M92 1239v195h901v-134l-641 -1300h-219l615 1239h-656z" />
<glyph unicode="8" horiz-adv-x="1187" d="M102 434q0 120 63.5 220.5t164.5 154.5q-60 40 -97.5 114t-37.5 152q0 158 115 268.5t284 110.5t284 -110.5t115 -268.5q0 -78 -37.5 -152t-97.5 -114q101 -54 164 -154.5t63 -220.5q0 -124 -64.5 -228.5t-177.5 -165t-249 -60.5q-206 0 -349 132.5t-143 321.5zM307 434 q0 -109 82.5 -184.5t204.5 -75.5t204.5 75.5t82.5 184.5q0 110 -82.5 186t-204.5 76t-204.5 -76t-82.5 -186zM399 1075q0 -77 55.5 -130.5t139.5 -53.5t139 53.5t55 130.5q0 78 -55 131.5t-139 53.5t-139.5 -54t-55.5 -131z" />
<glyph unicode="9" horiz-adv-x="1198" d="M92 963q0 136 64 248t178.5 177.5t255.5 65.5t255 -65t177 -176t63 -244q0 -112 -47 -219q-40 -90 -135 -234l-340 -516h-231l313 481q-27 -4 -78 -4q-129 0 -238 63.5t-173 175.5t-64 247zM297 967q0 -124 82.5 -212.5t206.5 -88.5q147 0 225 75q72 112 72 222 q0 127 -84 212t-209 85q-127 0 -210 -85.5t-83 -207.5z" />
<glyph unicode=":" horiz-adv-x="696" d="M225 123q0 60 42 101.5t102 41.5t101.5 -41.5t41.5 -101.5t-41.5 -101.5t-101.5 -41.5t-102 41.5t-42 101.5zM225 840q0 60 42 101.5t102 41.5t101.5 -41.5t41.5 -101.5t-41.5 -102t-101.5 -42t-102 42t-42 102z" />
<glyph unicode=";" horiz-adv-x="696" d="M92 -287l154 533h225l-246 -533h-133zM225 840q0 60 42 101.5t102 41.5t101.5 -41.5t41.5 -101.5t-41.5 -102t-101.5 -42t-102 42t-42 102z" />
<glyph unicode="&#x3c;" horiz-adv-x="1116" d="M102 471v123l902 385v-201l-576 -246l576 -245v-201z" />
<glyph unicode="=" horiz-adv-x="1105" d="M102 256v184h902v-184h-902zM102 625v184h902v-184h-902z" />
<glyph unicode="&#x3e;" horiz-adv-x="1116" d="M113 86v201l575 245l-575 246v201l901 -385v-123z" />
<glyph unicode="?" horiz-adv-x="1024" d="M133 1167q31 125 145 206t263 81q171 0 286 -109t115 -264q0 -64 -19.5 -121.5t-51 -100t-69.5 -79.5t-76 -66t-69.5 -53.5t-51 -48.5t-19.5 -45q0 -39 53 -86l-129 -135q-119 89 -119 219q0 70 37 128.5t89.5 100.5t104.5 82t89 92t37 113q0 79 -58 134t-149 55 q-81 0 -145 -45.5t-79 -110.5zM389 123q0 60 41.5 101.5t101.5 41.5t102 -41.5t42 -101.5t-42 -101.5t-102 -41.5t-101.5 41.5t-41.5 101.5z" />
<glyph unicode="@" horiz-adv-x="2048" d="M143 512q0 184 70.5 350.5t190.5 287t285.5 192t348.5 71.5q239 0 436 -102t314 -290.5t117 -426.5q0 -107 -24.5 -200t-72 -165.5t-124 -114.5t-173.5 -42q-170 0 -254 121q-38 -48 -108 -84.5t-174 -36.5q-77 0 -149 29.5t-130 83t-93.5 139t-35.5 188.5q0 84 23.5 156 t63.5 123.5t93 88t112.5 54.5t121.5 18q145 0 240 -90v70h174v-498q0 -90 20 -127q35 -61 111 -61q94 0 146 95.5t52 256.5q0 184 -89.5 330.5t-246.5 228.5t-350 82t-356.5 -97.5t-258.5 -265t-95 -364.5t95 -364.5t258.5 -265t356.5 -97.5q231 0 422 141l96 -143 q-107 -83 -240 -127.5t-278 -44.5q-183 0 -348.5 71.5t-285.5 192t-190.5 287t-70.5 350.5zM752 512q0 -128 74.5 -197t177.5 -69q46 0 87.5 17.5t65 36t53.5 48.5v338q-84 92 -211 92q-99 0 -173 -69.5t-74 -196.5z" />
<glyph unicode="A" horiz-adv-x="1351" d="M10 0l594 1434h144l593 -1434h-213l-151 369h-604l-150 -369h-213zM455 563h442l-221 533z" />
<glyph unicode="B" horiz-adv-x="1280" d="M184 0v1434h488q182 0 295 -101q56 -51 87 -122t31 -150q0 -73 -30 -140.5t-82 -115.5q103 -52 169 -155t66 -222q0 -98 -42 -185.5t-115 -146.5q-116 -96 -314 -96h-553zM389 195h311q92 0 146 18.5t90 54.5q68 71 68 168q0 95 -68 166q-37 37 -91 55.5t-145 18.5h-311 v-481zM389 870h246q81 0 125 15t71 45q50 53 50 125t-50 125q-27 30 -70.5 44.5t-125.5 14.5h-246v-369z" />
<glyph unicode="C" horiz-adv-x="1413" d="M72 717q0 204 94 373t260.5 266.5t370.5 97.5q153 0 291.5 -59t232.5 -162l-137 -135q-65 71 -170 116.5t-217 45.5q-220 0 -370.5 -156t-150.5 -387q0 -159 71 -283.5t193.5 -192t274.5 -67.5q132 0 236.5 58.5t175.5 144.5l145 -131q-94 -120 -244 -193t-313 -73 q-158 0 -296 56t-236 153t-154.5 234t-56.5 294z" />
<glyph unicode="D" horiz-adv-x="1464" d="M184 0v1434h430q307 0 492 -136q134 -100 210.5 -252.5t76.5 -328.5q0 -177 -76 -330t-209 -252q-184 -135 -494 -135h-430zM389 195h215q146 0 243 29.5t167 90.5q82 72 128 177.5t46 224.5t-46 223.5t-128 177.5q-70 61 -167 91t-243 30h-215v-1044z" />
<glyph unicode="E" horiz-adv-x="1105" d="M184 0v1434h820v-195h-615v-369h471v-194h-471v-481h635v-195h-840z" />
<glyph unicode="F" horiz-adv-x="1044" d="M184 0v1434h820v-195h-615v-369h471v-194h-471v-676h-205z" />
<glyph unicode="G" horiz-adv-x="1505" d="M72 717q0 204 94 373t260.5 266.5t370.5 97.5q153 0 291.5 -59t232.5 -162l-137 -135q-65 71 -170 116.5t-217 45.5q-220 0 -370.5 -156t-150.5 -387q0 -159 71 -283.5t193.5 -192t274.5 -67.5q109 0 200.5 36.5t151.5 96.5v369h-409v194h614v-624q-94 -119 -244 -192.5 t-313 -73.5q-158 0 -296 56t-236 153t-154.5 234t-56.5 294z" />
<glyph unicode="H" horiz-adv-x="1576" d="M184 0v1434h205v-564h799v564h205v-1434h-205v676h-799v-676h-205z" />
<glyph unicode="I" horiz-adv-x="573" d="M184 0v1434h205v-1434h-205z" />
<glyph unicode="J" horiz-adv-x="942" d="M0 211l182 78q25 -53 76 -84t115 -31q47 0 91 22t71 58q38 50 38 162v1018h205v-1004q0 -156 -49 -244q-53 -94 -148.5 -150t-207.5 -56q-126 0 -227 61.5t-146 169.5z" />
<glyph unicode="K" horiz-adv-x="1331" d="M184 0v1434h205v-605l590 605h270l-647 -666l688 -768h-262l-639 717v-717h-205z" />
<glyph unicode="L" horiz-adv-x="1064" d="M184 0v1434h205v-1239h635v-195h-840z" />
<glyph unicode="M" horiz-adv-x="1761" d="M184 0v1434h144l553 -875l553 875h143v-1434h-205v965l-420 -658h-143l-420 658v-965h-205z" />
<glyph unicode="N" horiz-adv-x="1576" d="M184 0v1434h144l860 -1053v1053h205v-1434h-144l-860 1053v-1053h-205z" />
<glyph unicode="O" horiz-adv-x="1576" d="M72 717q0 154 55 291t150 234.5t228 154.5t283 57q200 0 364.5 -96.5t258.5 -265.5t94 -375t-94 -375t-258.5 -265.5t-364.5 -96.5q-150 0 -283 57t-228 154.5t-150 234.5t-55 291zM276 717q0 -233 146 -388t366 -155t366 155t146 388q0 232 -146.5 387.5t-365.5 155.5 t-365.5 -155.5t-146.5 -387.5z" />
<glyph unicode="P" horiz-adv-x="1228" d="M184 0v1434h543q186 0 299 -95q66 -57 103.5 -136t37.5 -169t-37.5 -169t-103.5 -136q-112 -94 -299 -94h-338v-635h-205zM389 829h328q127 0 188 64q58 61 58 141q0 81 -58 142q-60 63 -188 63h-328v-410z" />
<glyph unicode="Q" horiz-adv-x="1587" d="M72 717q0 154 55 291t150 234.5t228 154.5t283 57q200 0 364.5 -96.5t258.5 -265.5t94 -375q0 -279 -170 -486l211 -231h-254l-96 104q-178 -124 -408 -124q-150 0 -283 57t-228 154.5t-150 234.5t-55 291zM276 717q0 -233 146 -388t366 -155q151 0 275 78l-344 383 l143 123l336 -375q102 146 102 334q0 232 -146.5 387.5t-365.5 155.5t-365.5 -155.5t-146.5 -387.5z" />
<glyph unicode="R" horiz-adv-x="1310" d="M184 0v1434h502q174 0 279 -84q66 -54 103.5 -130.5t37.5 -164.5t-37.5 -164.5t-103.5 -130.5q-73 -60 -168 -76l514 -684h-248l-510 676h-164v-676h-205zM389 870h287q118 0 172 54q53 53 53 131t-53 131t-172 53h-287v-369z" />
<glyph unicode="S" horiz-adv-x="1089" d="M61 219l142 139q152 -184 350 -184q103 0 176.5 60.5t73.5 154.5q0 62 -32 109.5t-88.5 80t-116 57.5t-134.5 57.5t-123 64.5q-182 121 -182 315q0 159 124.5 270t309.5 111q212 0 385 -143l-121 -150q-117 99 -256 99q-96 0 -166.5 -52t-70.5 -141q0 -52 32 -93 t88.5 -72t116 -56t132.5 -58t120 -65q187 -123 187 -328q0 -186 -127 -300.5t-318 -114.5q-148 0 -277.5 61.5t-224.5 177.5z" />
<glyph unicode="T" horiz-adv-x="1044" d="M31 1239v195h983v-195h-389v-1239h-205v1239h-389z" />
<glyph unicode="U" horiz-adv-x="1515" d="M164 594v840h205v-850q0 -184 90 -283q114 -127 299 -127t299 127q90 99 90 283v850h205v-840q0 -263 -150 -426q-83 -89 -198.5 -138.5t-245.5 -49.5q-131 0 -246.5 49.5t-198.5 138.5q-149 162 -149 426z" />
<glyph unicode="V" horiz-adv-x="1310" d="M20 1434h213l422 -1082l422 1082h213l-563 -1434h-143z" />
<glyph unicode="W" horiz-adv-x="1945" d="M20 1434h209l322 -1039l350 1039h143l351 -1039l321 1039h209l-450 -1434h-144l-358 1061l-359 -1061h-143z" />
<glyph unicode="X" horiz-adv-x="1349" d="M31 0l510 784l-428 650h252l309 -478l311 478h252l-430 -650l512 -784h-242l-403 612l-402 -612h-241z" />
<glyph unicode="Y" horiz-adv-x="1228" d="M20 1434h230l364 -576l365 576h229l-491 -779v-655h-205v655z" />
<glyph unicode="Z" horiz-adv-x="1208" d="M82 0v133l749 1106h-688v195h963v-134l-746 -1105h787v-195h-1065z" />
<glyph unicode="[" horiz-adv-x="911" d="M307 -410v1844h502v-185h-307v-1474h307v-185h-502z" />
<glyph unicode="\" horiz-adv-x="890" d="M10 1434h203l668 -1434h-203z" />
<glyph unicode="]" horiz-adv-x="911" d="M102 -225h308v1474h-308v185h502v-1844h-502v185z" />
<glyph unicode="^" horiz-adv-x="1105" d="M123 717l362 717h136l362 -717h-205l-225 444l-225 -444h-205z" />
<glyph unicode="_" horiz-adv-x="1003" d="M41 0h922v-164h-922v164z" />
<glyph unicode="`" horiz-adv-x="634" d="M143 1434h215l134 -308h-134z" />
<glyph unicode="a" d="M92 481q0 141 68 258t180 183q103 61 235 61q176 0 302 -109v89h188v-963h-188v88q-120 -108 -297 -108q-135 0 -242 63q-112 66 -179 181.5t-67 256.5zM287 481q0 -131 91 -224t228 -93q75 0 145 36t119 101v361q-47 62 -118.5 99.5t-155.5 37.5q-136 0 -222.5 -94 t-86.5 -224z" />
<glyph unicode="b" d="M174 0v1454h195v-575q124 104 295 104q132 0 235 -61q112 -66 180 -183t68 -258t-67 -256.5t-179 -181.5q-107 -63 -242 -63q-177 0 -297 108v-88h-188zM369 301q49 -65 119 -101t145 -36q137 0 228 93t91 224q0 130 -86.5 224t-222.5 94q-84 0 -155.5 -37.5 t-118.5 -99.5v-361z" />
<glyph unicode="c" horiz-adv-x="1085" d="M92 481q0 214 143 358t359 144q124 0 232.5 -56.5t177.5 -152.5l-144 -121q-45 63 -113 104.5t-153 41.5q-131 0 -219 -91t-88 -227q0 -140 90 -228.5t229 -88.5q168 0 279 149l149 -108q-60 -100 -178.5 -162.5t-249.5 -62.5q-222 0 -368 143t-146 358z" />
<glyph unicode="d" d="M92 481q0 141 68 258t180 183q103 61 235 61q171 0 295 -104v575h195v-1454h-188v88q-120 -108 -297 -108q-135 0 -242 63q-112 66 -179 181.5t-67 256.5zM287 481q0 -131 91 -224t228 -93q75 0 145 36t119 101v361q-47 62 -118.5 99.5t-155.5 37.5q-136 0 -222.5 -94 t-86.5 -224z" />
<glyph unicode="e" horiz-adv-x="1116" d="M92 481q0 217 132.5 359.5t336.5 142.5q200 0 331.5 -143.5t131.5 -358.5q0 -23 -2 -41h-741q8 -122 97 -206t214 -84q96 0 159.5 36t116.5 95l127 -121q-61 -77 -164.5 -128.5t-240.5 -51.5q-139 0 -253 64.5t-179.5 179.5t-65.5 257zM297 604h524q-22 91 -94.5 150 t-159.5 59q-94 0 -169.5 -58t-100.5 -151z" />
<glyph unicode="f" horiz-adv-x="829" d="M51 788v175h225v81q0 183 62 271q53 76 135.5 118t179.5 42q64 0 115 -15l-41 -178q-28 8 -72 8q-42 0 -82.5 -18t-64.5 -49q-37 -48 -37 -172v-88h297v-175h-297v-788h-195v788h-225z" />
<glyph unicode="g" d="M92 481q0 141 68 258t180 183q103 61 235 61q176 0 302 -109v89h188v-922q0 -204 -57 -315q-59 -113 -167 -175.5t-249 -62.5q-89 0 -169 21t-137.5 55t-97.5 71t-65 76l143 133q61 -81 135 -126.5t183 -45.5q161 0 233 111q53 80 53 248v53q-119 -104 -290 -104 q-135 0 -242 63q-112 66 -179 181.5t-67 256.5zM287 481q0 -131 91 -224t228 -93q75 0 145 36t119 101v361q-47 62 -118.5 99.5t-155.5 37.5q-136 0 -222.5 -94t-86.5 -224z" />
<glyph unicode="h" horiz-adv-x="1249" d="M174 0v1454h195v-575q122 104 282 104q104 0 195.5 -45.5t154.5 -124.5q95 -121 95 -342v-471h-195v481q0 154 -57 224q-34 43 -87 68.5t-112 25.5q-164 0 -276 -137v-662h-195z" />
<glyph unicode="i" horiz-adv-x="542" d="M143 1305q0 54 36.5 91.5t90.5 37.5t91.5 -37.5t37.5 -91.5t-37.5 -90.5t-91.5 -36.5t-90.5 36.5t-36.5 90.5zM174 0v963h195v-963h-195z" />
<glyph unicode="j" horiz-adv-x="583" d="M-82 -498l41 179q31 -9 72 -9q42 0 82.5 18t64.5 50q37 48 37 172v1051h195v-1045q0 -182 -62 -270q-53 -76 -135.5 -118t-179.5 -42q-68 0 -115 14zM184 1305q0 54 36.5 91.5t90.5 37.5t91.5 -37.5t37.5 -91.5t-37.5 -90.5t-91.5 -36.5t-90.5 36.5t-36.5 90.5z" />
<glyph unicode="k" horiz-adv-x="1126" d="M174 0v1454h195v-860l401 369h274l-481 -435l543 -528h-260l-477 471v-471h-195z" />
<glyph unicode="l" horiz-adv-x="542" d="M174 0v1454h195v-1454h-195z" />
<glyph unicode="m" horiz-adv-x="1935" d="M174 0v963h188v-93q36 40 115 76.5t168 36.5q103 0 190.5 -43t149.5 -117q76 76 161.5 118t205.5 42q102 0 191.5 -43t150.5 -119q45 -57 66.5 -133.5t21.5 -195.5v-492h-195v522q0 129 -55 193q-71 84 -180 84q-162 0 -293 -137q16 -75 16 -170v-492h-194v522 q0 127 -56 193q-33 39 -82 61.5t-104 22.5q-82 0 -152 -40t-118 -97v-662h-195z" />
<glyph unicode="n" horiz-adv-x="1249" d="M174 0v963h188v-93q48 46 121.5 79.5t167.5 33.5q104 0 195.5 -45.5t154.5 -124.5q95 -121 95 -342v-471h-195v481q0 154 -57 224q-34 43 -87 68.5t-112 25.5q-164 0 -276 -137v-662h-195z" />
<glyph unicode="o" horiz-adv-x="1179" d="M92 481q0 215 142 358.5t356 143.5t355.5 -143.5t141.5 -358.5t-141.5 -358t-355.5 -143t-356 143t-142 358zM287 481q0 -134 85.5 -225.5t217.5 -91.5t217.5 91.5t85.5 225.5t-85.5 226t-217.5 92t-217.5 -92t-85.5 -226z" />
<glyph unicode="p" d="M174 -492v1455h188v-89q126 109 302 109q132 0 235 -61q112 -66 180 -183t68 -258t-67 -256.5t-179 -181.5q-107 -63 -242 -63q-171 0 -290 104v-576h-195zM369 301q49 -65 119 -101t145 -36q137 0 228 93t91 224q0 130 -86.5 224t-222.5 94q-84 0 -155.5 -37.5 t-118.5 -99.5v-361z" />
<glyph unicode="q" d="M92 481q0 141 68 258t180 183q103 61 235 61q176 0 302 -109v89h188v-1455h-195v576q-119 -104 -290 -104q-135 0 -242 63q-112 66 -179 181.5t-67 256.5zM287 481q0 -131 91 -224t228 -93q75 0 145 36t119 101v361q-47 62 -118.5 99.5t-155.5 37.5q-136 0 -222.5 -94 t-86.5 -224z" />
<glyph unicode="r" horiz-adv-x="788" d="M174 0v963h188v-111q39 55 114.5 93t174.5 38q41 0 76 -6l-22 -186q-31 8 -76 8q-74 0 -147 -46t-113 -116v-637h-195z" />
<glyph unicode="s" horiz-adv-x="931" d="M82 113l100 143q136 -106 285 -106q67 0 117.5 33t50.5 87q0 32 -16.5 54.5t-50.5 38t-66 25t-84 22.5t-84 24q-221 74 -221 248q0 75 31 134t82.5 94.5t113.5 54t129 18.5q187 0 319 -106l-100 -140q-100 76 -207 76q-73 0 -123.5 -33t-50.5 -88q0 -19 9.5 -34.5 t22.5 -26t39 -20.5t45.5 -16t55.5 -15q54 -14 95.5 -27.5t92.5 -39.5t83.5 -56.5t55.5 -78t23 -104.5q0 -132 -105.5 -213t-252.5 -81q-225 0 -389 133z" />
<glyph unicode="t" horiz-adv-x="860" d="M20 788v175h246v266h195v-266h307v-175h-307v-450q0 -91 28 -123q20 -24 57 -37.5t77 -13.5q63 0 106 12l39 -176q-62 -20 -152 -20q-174 0 -272 112q-78 86 -78 256v440h-246z" />
<glyph unicode="u" horiz-adv-x="1228" d="M154 471v492h194v-523q0 -128 55 -192q33 -39 82.5 -61.5t104.5 -22.5q82 0 152 40t118 97v662h195v-963h-189v88q-42 -40 -117.5 -74t-164.5 -34q-102 0 -191.5 42.5t-150.5 118.5q-45 57 -66.5 134t-21.5 196z" />
<glyph unicode="v" horiz-adv-x="1011" d="M20 963h201l285 -656l285 656h200l-418 -963h-135z" />
<glyph unicode="w" horiz-adv-x="1634" d="M20 963h201l264 -658l265 658h135l264 -658l264 658h201l-391 -963h-136l-270 676l-270 -676h-135z" />
<glyph unicode="x" horiz-adv-x="1044" d="M31 0l364 506l-329 457h229l227 -312l228 312h229l-330 -457l365 -506h-232l-260 360l-260 -360h-231z" />
<glyph unicode="y" horiz-adv-x="1042" d="M20 963h209l301 -635l277 635h205l-633 -1455h-207l260 592z" />
<glyph unicode="z" horiz-adv-x="962" d="M82 0v123l528 665h-497v175h768v-123l-531 -666h572v-174h-840z" />
<glyph unicode="{" horiz-adv-x="911" d="M143 451v122q87 0 125.5 32.5t38.5 111.5q0 51 -10 177.5t-10 197.5q0 193 106 276q81 66 252 66h62v-185h-70q-83 0 -121 -41q-35 -40 -35 -129q0 -56 10.5 -173t10.5 -183q0 -63 -17 -108t-38.5 -65.5t-53.5 -37.5q32 -17 53.5 -37.5t38.5 -65.5t17 -108 q0 -66 -10.5 -183t-10.5 -173q0 -89 35 -129q38 -41 121 -41h70v-185h-62q-171 0 -252 66q-106 83 -106 276q0 71 10 197.5t10 177.5q0 79 -38.5 111.5t-125.5 32.5z" />
<glyph unicode="|" horiz-adv-x="440" d="M123 -410v1844h194v-1844h-194z" />
<glyph unicode="}" horiz-adv-x="911" d="M205 -225h69q83 0 121 41q35 40 35 129q0 56 -10 173t-10 183q0 92 29 138.5t79 72.5q-50 26 -79 72.5t-29 138.5q0 66 10 183t10 173q0 89 -35 129q-38 41 -121 41h-69v185h61q171 0 252 -66q107 -83 107 -276q0 -71 -10.5 -197.5t-10.5 -177.5q0 -79 38.5 -111.5 t125.5 -32.5v-122q-87 0 -125.5 -32.5t-38.5 -111.5q0 -51 10.5 -177.5t10.5 -197.5q0 -193 -107 -276q-81 -66 -252 -66h-61v185z" />
<glyph unicode="~" horiz-adv-x="1146" d="M51 453q20 50 46.5 93.5t64 83t89.5 62.5t111 23q53 0 105 -18.5t91.5 -45t76 -53t73 -45t68.5 -18.5q92 0 162 157l158 -80q-20 -50 -47 -93.5t-64.5 -83t-89.5 -62.5t-111 -23q-53 0 -104.5 18.5t-91.5 45t-76 53t-72.5 45t-68.5 18.5q-92 0 -162 -157z" />
<glyph unicode="&#xa1;" horiz-adv-x="696" d="M205 840q0 60 41.5 101.5t101.5 41.5t102 -41.5t42 -101.5t-42 -102t-102 -42t-101.5 42t-41.5 102zM252 -20l31 512h133l30 -512v-472h-194v472z" />
<glyph unicode="&#xa2;" horiz-adv-x="1085" d="M92 481q0 187 112.5 323.5t291.5 168.5v225h194v-225q94 -19 176 -71t138 -128l-144 -121q-45 63 -113 104.5t-153 41.5q-131 0 -219 -91t-88 -227q0 -140 90 -228.5t229 -88.5q168 0 279 149l149 -108q-51 -84 -143 -142t-201 -75v-224h-194v228q-180 34 -292 168.5 t-112 320.5z" />
<glyph unicode="&#xa3;" horiz-adv-x="1085" d="M82 0v123q87 33 152 103t95.5 147t30.5 149q0 53 -18 123h-219v174h156q-62 150 -62 254q0 109 56 197.5t146 136t193 47.5q116 0 207.5 -55t149.5 -137l-154 -111q-33 52 -84.5 85.5t-118.5 33.5q-78 0 -139 -56t-61 -145q0 -20 3.5 -42t7.5 -38.5t13 -43t14 -39.5 t18 -44.5t17 -42.5h303v-174h-245q12 -59 12 -123q0 -94 -33 -185.5t-86 -152.5h598v-184h-952z" />
<glyph unicode="&#xa4;" horiz-adv-x="1146" d="M61 336l156 156q-65 105 -65 227t65 227l-156 156l129 129l156 -156q106 66 227 66q122 0 228 -66l155 156l129 -129l-155 -156q65 -100 65 -227t-65 -227l155 -156l-129 -129l-155 155q-100 -65 -228 -65q-127 0 -227 65l-156 -155zM346 719q0 -94 66.5 -160.5 t160.5 -66.5t161 66.5t67 160.5t-67 160.5t-161 66.5t-160.5 -66.5t-66.5 -160.5z" />
<glyph unicode="&#xa5;" horiz-adv-x="1228" d="M20 1434h234l360 -586l361 586h233l-295 -471h193v-175h-301l-88 -143h389v-174h-389v-471h-205v471h-389v174h389l-90 143h-299v175h190z" />
<glyph unicode="&#xa6;" horiz-adv-x="522" d="M164 389h194v-799h-194v799zM164 635v799h194v-799h-194z" />
<glyph unicode="&#xa7;" horiz-adv-x="1187" d="M92 528q0 93 51 183t131 151q-86 83 -86 211q0 158 124.5 269.5t310.5 111.5q212 0 385 -143l-121 -150q-117 99 -256 99q-97 0 -167.5 -47.5t-70.5 -133.5q0 -44 29.5 -79t84 -61.5t112 -47.5t133.5 -50.5t129 -58.5q215 -117 215 -327q0 -95 -51.5 -184.5 t-131.5 -149.5q86 -89 86 -211q0 -159 -124.5 -270t-309.5 -111q-212 0 -385 143l121 150q116 -98 256 -98q97 0 167.5 47t70.5 133q0 44 -29.5 79t-84 61.5t-112 47.5t-133.5 50.5t-129 58.5q-215 117 -215 327zM297 537q0 -42 20 -78t49.5 -60t78 -48.5t90.5 -40 t103.5 -39t100.5 -40.5q59 29 105.5 89t46.5 126q0 42 -20 77.5t-49.5 59.5t-78.5 48.5t-91.5 40t-104 39t-101.5 41.5q-60 -31 -104.5 -90t-44.5 -125z" />
<glyph unicode="&#xa8;" horiz-adv-x="921" d="M143 1264q0 54 36.5 91.5t90.5 37.5t91.5 -37.5t37.5 -91.5t-37.5 -90.5t-91.5 -36.5t-90.5 36.5t-36.5 90.5zM522 1264q0 54 36.5 91.5t90.5 37.5t91.5 -37.5t37.5 -91.5t-37.5 -90.5t-91.5 -36.5t-90.5 36.5t-36.5 90.5z" />
<glyph unicode="&#xa9;" horiz-adv-x="1720" d="M143 717q0 145 57 278t153 229t229 153t278 57t278 -57t229 -153t153 -229t57 -278t-57 -278t-153 -229t-229 -153t-278 -57t-278 57t-229 153t-153 229t-57 278zM276 717q0 -158 78 -292t212 -212t292 -78t292.5 77.5t213 212t78.5 292.5t-78.5 292.5t-213 212.5 t-292.5 78t-292 -78t-212 -212.5t-78 -292.5zM479 723q0 174 113 292t282 118q146 0 265 -107l-80 -104q-90 71 -185 71q-106 0 -175.5 -76t-69.5 -194q0 -117 71.5 -194.5t186.5 -77.5q60 0 104 19t90 54l80 -106q-123 -107 -278 -107q-177 0 -290.5 118.5t-113.5 293.5z " />
<glyph unicode="&#xaa;" horiz-adv-x="851" d="M102 1126q0 136 94 232t222 96q110 0 184 -65v51h148v-627h-148v51q-74 -65 -184 -65q-128 0 -222 95.5t-94 231.5zM254 1126q0 -79 53.5 -134.5t132.5 -55.5q98 0 158 80v221q-60 80 -158 80q-79 0 -132.5 -56t-53.5 -135z" />
<glyph unicode="&#xab;" horiz-adv-x="1228" d="M164 440v103l274 338h238l-316 -389l316 -390h-238zM635 440v103l274 338h238l-316 -389l316 -390h-238z" />
<glyph unicode="&#xac;" horiz-adv-x="1085" d="M82 625v184h901v-553h-184v369h-717z" />
<glyph unicode="&#xad;" horiz-adv-x="942" d="M164 440v164h614v-164h-614z" />
<glyph unicode="&#xae;" horiz-adv-x="1720" d="M143 717q0 145 57 278t153 229t229 153t278 57t278 -57t229 -153t153 -229t57 -278t-57 -278t-153 -229t-229 -153t-278 -57t-278 57t-229 153t-153 229t-57 278zM276 717q0 -158 78 -292t212 -212t292 -78t292.5 77.5t213 212t78.5 292.5t-78.5 292.5t-213 212.5 t-292.5 78t-292 -78t-212 -212.5t-78 -292.5zM621 330v784h262q95 0 151 -47q84 -65 84 -170q0 -68 -41.5 -128.5t-105.5 -80.5l250 -358h-170l-244 348h-39v-348h-147zM768 817h102q58 0 80 25q19 22 19 53q0 29 -19 51q-25 29 -80 29h-102v-158z" />
<glyph unicode="&#xaf;" horiz-adv-x="901" d="M143 1178v174h615v-174h-615z" />
<glyph unicode="&#xb0;" horiz-adv-x="819" d="M82 1126q0 135 96.5 231.5t231.5 96.5t231 -96.5t96 -231.5t-96 -231t-231 -96t-231.5 96t-96.5 231zM246 1126q0 -67 48 -115t116 -48t115.5 47.5t47.5 115.5t-48 116t-115 48q-68 0 -116 -48t-48 -116z" />
<glyph unicode="&#xb1;" horiz-adv-x="1105" d="M102 41v184h902v-184h-902zM102 563v185h359v276h184v-276h359v-185h-359v-276h-184v276h-359z" />
<glyph unicode="&#xb2;" horiz-adv-x="636" d="M61 696v82l279 312q68 73 68 124q0 40 -27 68.5t-70 28.5q-37 0 -64.5 -25t-39.5 -67l-144 43q23 88 89.5 140t158.5 52q102 0 176 -68.5t74 -171.5q0 -95 -88 -194l-162 -180h254v-144h-504z" />
<glyph unicode="&#xb3;" horiz-adv-x="620" d="M41 807l123 78q18 -31 50 -50.5t69 -19.5q53 0 88 35.5t35 87.5t-34.5 89.5t-90.5 37.5q-43 0 -101 -23v82l125 166h-235v144h456v-82l-131 -181q71 -25 117.5 -90.5t46.5 -142.5q0 -110 -79.5 -186t-196.5 -76q-80 0 -142.5 36t-99.5 95z" />
<glyph unicode="&#xb4;" horiz-adv-x="634" d="M143 1126l133 308h216l-216 -308h-133z" />
<glyph unicode="&#xb5;" horiz-adv-x="1249" d="M174 -492v1455h195v-523q0 -128 55 -192q71 -84 180 -84q154 0 277 137v662h194v-963h-188v88q-42 -40 -118 -74t-165 -34q-72 0 -136 28.5t-99 63.5v-564h-195z" />
<glyph unicode="&#xb6;" horiz-adv-x="1402" d="M61 993q0 109 48.5 202.5t132.5 154.5q117 84 301 84h757v-185h-204v-1659h-195v1659h-205v-1659h-194v963q-183 0 -312 128.5t-129 311.5zM256 993q0 -107 70.5 -181.5t175.5 -74.5v512q-105 0 -175.5 -74.5t-70.5 -181.5z" />
<glyph unicode="&#xb7;" horiz-adv-x="696" d="M205 481q0 60 41.5 102t101.5 42t102 -42t42 -102t-42 -101.5t-102 -41.5t-101.5 41.5t-41.5 101.5z" />
<glyph unicode="&#xb8;" horiz-adv-x="563" d="M143 -287l144 307h133l-62 -307h-215z" />
<glyph unicode="&#xb9;" horiz-adv-x="481" d="M61 1165v154l226 115h92v-738h-154v545z" />
<glyph unicode="&#xba;" horiz-adv-x="851" d="M102 1126q0 137 92 232.5t232 95.5t232 -95.5t92 -232.5t-92 -232t-232 -95t-232 95t-92 232zM254 1124q0 -81 47.5 -134.5t124.5 -53.5t124.5 53.5t47.5 134.5q0 84 -47.5 138.5t-124.5 54.5t-124.5 -54.5t-47.5 -138.5z" />
<glyph unicode="&#xbb;" horiz-adv-x="1228" d="M82 102l315 390l-315 389h237l275 -338v-103l-275 -338h-237zM553 102l315 390l-315 389h238l274 -338v-103l-274 -338h-238z" />
<glyph unicode="&#xbc;" horiz-adv-x="1294" d="M61 1165v154l226 115h92v-738h-154v545zM133 0l838 1434h176l-838 -1434h-176zM655 158v82l392 497h92v-436h125v-143h-125v-158h-154v158h-330zM883 301h102v135z" />
<glyph unicode="&#xbd;" horiz-adv-x="1384" d="M61 1165v154l226 115h92v-738h-154v545zM133 0l838 1434h176l-838 -1434h-176zM809 0v82l278 311q68 73 68 125q0 40 -26.5 68t-69.5 28q-37 0 -65 -25t-40 -67l-143 43q23 88 89.5 140.5t158.5 52.5q102 0 176 -68.5t74 -171.5q0 -95 -88 -194l-162 -181h254v-143h-504z " />
<glyph unicode="&#xbe;" horiz-adv-x="1372" d="M41 807l123 78q18 -31 50 -50.5t69 -19.5q53 0 88 35.5t35 87.5t-34.5 89.5t-90.5 37.5q-43 0 -101 -23v82l125 166h-235v144h456v-82l-131 -181q71 -25 117.5 -90.5t46.5 -142.5q0 -110 -79.5 -186t-196.5 -76q-80 0 -142.5 36t-99.5 95zM211 0l838 1434h176l-838 -1434 h-176zM733 158v82l391 497h93v-436h124v-143h-124v-158h-154v158h-330zM961 301h102v135z" />
<glyph unicode="&#xbf;" horiz-adv-x="1024" d="M82 -139q0 64 19.5 121.5t51 100t69.5 79.5t76 66t69.5 53.5t51 48.5t19.5 45q0 39 -53 86l129 135q119 -89 119 -219q0 -51 -19.5 -96.5t-51 -79t-70 -64.5t-76.5 -60.5t-69.5 -60.5t-51 -70.5t-19.5 -84.5q0 -79 58 -134t149 -55q81 0 145 45.5t79 110.5l184 -53 q-31 -125 -145 -206t-263 -81q-171 0 -286 109t-115 264zM348 840q0 60 42 101.5t102 41.5t101.5 -41.5t41.5 -101.5t-41.5 -102t-101.5 -42t-102 42t-42 102z" />
<glyph unicode="&#xc0;" horiz-adv-x="1351" d="M10 0l594 1434h144l593 -1434h-213l-151 369h-604l-150 -369h-213zM389 1843h215l133 -307h-133zM455 563h442l-221 533z" />
<glyph unicode="&#xc1;" horiz-adv-x="1351" d="M10 0l594 1434h144l593 -1434h-213l-151 369h-604l-150 -369h-213zM455 563h442l-221 533zM614 1536l134 307h215l-215 -307h-134z" />
<glyph unicode="&#xc2;" horiz-adv-x="1351" d="M10 0l594 1434h144l593 -1434h-213l-151 369h-604l-150 -369h-213zM369 1536l194 307h225l195 -307h-133l-174 193l-174 -193h-133zM455 563h442l-221 533z" />
<glyph unicode="&#xc3;" horiz-adv-x="1351" d="M10 0l594 1434h144l593 -1434h-213l-151 369h-604l-150 -369h-213zM328 1599q3 94 60 159t147 65q44 0 96 -23t100 -46t82 -23t52 23t26 69l133 -43q-3 -94 -60 -159t-147 -65q-44 0 -96 23t-100 46.5t-82 23.5t-52 -23t-26 -70zM455 563h442l-221 533z" />
<glyph unicode="&#xc4;" horiz-adv-x="1351" d="M10 0l594 1434h144l593 -1434h-213l-151 369h-604l-150 -369h-213zM358 1673q0 54 36.5 91.5t90.5 37.5t91.5 -37.5t37.5 -91.5t-37.5 -90.5t-91.5 -36.5t-90.5 36.5t-36.5 90.5zM455 563h442l-221 533zM737 1673q0 54 36.5 91.5t90.5 37.5t91.5 -37.5t37.5 -91.5 t-37.5 -90.5t-91.5 -36.5t-90.5 36.5t-36.5 90.5z" />
<glyph unicode="&#xc5;" horiz-adv-x="1351" d="M10 0l594 1434h144l593 -1434h-213l-151 369h-604l-150 -369h-213zM455 563h442l-221 533zM471 1700q0 85 60 145t145 60t145 -60t60 -145t-60 -145t-145 -60t-145 60t-60 145zM594 1700q0 -34 24 -58t58 -24t58 24t24 58t-24 58t-58 24t-58 -24t-24 -58z" />
<glyph unicode="&#xc6;" horiz-adv-x="1863" d="M-41 0l856 1434h946v-195h-614v-369h471v-194h-471v-481h635v-195h-840v369h-528l-221 -369h-234zM528 563h414v697z" />
<glyph unicode="&#xc7;" horiz-adv-x="1413" d="M72 717q0 204 94 373t260.5 266.5t370.5 97.5q153 0 291.5 -59t232.5 -162l-137 -135q-65 71 -170 116.5t-217 45.5q-220 0 -370.5 -156t-150.5 -387q0 -159 71 -283.5t193.5 -192t274.5 -67.5q132 0 236.5 58.5t175.5 144.5l145 -131q-87 -111 -223 -182.5t-287 -81.5 l-53 -269h-215l127 273q-285 31 -467 234.5t-182 496.5z" />
<glyph unicode="&#xc8;" horiz-adv-x="1105" d="M184 0v1434h820v-195h-615v-369h471v-194h-471v-481h635v-195h-840zM338 1843h215l133 -307h-133z" />
<glyph unicode="&#xc9;" horiz-adv-x="1105" d="M184 0v1434h820v-195h-615v-369h471v-194h-471v-481h635v-195h-840zM522 1536l133 307h215l-215 -307h-133z" />
<glyph unicode="&#xca;" horiz-adv-x="1105" d="M184 0v1434h820v-195h-615v-369h471v-194h-471v-481h635v-195h-840zM287 1536l194 307h226l194 -307h-133l-174 193l-174 -193h-133z" />
<glyph unicode="&#xcb;" horiz-adv-x="1105" d="M184 0v1434h820v-195h-615v-369h471v-194h-471v-481h635v-195h-840zM276 1673q0 54 36.5 91.5t90.5 37.5t91.5 -37.5t37.5 -91.5t-37.5 -90.5t-91.5 -36.5t-90.5 36.5t-36.5 90.5zM655 1673q0 54 36.5 91.5t90.5 37.5t91.5 -37.5t37.5 -91.5t-37.5 -90.5t-91.5 -36.5 t-90.5 36.5t-36.5 90.5z" />
<glyph unicode="&#xcc;" horiz-adv-x="573" d="M20 1843h216l133 -307h-133zM184 0v1434h205v-1434h-205z" />
<glyph unicode="&#xcd;" horiz-adv-x="573" d="M184 0v1434h205v-1434h-205zM205 1536l133 307h215l-215 -307h-133z" />
<glyph unicode="&#xce;" horiz-adv-x="573" d="M-20 1536l194 307h225l195 -307h-133l-174 193l-174 -193h-133zM184 0v1434h205v-1434h-205z" />
<glyph unicode="&#xcf;" horiz-adv-x="573" d="M-31 1673q0 54 36.5 91.5t90.5 37.5t91.5 -37.5t37.5 -91.5t-37.5 -90.5t-91.5 -36.5t-90.5 36.5t-36.5 90.5zM184 0v1434h205v-1434h-205zM348 1673q0 54 36.5 91.5t90.5 37.5t91.5 -37.5t37.5 -91.5t-37.5 -90.5t-91.5 -36.5t-90.5 36.5t-36.5 90.5z" />
<glyph unicode="&#xd0;" horiz-adv-x="1464" d="M-20 676v194h204v564h430q307 0 492 -136q134 -100 210.5 -252.5t76.5 -328.5q0 -177 -76 -330t-209 -252q-184 -135 -494 -135h-430v676h-204zM389 195h215q146 0 243 29.5t167 90.5q82 72 128 177.5t46 224.5t-46 223.5t-128 177.5q-70 61 -167 91t-243 30h-215v-369 h410v-194h-410v-481z" />
<glyph unicode="&#xd1;" horiz-adv-x="1576" d="M184 0v1434h144l860 -1053v1053h205v-1434h-144l-860 1053v-1053h-205zM438 1599q3 94 60 159t147 65q44 0 96.5 -23t100.5 -46t82 -23t51.5 22.5t25.5 69.5l134 -43q-3 -94 -60 -159t-147 -65q-44 0 -96.5 23t-100.5 46.5t-82 23.5t-52 -23t-26 -70z" />
<glyph unicode="&#xd2;" horiz-adv-x="1576" d="M72 717q0 154 55 291t150 234.5t228 154.5t283 57q200 0 364.5 -96.5t258.5 -265.5t94 -375t-94 -375t-258.5 -265.5t-364.5 -96.5q-150 0 -283 57t-228 154.5t-150 234.5t-55 291zM276 717q0 -233 146 -388t366 -155t366 155t146 388q0 232 -146.5 387.5t-365.5 155.5 t-365.5 -155.5t-146.5 -387.5zM512 1843h215l133 -307h-133z" />
<glyph unicode="&#xd3;" horiz-adv-x="1576" d="M72 717q0 154 55 291t150 234.5t228 154.5t283 57q200 0 364.5 -96.5t258.5 -265.5t94 -375t-94 -375t-258.5 -265.5t-364.5 -96.5q-150 0 -283 57t-228 154.5t-150 234.5t-55 291zM276 717q0 -233 146 -388t366 -155t366 155t146 388q0 232 -146.5 387.5t-365.5 155.5 t-365.5 -155.5t-146.5 -387.5zM717 1536l133 307h215l-215 -307h-133z" />
<glyph unicode="&#xd4;" horiz-adv-x="1576" d="M72 717q0 154 55 291t150 234.5t228 154.5t283 57q200 0 364.5 -96.5t258.5 -265.5t94 -375t-94 -375t-258.5 -265.5t-364.5 -96.5q-150 0 -283 57t-228 154.5t-150 234.5t-55 291zM276 717q0 -233 146 -388t366 -155t366 155t146 388q0 232 -146.5 387.5t-365.5 155.5 t-365.5 -155.5t-146.5 -387.5zM481 1536l195 307h225l195 -307h-133l-175 193l-174 -193h-133z" />
<glyph unicode="&#xd5;" horiz-adv-x="1576" d="M72 717q0 154 55 291t150 234.5t228 154.5t283 57q200 0 364.5 -96.5t258.5 -265.5t94 -375t-94 -375t-258.5 -265.5t-364.5 -96.5q-150 0 -283 57t-228 154.5t-150 234.5t-55 291zM276 717q0 -233 146 -388t366 -155t366 155t146 388q0 232 -146.5 387.5t-365.5 155.5 t-365.5 -155.5t-146.5 -387.5zM440 1599q3 94 60 159t147 65q44 0 96.5 -23t100.5 -46t82 -23t52 23t26 69l133 -43q-3 -94 -60 -159t-147 -65q-44 0 -96.5 23t-100.5 46.5t-82 23.5t-52 -23t-26 -70z" />
<glyph unicode="&#xd6;" horiz-adv-x="1576" d="M72 717q0 154 55 291t150 234.5t228 154.5t283 57q200 0 364.5 -96.5t258.5 -265.5t94 -375t-94 -375t-258.5 -265.5t-364.5 -96.5q-150 0 -283 57t-228 154.5t-150 234.5t-55 291zM276 717q0 -233 146 -388t366 -155t366 155t146 388q0 232 -146.5 387.5t-365.5 155.5 t-365.5 -155.5t-146.5 -387.5zM471 1673q0 54 36.5 91.5t90.5 37.5t91.5 -37.5t37.5 -91.5t-37.5 -90.5t-91.5 -36.5t-90.5 36.5t-36.5 90.5zM850 1673q0 54 36.5 91.5t90.5 37.5t91.5 -37.5t37.5 -91.5t-37.5 -90.5t-91.5 -36.5t-90.5 36.5t-36.5 90.5z" />
<glyph unicode="&#xd7;" horiz-adv-x="1122" d="M133 236l297 296l-297 297l131 132l297 -297l297 297l131 -132l-297 -297l297 -296l-131 -132l-297 297l-297 -297z" />
<glyph unicode="&#xd8;" horiz-adv-x="1576" d="M45 -20l205 241q-178 203 -178 496q0 154 55 291t150 234.5t228 154.5t283 57q221 0 398 -119l100 119h244l-203 -244q178 -207 178 -493q0 -206 -94 -375t-258.5 -265.5t-364.5 -96.5q-220 0 -397 116l-100 -116h-246zM276 717q0 -195 105 -338l678 803q-124 78 -271 78 q-219 0 -365.5 -155.5t-146.5 -387.5zM518 250q121 -76 270 -76q220 0 366 155t146 388q0 195 -106 338z" />
<glyph unicode="&#xd9;" horiz-adv-x="1515" d="M164 594v840h205v-850q0 -184 90 -283q114 -127 299 -127t299 127q90 99 90 283v850h205v-840q0 -263 -150 -426q-83 -89 -198.5 -138.5t-245.5 -49.5q-131 0 -246.5 49.5t-198.5 138.5q-149 162 -149 426zM481 1843h215l133 -307h-133z" />
<glyph unicode="&#xda;" horiz-adv-x="1515" d="M164 594v840h205v-850q0 -184 90 -283q114 -127 299 -127t299 127q90 99 90 283v850h205v-840q0 -263 -150 -426q-83 -89 -198.5 -138.5t-245.5 -49.5q-131 0 -246.5 49.5t-198.5 138.5q-149 162 -149 426zM686 1536l133 307h215l-215 -307h-133z" />
<glyph unicode="&#xdb;" horiz-adv-x="1515" d="M164 594v840h205v-850q0 -184 90 -283q114 -127 299 -127t299 127q90 99 90 283v850h205v-840q0 -263 -150 -426q-83 -89 -198.5 -138.5t-245.5 -49.5q-131 0 -246.5 49.5t-198.5 138.5q-149 162 -149 426zM451 1536l194 307h225l195 -307h-133l-174 193l-174 -193h-133z " />
<glyph unicode="&#xdc;" horiz-adv-x="1515" d="M164 594v840h205v-850q0 -184 90 -283q114 -127 299 -127t299 127q90 99 90 283v850h205v-840q0 -263 -150 -426q-83 -89 -198.5 -138.5t-245.5 -49.5q-131 0 -246.5 49.5t-198.5 138.5q-149 162 -149 426zM440 1673q0 54 36.5 91.5t90.5 37.5t91.5 -37.5t37.5 -91.5 t-37.5 -90.5t-91.5 -36.5t-90.5 36.5t-36.5 90.5zM819 1673q0 54 36.5 91.5t90.5 37.5t91.5 -37.5t37.5 -91.5t-37.5 -90.5t-91.5 -36.5t-90.5 36.5t-36.5 90.5z" />
<glyph unicode="&#xdd;" horiz-adv-x="1228" d="M20 1434h230l364 -576l365 576h229l-491 -779v-655h-205v655zM543 1536l133 307h215l-215 -307h-133z" />
<glyph unicode="&#xde;" horiz-adv-x="1228" d="M184 0v1434h205v-318h338q187 0 299 -94q66 -57 103.5 -136t37.5 -169t-37.5 -169t-103.5 -136q-113 -95 -299 -95h-338v-317h-205zM389 512h328q128 0 188 63q58 61 58 142q0 80 -58 141q-61 64 -188 64h-328v-410z" />
<glyph unicode="&#xdf;" horiz-adv-x="1208" d="M174 0v1044q0 188 100 299q56 62 135 97t169 35q166 0 284.5 -114.5t118.5 -275.5q0 -72 -29 -141.5t-80 -114.5q111 -58 177.5 -164.5t66.5 -234.5q0 -123 -58 -226t-162 -163.5t-230 -60.5q-105 0 -197 45l74 161q52 -22 108 -22q117 0 192 77t75 189q0 103 -70 180 q-80 86 -238 86h-78v185h9q119 0 178 53q67 60 67 151q0 84 -58 144.5t-142 60.5q-105 0 -164 -71q-53 -60 -53 -175v-1044h-195z" />
<glyph unicode="&#xe0;" d="M92 481q0 141 68 258t180 183q103 61 235 61q176 0 302 -109v89h188v-963h-188v88q-120 -108 -297 -108q-135 0 -242 63q-112 66 -179 181.5t-67 256.5zM287 481q0 -131 91 -224t228 -93q75 0 145 36t119 101v361q-47 62 -118.5 99.5t-155.5 37.5q-136 0 -222.5 -94 t-86.5 -224zM414 1434h215l133 -308h-133z" />
<glyph unicode="&#xe1;" d="M92 481q0 141 68 258t180 183q103 61 235 61q176 0 302 -109v89h188v-963h-188v88q-120 -108 -297 -108q-135 0 -242 63q-112 66 -179 181.5t-67 256.5zM287 481q0 -131 91 -224t228 -93q75 0 145 36t119 101v361q-47 62 -118.5 99.5t-155.5 37.5q-136 0 -222.5 -94 t-86.5 -224zM516 1126l133 308h215l-215 -308h-133z" />
<glyph unicode="&#xe2;" d="M92 481q0 141 68 258t180 183q103 61 235 61q176 0 302 -109v89h188v-963h-188v88q-120 -108 -297 -108q-135 0 -242 63q-112 66 -179 181.5t-67 256.5zM287 481q0 -131 91 -224t228 -93q75 0 145 36t119 101v361q-47 62 -118.5 99.5t-155.5 37.5q-136 0 -222.5 -94 t-86.5 -224zM322 1126l194 308h225l195 -308h-133l-174 193l-174 -193h-133z" />
<glyph unicode="&#xe3;" d="M92 481q0 141 68 258t180 183q103 61 235 61q176 0 302 -109v89h188v-963h-188v88q-120 -108 -297 -108q-135 0 -242 63q-112 66 -179 181.5t-67 256.5zM268 1190q3 94 60 158.5t147 64.5q44 0 96.5 -23t100.5 -46t82 -23t51.5 22.5t25.5 69.5l134 -43q-3 -94 -60 -158.5 t-147 -64.5q-44 0 -96.5 23t-100.5 46t-82 23t-52 -23t-26 -69zM287 481q0 -131 91 -224t228 -93q75 0 145 36t119 101v361q-47 62 -118.5 99.5t-155.5 37.5q-136 0 -222.5 -94t-86.5 -224z" />
<glyph unicode="&#xe4;" d="M92 481q0 141 68 258t180 183q103 61 235 61q176 0 302 -109v89h188v-963h-188v88q-120 -108 -297 -108q-135 0 -242 63q-112 66 -179 181.5t-67 256.5zM287 481q0 -131 91 -224t228 -93q75 0 145 36t119 101v361q-47 62 -118.5 99.5t-155.5 37.5q-136 0 -222.5 -94 t-86.5 -224zM291 1264q0 54 36.5 91.5t90.5 37.5t91.5 -37.5t37.5 -91.5t-37.5 -90.5t-91.5 -36.5t-90.5 36.5t-36.5 90.5zM670 1264q0 54 36.5 91.5t90.5 37.5t91.5 -37.5t37.5 -91.5t-37.5 -90.5t-91.5 -36.5t-90.5 36.5t-36.5 90.5z" />
<glyph unicode="&#xe5;" d="M92 481q0 141 68 258t180 183q103 61 235 61q176 0 302 -109v89h188v-963h-188v88q-120 -108 -297 -108q-135 0 -242 63q-112 66 -179 181.5t-67 256.5zM287 481q0 -131 91 -224t228 -93q75 0 145 36t119 101v361q-47 62 -118.5 99.5t-155.5 37.5q-136 0 -222.5 -94 t-86.5 -224zM403 1290q0 85 60 145t145 60t145 -60t60 -145t-60 -145t-145 -60t-145 60t-60 145zM526 1290q0 -34 24 -58t58 -24t58 24t24 58t-24 58t-58 24t-58 -24t-24 -58z" />
<glyph unicode="&#xe6;" horiz-adv-x="1902" d="M92 481q0 141 68 258t180 183q103 61 235 61q176 0 302 -109v89h172v-89q122 109 288 109q197 0 335 -145.5t138 -356.5q0 -23 -2 -41h-751q11 -123 103.5 -206.5t223.5 -83.5q153 0 271 131l127 -121q-62 -77 -161.5 -128.5t-231.5 -51.5q-200 0 -340 131v-111h-172v88 q-120 -108 -297 -108q-135 0 -242 63q-112 66 -179 181.5t-67 256.5zM287 481q0 -131 91 -224t228 -93q75 0 145 36t119 101v361q-47 62 -118.5 99.5t-155.5 37.5q-136 0 -222.5 -94t-86.5 -224zM1067 604h541q-23 92 -97.5 150.5t-164.5 58.5q-97 0 -175 -58t-104 -151z " />
<glyph unicode="&#xe7;" horiz-adv-x="1085" d="M92 481q0 214 143 358t359 144q124 0 232.5 -56.5t177.5 -152.5l-144 -121q-45 63 -113 104.5t-153 41.5q-131 0 -219 -91t-88 -227q0 -140 90 -228.5t229 -88.5q168 0 279 149l149 -108q-53 -87 -149 -146.5t-209 -72.5l-53 -273h-215l124 273q-194 23 -317 161 t-123 334z" />
<glyph unicode="&#xe8;" horiz-adv-x="1116" d="M92 481q0 217 132.5 359.5t336.5 142.5q200 0 331.5 -143.5t131.5 -358.5q0 -23 -2 -41h-741q8 -122 97 -206t214 -84q96 0 159.5 36t116.5 95l127 -121q-61 -77 -164.5 -128.5t-240.5 -51.5q-139 0 -253 64.5t-179.5 179.5t-65.5 257zM297 604h524q-22 91 -94.5 150 t-159.5 59q-94 0 -169.5 -58t-100.5 -151zM322 1434h215l133 -308h-133z" />
<glyph unicode="&#xe9;" horiz-adv-x="1116" d="M92 481q0 217 132.5 359.5t336.5 142.5q200 0 331.5 -143.5t131.5 -358.5q0 -23 -2 -41h-741q8 -122 97 -206t214 -84q96 0 159.5 36t116.5 95l127 -121q-61 -77 -164.5 -128.5t-240.5 -51.5q-139 0 -253 64.5t-179.5 179.5t-65.5 257zM297 604h524q-22 91 -94.5 150 t-159.5 59q-94 0 -169.5 -58t-100.5 -151zM485 1126l133 308h216l-216 -308h-133z" />
<glyph unicode="&#xea;" horiz-adv-x="1116" d="M92 481q0 217 132.5 359.5t336.5 142.5q200 0 331.5 -143.5t131.5 -358.5q0 -23 -2 -41h-741q8 -122 97 -206t214 -84q96 0 159.5 36t116.5 95l127 -121q-61 -77 -164.5 -128.5t-240.5 -51.5q-139 0 -253 64.5t-179.5 179.5t-65.5 257zM260 1126l195 308h225l194 -308 h-133l-174 193l-174 -193h-133zM297 604h524q-22 91 -94.5 150t-159.5 59q-94 0 -169.5 -58t-100.5 -151z" />
<glyph unicode="&#xeb;" horiz-adv-x="1116" d="M92 481q0 217 132.5 359.5t336.5 142.5q200 0 331.5 -143.5t131.5 -358.5q0 -23 -2 -41h-741q8 -122 97 -206t214 -84q96 0 159.5 36t116.5 95l127 -121q-61 -77 -164.5 -128.5t-240.5 -51.5q-139 0 -253 64.5t-179.5 179.5t-65.5 257zM240 1264q0 54 36.5 91.5 t90.5 37.5t91.5 -37.5t37.5 -91.5t-37.5 -90.5t-91.5 -36.5t-90.5 36.5t-36.5 90.5zM297 604h524q-22 91 -94.5 150t-159.5 59q-94 0 -169.5 -58t-100.5 -151zM618 1264q0 54 36.5 91.5t90.5 37.5t91.5 -37.5t37.5 -91.5t-37.5 -90.5t-91.5 -36.5t-90.5 36.5t-36.5 90.5z " />
<glyph unicode="&#xec;" horiz-adv-x="542" d="M20 1434h216l133 -308h-133zM174 0v963h195v-963h-195z" />
<glyph unicode="&#xed;" horiz-adv-x="542" d="M174 0v963h195v-963h-195zM174 1126l133 308h215l-215 -308h-133z" />
<glyph unicode="&#xee;" horiz-adv-x="542" d="M-37 1126l195 308h225l195 -308h-134l-174 193l-174 -193h-133zM174 0v963h195v-963h-195z" />
<glyph unicode="&#xef;" horiz-adv-x="542" d="M-47 1264q0 54 36.5 91.5t90.5 37.5t91.5 -37.5t37.5 -91.5t-37.5 -90.5t-91.5 -36.5t-90.5 36.5t-36.5 90.5zM174 0v963h195v-963h-195zM332 1264q0 54 36.5 91.5t90.5 37.5t91.5 -37.5t37.5 -91.5t-37.5 -90.5t-91.5 -36.5t-90.5 36.5t-36.5 90.5z" />
<glyph unicode="&#xf0;" horiz-adv-x="1179" d="M92 481q0 137 63.5 252t178.5 182.5t256 67.5q15 0 47 -4l-100 151l-164 -104l-92 139l163 105l-120 184h227l53 -84l164 105l92 -140l-164 -104l246 -369q145 -221 145 -381q0 -137 -64 -251.5t-178.5 -182t-254.5 -67.5q-212 0 -355 145t-143 356zM287 481 q0 -134 85.5 -225.5t217.5 -91.5t217.5 91.5t85.5 225.5q0 64 -29.5 139t-77.5 132q-88 47 -196 47q-132 0 -217.5 -92t-85.5 -226z" />
<glyph unicode="&#xf1;" horiz-adv-x="1249" d="M174 0v963h188v-93q48 46 121.5 79.5t167.5 33.5q104 0 195.5 -45.5t154.5 -124.5q95 -121 95 -342v-471h-195v481q0 154 -57 224q-34 43 -87 68.5t-112 25.5q-164 0 -276 -137v-662h-195zM289 1190q3 94 60 158.5t147 64.5q44 0 96 -23t100 -46t82 -23t52 23t26 69 l133 -43q-3 -94 -60 -158.5t-147 -64.5q-44 0 -96 23t-100 46t-82 23t-52 -23t-26 -69z" />
<glyph unicode="&#xf2;" horiz-adv-x="1179" d="M92 481q0 215 142 358.5t356 143.5t355.5 -143.5t141.5 -358.5t-141.5 -358t-355.5 -143t-356 143t-142 358zM287 481q0 -134 85.5 -225.5t217.5 -91.5t217.5 91.5t85.5 225.5t-85.5 226t-217.5 92t-217.5 -92t-85.5 -226zM313 1434h215l134 -308h-134z" />
<glyph unicode="&#xf3;" horiz-adv-x="1179" d="M92 481q0 215 142 358.5t356 143.5t355.5 -143.5t141.5 -358.5t-141.5 -358t-355.5 -143t-356 143t-142 358zM287 481q0 -134 85.5 -225.5t217.5 -91.5t217.5 91.5t85.5 225.5t-85.5 226t-217.5 92t-217.5 -92t-85.5 -226zM518 1126l133 308h215l-215 -308h-133z" />
<glyph unicode="&#xf4;" horiz-adv-x="1179" d="M92 481q0 215 142 358.5t356 143.5t355.5 -143.5t141.5 -358.5t-141.5 -358t-355.5 -143t-356 143t-142 358zM283 1126l194 308h225l195 -308h-133l-174 193l-174 -193h-133zM287 481q0 -134 85.5 -225.5t217.5 -91.5t217.5 91.5t85.5 225.5t-85.5 226t-217.5 92 t-217.5 -92t-85.5 -226z" />
<glyph unicode="&#xf5;" horiz-adv-x="1179" d="M92 481q0 215 142 358.5t356 143.5t355.5 -143.5t141.5 -358.5t-141.5 -358t-355.5 -143t-356 143t-142 358zM244 1190q3 94 60 158.5t147 64.5q44 0 96 -23t100 -46t82 -23t52 23t26 69l133 -43q-3 -94 -60 -158.5t-147 -64.5q-44 0 -96 23t-100 46t-82 23t-52 -23 t-26 -69zM287 481q0 -134 85.5 -225.5t217.5 -91.5t217.5 91.5t85.5 225.5t-85.5 226t-217.5 92t-217.5 -92t-85.5 -226z" />
<glyph unicode="&#xf6;" horiz-adv-x="1179" d="M92 481q0 215 142 358.5t356 143.5t355.5 -143.5t141.5 -358.5t-141.5 -358t-355.5 -143t-356 143t-142 358zM272 1264q0 54 36.5 91.5t90.5 37.5t91.5 -37.5t37.5 -91.5t-37.5 -90.5t-91.5 -36.5t-90.5 36.5t-36.5 90.5zM287 481q0 -134 85.5 -225.5t217.5 -91.5 t217.5 91.5t85.5 225.5t-85.5 226t-217.5 92t-217.5 -92t-85.5 -226zM651 1264q0 54 36.5 91.5t90.5 37.5t91.5 -37.5t37.5 -91.5t-37.5 -90.5t-91.5 -36.5t-90.5 36.5t-36.5 90.5z" />
<glyph unicode="&#xf7;" horiz-adv-x="1105" d="M102 440v185h902v-185h-902zM410 205q0 60 41.5 101.5t101.5 41.5t101.5 -41.5t41.5 -101.5t-41.5 -102t-101.5 -42t-101.5 42t-41.5 102zM410 860q0 60 41.5 102t101.5 42t101.5 -42t41.5 -102t-41.5 -101.5t-101.5 -41.5t-101.5 41.5t-41.5 101.5z" />
<glyph unicode="&#xf8;" horiz-adv-x="1179" d="M55 -20l148 176q-111 136 -111 325q0 215 142 358.5t356 143.5q135 0 252 -65l57 65h227l-151 -178q112 -138 112 -324q0 -215 -141.5 -358t-355.5 -143q-141 0 -252 63l-53 -63h-230zM287 481q0 -96 45 -172l387 461q-63 29 -129 29q-132 0 -217.5 -92t-85.5 -226z M461 190q60 -26 129 -26q132 0 217.5 91.5t85.5 225.5q0 94 -45 170z" />
<glyph unicode="&#xf9;" horiz-adv-x="1228" d="M154 471v492h194v-523q0 -128 55 -192q33 -39 82.5 -61.5t104.5 -22.5q82 0 152 40t118 97v662h195v-963h-189v88q-42 -40 -117.5 -74t-164.5 -34q-102 0 -191.5 42.5t-150.5 118.5q-45 57 -66.5 134t-21.5 196zM348 1434h215l133 -308h-133z" />
<glyph unicode="&#xfa;" horiz-adv-x="1228" d="M154 471v492h194v-523q0 -128 55 -192q33 -39 82.5 -61.5t104.5 -22.5q82 0 152 40t118 97v662h195v-963h-189v88q-42 -40 -117.5 -74t-164.5 -34q-102 0 -191.5 42.5t-150.5 118.5q-45 57 -66.5 134t-21.5 196zM532 1126l134 308h215l-215 -308h-134z" />
<glyph unicode="&#xfb;" horiz-adv-x="1228" d="M154 471v492h194v-523q0 -128 55 -192q33 -39 82.5 -61.5t104.5 -22.5q82 0 152 40t118 97v662h195v-963h-189v88q-42 -40 -117.5 -74t-164.5 -34q-102 0 -191.5 42.5t-150.5 118.5q-45 57 -66.5 134t-21.5 196zM297 1126l195 308h225l194 -308h-133l-174 193l-174 -193 h-133z" />
<glyph unicode="&#xfc;" horiz-adv-x="1228" d="M154 471v492h194v-523q0 -128 55 -192q33 -39 82.5 -61.5t104.5 -22.5q82 0 152 40t118 97v662h195v-963h-189v88q-42 -40 -117.5 -74t-164.5 -34q-102 0 -191.5 42.5t-150.5 118.5q-45 57 -66.5 134t-21.5 196zM287 1264q0 54 36.5 91.5t90.5 37.5t91.5 -37.5 t37.5 -91.5t-37.5 -90.5t-91.5 -36.5t-90.5 36.5t-36.5 90.5zM666 1264q0 54 36.5 91.5t90.5 37.5t91.5 -37.5t37.5 -91.5t-37.5 -90.5t-91.5 -36.5t-90.5 36.5t-36.5 90.5z" />
<glyph unicode="&#xfd;" horiz-adv-x="1042" d="M20 963h209l301 -635l277 635h205l-633 -1455h-207l260 592zM455 1126l133 308h215l-215 -308h-133z" />
<glyph unicode="&#xfe;" d="M174 -492v1946h195v-575q124 104 295 104q132 0 235 -61q112 -66 180 -183t68 -258t-67 -256.5t-179 -181.5q-107 -63 -242 -63q-171 0 -290 104v-576h-195zM369 301q49 -65 119 -101t145 -36q137 0 228 93t91 224q0 130 -86.5 224t-222.5 94q-84 0 -155.5 -37.5 t-118.5 -99.5v-361z" />
<glyph unicode="&#xff;" horiz-adv-x="1042" d="M20 963h209l301 -635l277 635h205l-633 -1455h-207l260 592zM193 1264q0 54 36 91.5t90 37.5t92 -37.5t38 -91.5t-38 -90.5t-92 -36.5t-90 36.5t-36 90.5zM571 1264q0 54 36.5 91.5t90.5 37.5t91.5 -37.5t37.5 -91.5t-37.5 -90.5t-91.5 -36.5t-90.5 36.5t-36.5 90.5z" />
<glyph unicode="&#x152;" horiz-adv-x="2222" d="M72 717q0 154 55 291t150 234.5t228 154.5t283 57q151 0 283 -58t229 -161v199h820v-195h-615v-369h471v-194h-471v-481h635v-195h-840v199q-97 -104 -228.5 -161.5t-283.5 -57.5q-150 0 -283 57t-228 154.5t-150 234.5t-55 291zM276 717q0 -233 146 -388t366 -155 t366 155t146 388q0 232 -146.5 387.5t-365.5 155.5t-365.5 -155.5t-146.5 -387.5z" />
<glyph unicode="&#x153;" horiz-adv-x="1916" d="M92 481q0 215 142 358.5t356 143.5q123 0 226 -54t169 -147q61 94 158.5 147.5t218.5 53.5q200 0 331.5 -143.5t131.5 -358.5q0 -23 -2 -41h-742q8 -122 97.5 -206t214.5 -84q96 0 159.5 36t116.5 95l127 -121q-61 -77 -164.5 -128.5t-240.5 -51.5q-127 0 -231.5 54.5 t-170.5 151.5q-64 -96 -168 -151t-231 -55q-214 0 -356 143t-142 358zM287 481q0 -134 85.5 -225.5t217.5 -91.5t217.5 91.5t85.5 225.5t-85.5 226t-217.5 92t-217.5 -92t-85.5 -226zM1098 604h524q-22 91 -94.5 150t-159.5 59q-94 0 -169.5 -58t-100.5 -151z" />
<glyph unicode="&#x178;" horiz-adv-x="1228" d="M20 1434h230l364 -576l365 576h229l-491 -779v-655h-205v655zM297 1673q0 54 36.5 91.5t90.5 37.5t91.5 -37.5t37.5 -91.5t-37.5 -90.5t-91.5 -36.5t-90.5 36.5t-36.5 90.5zM676 1673q0 54 36.5 91.5t90.5 37.5t91.5 -37.5t37.5 -91.5t-37.5 -90.5t-91.5 -36.5 t-90.5 36.5t-36.5 90.5z" />
<glyph unicode="&#x2c6;" horiz-adv-x="901" d="M143 1126l195 308h225l195 -308h-133l-174 193l-175 -193h-133z" />
<glyph unicode="&#x2dc;" horiz-adv-x="983" d="M143 1190q3 94 60 158.5t147 64.5q44 0 96.5 -23t100.5 -46t82 -23t52 23t26 69l133 -43q-3 -94 -60 -158.5t-147 -64.5q-44 0 -96.5 23t-100.5 46t-82 23t-52 -23t-26 -69z" />
<glyph unicode="&#x2000;" horiz-adv-x="952" />
<glyph unicode="&#x2001;" horiz-adv-x="1905" />
<glyph unicode="&#x2002;" horiz-adv-x="952" />
<glyph unicode="&#x2003;" horiz-adv-x="1905" />
<glyph unicode="&#x2004;" horiz-adv-x="635" />
<glyph unicode="&#x2005;" horiz-adv-x="476" />
<glyph unicode="&#x2006;" horiz-adv-x="317" />
<glyph unicode="&#x2007;" horiz-adv-x="317" />
<glyph unicode="&#x2008;" horiz-adv-x="238" />
<glyph unicode="&#x2009;" horiz-adv-x="381" />
<glyph unicode="&#x200a;" horiz-adv-x="105" />
<glyph unicode="&#x2010;" horiz-adv-x="942" d="M164 440v164h614v-164h-614z" />
<glyph unicode="&#x2011;" horiz-adv-x="942" d="M164 440v164h614v-164h-614z" />
<glyph unicode="&#x2012;" horiz-adv-x="942" d="M164 440v164h614v-164h-614z" />
<glyph unicode="&#x2013;" horiz-adv-x="1003" d="M41 440v164h922v-164h-922z" />
<glyph unicode="&#x2014;" horiz-adv-x="1617" d="M41 440v164h1536v-164h-1536z" />
<glyph unicode="&#x2018;" horiz-adv-x="583" d="M102 922l246 532h133l-153 -532h-226z" />
<glyph unicode="&#x2019;" horiz-adv-x="583" d="M102 922l154 532h225l-245 -532h-134z" />
<glyph unicode="&#x201a;" horiz-adv-x="583" d="M102 -287l154 533h225l-245 -533h-134z" />
<glyph unicode="&#x201c;" horiz-adv-x="1013" d="M102 922l246 532h133l-153 -532h-226zM532 922l246 532h133l-153 -532h-226z" />
<glyph unicode="&#x201d;" horiz-adv-x="1013" d="M102 922l154 532h225l-245 -532h-134zM532 922l154 532h225l-245 -532h-134z" />
<glyph unicode="&#x201e;" horiz-adv-x="1013" d="M102 -287l154 533h225l-245 -533h-134zM532 -287l154 533h225l-245 -533h-134z" />
<glyph unicode="&#x2022;" horiz-adv-x="1146" d="M164 481q0 169 120 289.5t289 120.5t289.5 -120.5t120.5 -289.5t-120.5 -289t-289.5 -120t-289 120t-120 289z" />
<glyph unicode="&#x2026;" horiz-adv-x="1904" d="M225 123q0 60 42 101.5t102 41.5t101.5 -41.5t41.5 -101.5t-41.5 -101.5t-101.5 -41.5t-102 41.5t-42 101.5zM829 123q0 60 42 101.5t102 41.5t101.5 -41.5t41.5 -101.5t-41.5 -101.5t-101.5 -41.5t-102 41.5t-42 101.5zM1434 123q0 60 41.5 101.5t101.5 41.5 t101.5 -41.5t41.5 -101.5t-41.5 -101.5t-101.5 -41.5t-101.5 41.5t-41.5 101.5z" />
<glyph unicode="&#x202f;" horiz-adv-x="381" />
<glyph unicode="&#x2039;" horiz-adv-x="757" d="M164 440v103l274 338h238l-316 -389l316 -390h-238z" />
<glyph unicode="&#x203a;" horiz-adv-x="757" d="M82 102l315 390l-315 389h237l275 -338v-103l-275 -338h-237z" />
<glyph unicode="&#x205f;" horiz-adv-x="476" />
<glyph unicode="&#x20ac;" horiz-adv-x="1187" d="M-20 471v174h139q-2 23 -2 72q0 46 2 71h-139v175h167q56 220 208.5 355.5t377.5 135.5q283 0 455 -240l-160 -104q-114 150 -295 150q-137 0 -231.5 -80t-139.5 -217h512v-175h-546q-2 -25 -2 -71q0 -49 2 -72h546v-174h-512q46 -137 143 -217t238 -80q192 0 306 150 l159 -105q-171 -239 -465 -239q-228 0 -383 135t-213 356h-167z" />
<glyph unicode="&#x2122;" horiz-adv-x="1730" d="M143 1294v140h557v-140h-204v-645h-148v645h-205zM813 649v785h94l293 -443l295 443h92v-785h-147v455l-195 -289h-90l-192 289v-455h-150z" />
<glyph unicode="&#x25fc;" horiz-adv-x="962" d="M0 0v963h963v-963h-963z" />
</font>
</defs>
</svg>
