<?xml version="1.0" standalone="no"?>
<!DOCTYPE svg PUBLIC "-//W3C//DTD SVG 1.1//EN" "http://www.w3.org/Graphics/SVG/1.1/DTD/svg11.dtd" >
<svg xmlns="http://www.w3.org/2000/svg">
<metadata></metadata>
<defs>
<font id="brownlight_backslanted" horiz-adv-x="1189" >
<font-face units-per-em="2048" ascent="1638" descent="-410" />
<missing-glyph horiz-adv-x="512" />
<glyph unicode="&#xfb01;" horiz-adv-x="1218" d="M-31 913h246l-22 121q-19 102 -19 156q0 131 93 208t220 77q53 0 107 -13l-21 -106q-33 8 -75 8q-84 0 -146.5 -44t-62.5 -130q0 -14 14 -115l29 -162h635l159 -913h-116l-142 803h-518l142 -803h-117l-142 803h-245zM745 1247q0 43 31 74t74 31q42 0 72 -31t30 -74 t-29.5 -72.5t-72.5 -29.5t-74 30t-31 72z" />
<glyph unicode="&#xfb02;" horiz-adv-x="1218" d="M-31 913h246l-22 121q-19 102 -19 156q0 131 93 208t220 77q53 0 107 -13l-21 -106q-33 8 -75 8q-84 0 -146.5 -44t-62.5 -130q0 -14 14 -115l29 -162h516l-94 541h116l256 -1454h-116l-142 803h-518l142 -803h-117l-142 803h-245z" />
<glyph unicode="&#xfb03;" horiz-adv-x="1853" d="M-31 913h246l-22 121q-19 102 -19 156q0 131 93 208t220 77q53 0 107 -13l-21 -106q-33 8 -75 8q-84 0 -146.5 -44t-62.5 -130q0 -14 14 -115l29 -162h518l-23 121q-18 97 -18 156q0 131 93 208t220 77q53 0 107 -13l-21 -106q-33 8 -75 8q-84 0 -146.5 -44t-62.5 -130 q0 -14 14 -115l29 -162h635l159 -913h-116l-142 803h-518l141 -803h-116l-142 803h-518l142 -803h-117l-142 803h-245zM1380 1247q0 43 31 74t74 31q42 0 72 -31t30 -74t-29.5 -72.5t-72.5 -29.5t-74 30t-31 72z" />
<glyph unicode="&#xfb04;" horiz-adv-x="1853" d="M-31 913h246l-22 121q-19 102 -19 156q0 131 93 208t220 77q53 0 107 -13l-21 -106q-33 8 -75 8q-84 0 -146.5 -44t-62.5 -130q0 -14 14 -115l29 -162h518l-23 121q-18 97 -18 156q0 131 93 208t220 77q53 0 107 -13l-21 -106q-33 8 -75 8q-84 0 -146.5 -44t-62.5 -130 q0 -14 14 -115l29 -162h516l-94 541h116l256 -1454h-116l-142 803h-518l141 -803h-116l-142 803h-518l142 -803h-117l-142 803h-245z" />
<glyph horiz-adv-x="0" />
<glyph horiz-adv-x="682" />
<glyph unicode=" "  horiz-adv-x="512" />
<glyph unicode="&#x09;" horiz-adv-x="512" />
<glyph unicode="&#xa0;" horiz-adv-x="512" />
<glyph unicode="!" horiz-adv-x="501" d="M31 1434h116l93 -521l63 -483h-76l-104 483zM217 86q0 44 31.5 75.5t75.5 31.5t75 -31.5t31 -75.5t-31 -75t-75 -31t-75.5 31t-31.5 75z" />
<glyph unicode="&#x22;" horiz-adv-x="788" d="M-20 1434h116l70 -510h-76zM367 1434h116l70 -510h-76z" />
<glyph unicode="#" horiz-adv-x="1298" d="M20 561h252l82 311h-202l-21 111h254l121 451h117l-121 -451h348l121 451h116l-122 -451h202l21 -111h-252l-82 -311h203l20 -110h-254l-121 -451h-116l123 451h-349l-122 -451h-117l123 451h-203zM389 561h348l82 311h-348z" />
<glyph unicode="$" horiz-adv-x="1024" d="M10 1106q0 123 82 213.5t207 120.5l-41 229h115l39 -215q180 0 348 -127l-74 -94q-132 104 -276 104q-68 0 -130 -25t-104.5 -79.5t-42.5 -126.5q0 -59 28 -105.5t75.5 -77t109 -56t129 -48.5t135.5 -48.5t129.5 -61t109 -81.5t75.5 -115.5t28 -156.5q0 -129 -79 -226.5 t-205 -133.5l41 -232h-115l-39 216h-12q-133 0 -256 61.5t-205 173.5l90 74q63 -87 162 -140t209 -53q116 0 201 73t85 193q0 69 -28 122.5t-75.5 89t-109 63.5t-129 51.5t-135.5 47.5t-129.5 56t-109 72.5t-75.5 102t-28 139.5z" />
<glyph unicode="%" horiz-adv-x="1744" d="M-12 1114q0 141 101 240.5t247 99.5q165 0 274 -111t109 -282q0 -141 -101 -240.5t-247 -99.5q-165 0 -274 111t-109 282zM96 1114q0 -125 75.5 -208t199.5 -83q101 0 170 68.5t69 169.5q0 126 -75 208.5t-199 82.5q-101 0 -170.5 -68.5t-69.5 -169.5zM492 0l581 1434h98 l-581 -1434h-98zM946 373q0 141 101 240.5t247 99.5q165 0 274 -111.5t109 -282.5q0 -141 -101 -240t-247 -99q-165 0 -274 111t-109 282zM1055 373q0 -126 75 -208.5t199 -82.5q102 0 171 68t69 169q0 125 -75.5 208t-199.5 83q-101 0 -170 -68t-69 -169z" />
<glyph unicode="&#x26;" horiz-adv-x="1402" d="M96 1167q0 119 86 203t217 84q132 0 216.5 -92t84.5 -215q0 -94 -49.5 -166t-148.5 -154l561 -467q29 79 29 160q0 74 -24 161.5t-62 160.5l104 49q98 -187 98 -371q0 -128 -51 -239l338 -281h-174l-223 186q-74 -98 -191 -152t-260 -54q-149 0 -269 61t-187.5 168.5 t-67.5 239.5q0 118 50.5 209.5t148.5 175.5q-50 41 -74.5 62t-59.5 57.5t-51 64.5t-28.5 67t-12.5 82zM213 1167q0 -28 9.5 -55.5t20 -46.5t35 -44.5t37 -36.5t44.5 -37.5t40 -33.5l15 -12q83 67 126.5 123t43.5 123q0 86 -54.5 141t-130.5 55q-77 0 -131.5 -50t-54.5 -126z M240 449q0 -149 110 -254t295 -105q116 0 209.5 45t153.5 125l-598 498q-170 -135 -170 -309z" />
<glyph unicode="'" horiz-adv-x="401" d="M-20 1434h116l70 -510h-76z" />
<glyph unicode="(" horiz-adv-x="890" d="M330 723q0 404 178 731l100 -59q-162 -298 -162 -672q0 -297 118 -570t325 -509l-88 -74q-471 540 -471 1153z" />
<glyph unicode=")" horiz-adv-x="890" d="M0 1380l88 74q471 -540 471 -1153q0 -404 -178 -731l-100 59q161 296 161 672q0 297 -118 570t-324 509z" />
<glyph unicode="*" horiz-adv-x="966" d="M-51 1090l31 96l362 -115l-63 363h104l61 -359l320 111l33 -94l-299 -107l260 -285l-76 -69l-262 289l-160 -289l-88 49l162 291z" />
<glyph unicode="+" horiz-adv-x="1085" d="M104 559h371l-67 375h110l68 -375h368l21 -110h-371l66 -375h-111l-65 375h-369z" />
<glyph unicode="," horiz-adv-x="622" d="M170 -287l84 492h154l-136 -492h-102z" />
<glyph unicode="-" horiz-adv-x="860" d="M156 561h522l18 -100h-522z" />
<glyph unicode="." horiz-adv-x="622" d="M195 86q0 44 31 75.5t75 31.5t75.5 -31.5t31.5 -75.5t-31.5 -75t-75.5 -31t-75 31t-31 75z" />
<glyph unicode="/" horiz-adv-x="550" d="M10 0l418 1434h113l-418 -1434h-113z" />
<glyph unicode="0" horiz-adv-x="1232" d="M76 936q0 237 107 377.5t309 140.5q122 0 223 -58.5t168.5 -154.5t114 -222t67 -257t20.5 -264q0 -237 -106.5 -377.5t-308.5 -140.5q-102 0 -190 41t-152 112t-113 164t-79 201t-45 218t-15 220zM199 936q0 -114 17.5 -229.5t55.5 -226t92 -195.5t133 -137t173 -52 q147 0 220 106.5t73 295.5q0 114 -17.5 229.5t-55.5 226t-92 195.5t-133 136.5t-173 51.5q-147 0 -220 -106t-73 -295z" />
<glyph unicode="1" horiz-adv-x="792" d="M-10 1247l295 187h82l251 -1434h-120l-226 1276l-260 -150z" />
<glyph unicode="2" horiz-adv-x="1114" d="M20 1130q28 142 137.5 233t256.5 91q120 0 219.5 -59t155 -157t55.5 -212q0 -182 -125 -369l-361 -540h662l22 -117h-839l-15 76l426 637q107 157 107 313q0 128 -90 219.5t-217 91.5q-110 0 -181 -67t-96 -172z" />
<glyph unicode="3" horiz-adv-x="1144" d="M0 1434h756l14 -76l-289 -416h33q138 0 255 -67.5t185 -184t68 -254.5q0 -195 -132 -325.5t-335 -130.5q-131 0 -243 55t-181 153l100 70q53 -75 137.5 -118.5t182.5 -43.5q152 0 250 96t98 244q0 161 -114 275t-281 114q-63 0 -124 -16.5t-93 -36.5l-15 76l326 469h-578 z" />
<glyph unicode="4" horiz-adv-x="1169" d="M31 444l583 990h82l168 -949h223l21 -116h-223l63 -369h-121l-65 369h-717zM195 485h548l-127 719z" />
<glyph unicode="5" horiz-adv-x="1157" d="M154 709v725h671l21 -117h-570v-440q111 65 244 65q140 0 258.5 -67t188 -183.5t69.5 -255.5q0 -196 -135.5 -326t-341.5 -130q-119 0 -224 49.5t-175 136.5l96 74q55 -67 134.5 -105.5t168.5 -38.5q152 0 253 95.5t101 244.5q0 159 -116.5 274t-276.5 115 q-82 0 -159 -32t-125 -84h-82z" />
<glyph unicode="6" horiz-adv-x="1212" d="M123 467q0 124 57 248l328 719h129l-248 -547q89 39 193 39q137 0 254 -66t185.5 -180t68.5 -250q0 -187 -132.5 -318.5t-330.5 -131.5q-139 0 -254 61.5t-182.5 174t-67.5 251.5zM246 467q0 -163 110.5 -267t270.5 -104q145 0 242.5 97.5t97.5 236.5q0 157 -113.5 268 t-271.5 111q-161 0 -269 -90l-18 -39q-49 -93 -49 -213z" />
<glyph unicode="7" horiz-adv-x="1083" d="M-51 1434h878l11 -56l-408 -1378h-125l391 1317h-727z" />
<glyph unicode="8" horiz-adv-x="1175" d="M102 1112q0 143 105 242.5t262 99.5q167 0 283 -112t116 -277q0 -153 -114 -246q135 -51 217 -166t82 -264q0 -168 -126.5 -288.5t-312.5 -120.5q-202 0 -340.5 132t-138.5 330q0 101 48.5 188.5t133.5 143.5q-99 47 -157 135.5t-58 202.5zM225 1112q0 -110 81 -185 t196 -75q106 0 174.5 59t68.5 154q0 116 -80.5 194t-195.5 78q-106 0 -175 -64.5t-69 -160.5zM258 442q0 -147 101.5 -246.5t254.5 -99.5q134 0 225 85.5t91 207.5q0 147 -102 246.5t-255 99.5q-134 0 -224.5 -85.5t-90.5 -207.5z" />
<glyph unicode="9" horiz-adv-x="1212" d="M61 1004q0 187 132.5 318.5t330.5 131.5q139 0 254 -61.5t182.5 -174t67.5 -251.5q0 -124 -57 -248l-328 -719h-129l248 547q-89 -39 -193 -39q-137 0 -254 66t-185.5 180t-68.5 250zM184 1004q0 -157 113.5 -268t271.5 -111q161 0 269 90l18 39q49 93 49 213 q0 163 -110.5 266.5t-270.5 103.5q-145 0 -242.5 -97t-97.5 -236z" />
<glyph unicode=":" horiz-adv-x="622" d="M104 827q0 44 31.5 75.5t75.5 31.5t75 -31.5t31 -75.5t-31 -75t-75 -31t-75.5 31t-31.5 75zM236 86q0 44 31 75.5t75 31.5t75.5 -31.5t31.5 -75.5t-31.5 -75t-75.5 -31t-75 31t-31 75z" />
<glyph unicode=";" horiz-adv-x="622" d="M104 827q0 44 31.5 75.5t75.5 31.5t75 -31.5t31 -75.5t-31 -75t-75 -31t-75.5 31t-31.5 75zM211 -287l84 492h154l-136 -492h-102z" />
<glyph unicode="&#x3c;" horiz-adv-x="1085" d="M109 541l788 350l21 -113l-599 -264l691 -268l24 -127l-913 352z" />
<glyph unicode="=" horiz-adv-x="1085" d="M74 739h850l20 -110h-850zM137 379h850l21 -111h-850z" />
<glyph unicode="&#x3e;" horiz-adv-x="1085" d="M45 891l913 -352l13 -70l-789 -350l-20 112l598 265l-690 268z" />
<glyph unicode="?" horiz-adv-x="1024" d="M-18 1182q45 124 154 198t251 74q180 0 299 -110.5t119 -260.5q0 -86 -34 -156.5t-82 -114.5t-96 -80t-82 -72t-34 -72q0 -20 8 -39t26 -37.5t29 -28.5t33 -28l-75 -86q-74 60 -106 107.5t-32 111.5q0 52 24.5 96.5t60.5 73.5t79 63t79 66t60.5 83t24.5 113 q0 105 -86 182.5t-215 77.5q-107 0 -183 -55t-112 -143zM451 86q0 44 31 75.5t75 31.5t75.5 -31.5t31.5 -75.5t-31.5 -75t-75.5 -31t-75 31t-31 75z" />
<glyph unicode="@" horiz-adv-x="2048" d="M143 512q0 184 70.5 350.5t190.5 287t285.5 192t348.5 71.5q181 0 340.5 -64.5t276 -179t183.5 -281.5t67 -364q0 -205 -87.5 -328.5t-232.5 -123.5q-80 0 -138 41t-89 110q-139 -151 -330 -151q-195 0 -331 132t-136 328q0 181 124.5 300.5t299.5 119.5q136 0 250 -88 l-12 68h112l103 -578q30 -172 147 -172q94 0 148.5 96t54.5 246q0 174 -57.5 320.5t-158.5 247t-242 156t-306 55.5q-155 0 -296.5 -63t-244 -169t-163 -252t-60.5 -307q0 -163 62 -309.5t167 -252t249 -167.5t302 -62q256 0 457 154l59 -92q-107 -83 -240 -127.5 t-278 -44.5q-183 0 -348.5 71.5t-285.5 192t-190.5 287t-70.5 350.5zM678 532q0 -151 101.5 -250.5t248.5 -99.5q93 0 172 48.5t125 117.5l-61 350q-49 61 -118.5 102.5t-150.5 41.5q-131 0 -224 -87t-93 -223z" />
<glyph unicode="A" horiz-adv-x="1304" d="M82 0l356 1434h82l856 -1434h-131l-256 432h-684l-106 -432h-117zM334 549h586l-412 690z" />
<glyph unicode="B" horiz-adv-x="1261" d="M20 1434h490q152 0 229 -41q95 -47 153 -136.5t58 -197.5q0 -142 -86 -234q42 -11 60 -20q117 -50 191.5 -164t74.5 -246q0 -172 -114.5 -283.5t-284.5 -111.5h-519zM162 1317l82 -467h374q80 0 130 35q79 61 79 174q0 72 -38 133t-99 92q-68 33 -155 33h-373zM264 733 l109 -616h405q128 0 208.5 76.5t80.5 201.5q0 96 -54.5 181t-138.5 122q-84 35 -202 35h-408z" />
<glyph unicode="C" horiz-adv-x="1458" d="M61 758q0 195 93 355t255 250.5t359 90.5q245 0 451 -158l-74 -94q-178 135 -377 135q-162 0 -295.5 -74t-211 -207t-77.5 -298q0 -138 51.5 -261.5t139 -211t206.5 -138.5t250 -51q154 0 282.5 63.5t205.5 174.5l98 -74q-93 -130 -246.5 -205t-336.5 -75 q-157 0 -300 60.5t-246.5 163.5t-165 248t-61.5 306z" />
<glyph unicode="D" horiz-adv-x="1488" d="M20 1434h500q390 0 610 -226q106 -108 166 -246t60 -286q0 -302 -178 -483q-193 -193 -529 -193h-377zM162 1317l211 -1200h268q289 0 446 157q146 149 146 402q0 123 -51.5 241.5t-139.5 208.5q-188 191 -510 191h-370z" />
<glyph unicode="E" horiz-adv-x="1060" d="M20 1434h768l21 -117h-647l82 -467h504l20 -117h-504l109 -616h667l21 -117h-789z" />
<glyph unicode="F" horiz-adv-x="983" d="M20 1434h768l21 -117h-647l82 -467h504l20 -117h-504l129 -733h-121z" />
<glyph unicode="G" horiz-adv-x="1525" d="M61 758q0 195 93 355t255 250.5t359 90.5q245 0 451 -158l-74 -94q-178 135 -377 135q-162 0 -295.5 -74t-211 -207t-77.5 -298q0 -138 51.5 -261.5t139 -211t206.5 -138.5t250 -51q138 0 260.5 51t204.5 142l-79 444h-472l-20 117h594l104 -590q-93 -130 -249.5 -205 t-339.5 -75q-157 0 -300 60.5t-246.5 163.5t-165 248t-61.5 306z" />
<glyph unicode="H" horiz-adv-x="1529" d="M20 1434h121l103 -584h913l-102 584h121l251 -1434h-120l-129 733h-914l129 -733h-121z" />
<glyph unicode="I" horiz-adv-x="495" d="M20 1434h121l252 -1434h-121z" />
<glyph unicode="J" horiz-adv-x="907" d="M31 188l106 56q39 -68 106.5 -108t151.5 -40q103 0 170.5 62.5t67.5 163.5q0 18 -3.5 43.5t-10 60t-7.5 41.5l-170 967h121l168 -953q23 -129 23 -159q0 -148 -100.5 -245t-258.5 -97q-116 0 -212.5 54.5t-151.5 153.5z" />
<glyph unicode="K" horiz-adv-x="1234" d="M20 1434h121l113 -643l569 643h158l-588 -666l903 -768h-178l-852 723l127 -723h-121z" />
<glyph unicode="L" horiz-adv-x="1050" d="M20 1434h121l232 -1317h667l21 -117h-789z" />
<glyph unicode="M" horiz-adv-x="1703" d="M20 1434h82l768 -977l398 977h82l252 -1434h-121l-201 1145l-350 -858h-82l-649 835l194 -1122h-121z" />
<glyph unicode="N" horiz-adv-x="1540" d="M20 1434h82l1172 -1186l-209 1186h121l252 -1434h-82l-1170 1182l207 -1182h-121z" />
<glyph unicode="O" horiz-adv-x="1660" d="M61 758q0 144 50.5 272.5t146.5 224.5q98 97 225.5 148t270.5 51q149 0 290.5 -57.5t251.5 -167.5q109 -111 170.5 -256.5t61.5 -296.5q0 -144 -50.5 -273t-146.5 -225q-98 -97 -225 -147.5t-270 -50.5q-149 0 -291 57.5t-252 167.5q-109 111 -170.5 256.5t-61.5 296.5z M184 758q0 -126 52.5 -250.5t144.5 -218.5q91 -92 211.5 -142.5t243.5 -50.5q241 0 407 166q162 162 162 414q0 126 -52.5 250.5t-144.5 218.5q-91 92 -211 142t-243 50q-242 0 -408 -166q-162 -162 -162 -413z" />
<glyph unicode="P" horiz-adv-x="1181" d="M20 1434h553q158 0 242 -43q100 -48 161.5 -144t61.5 -211q0 -183 -133 -280q-86 -64 -241 -64h-394l123 -692h-121zM162 1317l88 -508h409q116 0 168 39q88 64 88 188q0 79 -42 147t-109 101q-68 33 -168 33h-434z" />
<glyph unicode="Q" horiz-adv-x="1681" d="M61 758q0 144 50.5 272.5t146.5 224.5q98 97 225.5 148t270.5 51q149 0 290.5 -57.5t251.5 -167.5q109 -111 170.5 -256.5t61.5 -296.5q0 -235 -129 -418l282 -258h-165l-191 174q-96 -95 -221.5 -144.5t-267.5 -49.5q-149 0 -291 57.5t-252 167.5q-109 111 -170.5 256.5 t-61.5 296.5zM184 758q0 -126 52.5 -250.5t144.5 -218.5q91 -92 211.5 -142.5t243.5 -50.5q233 0 401 160l-412 379l76 82l408 -375q96 143 96 334q0 126 -52.5 250.5t-144.5 218.5q-91 92 -211 142t-243 50q-242 0 -408 -166q-162 -162 -162 -413z" />
<glyph unicode="R" horiz-adv-x="1286" d="M20 1434h510q153 0 230 -41q95 -47 153 -136.5t58 -197.5q0 -171 -125 -266q-70 -52 -182 -60l684 -733h-156l-688 733h-240l129 -733h-121zM162 1317l82 -467h368q104 0 156 35q80 62 80 174q0 72 -38 133t-99 92q-68 33 -156 33h-393z" />
<glyph unicode="S" horiz-adv-x="1024" d="M10 1106q0 150 118.5 249t281.5 99q182 0 350 -127l-74 -94q-132 104 -276 104q-68 0 -130 -25t-104.5 -79.5t-42.5 -126.5q0 -59 28 -105.5t75.5 -77t109 -56t129 -48.5t135.5 -48.5t129.5 -61t109 -81.5t75.5 -115.5t28 -156.5q0 -159 -118.5 -267.5t-290.5 -108.5 q-133 0 -256 61.5t-205 173.5l90 74q63 -87 162 -140t209 -53q116 0 201 73t85 193q0 69 -28 122.5t-75.5 88.5t-109 63.5t-129 51.5t-135.5 46.5t-129.5 55.5t-109 72.5t-75.5 102.5t-28 141z" />
<glyph unicode="T" horiz-adv-x="1011" d="M-125 1434h928l20 -117h-403l231 -1317h-121l-231 1317h-403z" />
<glyph unicode="U" horiz-adv-x="1468" d="M0 1434h121l155 -885q36 -208 166 -330.5t328 -122.5q107 0 199 42.5t151.5 130.5t59.5 206q0 60 -15 152l-141 807h121l137 -781q23 -131 23 -182q0 -107 -43.5 -200t-116.5 -156t-170.5 -99t-204.5 -36q-244 0 -404.5 145.5t-205.5 402.5z" />
<glyph unicode="V" horiz-adv-x="1271" d="M-154 1434h136l714 -1229l281 1229h121l-332 -1434h-82z" />
<glyph unicode="W" horiz-adv-x="1906" d="M-133 1434h131l580 -1180l170 1180h81l598 -1180l164 1180h121l-205 -1434h-82l-596 1174l-172 -1174h-82z" />
<glyph unicode="X" horiz-adv-x="1222" d="M-41 1434h154l458 -557l260 557h132l-304 -654l646 -780h-154l-553 670l-313 -670h-133l356 766z" />
<glyph unicode="Y" horiz-adv-x="1093" d="M-160 1434h154l526 -633l295 633h131l-356 -760l119 -674h-121l-119 676z" />
<glyph unicode="Z" horiz-adv-x="1196" d="M-41 1434h942l14 -76l-626 -1241h887l20 -117h-1044l-15 76l627 1241h-784z" />
<glyph unicode="[" horiz-adv-x="890" d="M184 1434h463l21 -111h-346l286 -1622h344l21 -111h-463z" />
<glyph unicode="\" horiz-adv-x="1069" d="M10 1434h127l922 -1434h-127z" />
<glyph unicode="]" horiz-adv-x="890" d="M-82 1434h463l326 -1844h-463l-21 111h346l-286 1622h-344z" />
<glyph unicode="^" horiz-adv-x="921" d="M37 717l227 717h76l479 -717h-131l-364 540l-172 -540h-115z" />
<glyph unicode="_" horiz-adv-x="921" d="M119 0h839l19 -100h-840z" />
<glyph unicode="`" horiz-adv-x="573" d="M143 1352h154l133 -287h-92z" />
<glyph unicode="a" d="M100 481q0 193 129 323t314 130q172 0 297 -115l-19 94h117l160 -913h-117l-25 143q-147 -163 -360 -163q-209 0 -352.5 142.5t-143.5 358.5zM217 481q0 -164 110.5 -277.5t268.5 -113.5q98 0 189.5 51.5t148.5 132.5l-68 381q-141 168 -319 168q-143 0 -236.5 -101.5 t-93.5 -240.5z" />
<glyph unicode="b" horiz-adv-x="1191" d="M6 1454h117l121 -684q147 164 360 164q209 0 352.5 -143t143.5 -359q0 -193 -129 -322.5t-314 -129.5q-173 0 -297 114l19 -94h-117zM266 639l68 -381q141 -168 319 -168q143 0 236.5 101.5t93.5 240.5q0 164 -110.5 277.5t-268.5 113.5q-98 0 -189.5 -51.5 t-148.5 -132.5z" />
<glyph unicode="c" horiz-adv-x="1054" d="M100 481q0 193 133 323t334 130q206 0 351 -135l-72 -86q-116 110 -279 110q-152 0 -251 -97t-99 -245q0 -160 116 -275.5t283 -115.5q197 0 316 139l82 -71q-148 -178 -398 -178q-139 0 -257 63.5t-188.5 179t-70.5 258.5z" />
<glyph unicode="d" d="M100 481q0 193 129 323t314 130q172 0 297 -115l-113 635h117l254 -1454h-117l-25 143q-147 -163 -360 -163q-209 0 -352.5 142.5t-143.5 358.5zM217 481q0 -164 110.5 -277.5t268.5 -113.5q98 0 189.5 51.5t148.5 132.5l-68 381q-141 168 -319 168q-143 0 -236.5 -101.5 t-93.5 -240.5z" />
<glyph unicode="e" horiz-adv-x="1073" d="M100 481q0 197 117.5 325t306.5 128q129 0 233.5 -65t163 -176.5t60.5 -246.5h-764q12 -153 120.5 -254.5t262.5 -101.5q166 0 281 107l73 -88q-141 -129 -348 -129q-136 0 -251 63t-185 178.5t-70 259.5zM221 553h629q-25 118 -115.5 194t-210.5 76q-124 0 -204 -73.5 t-99 -196.5z" />
<glyph unicode="f" horiz-adv-x="747" d="M-31 913h246l-22 121q-19 102 -19 156q0 131 93 208t220 77q53 0 107 -13l-21 -106q-33 8 -75 8q-84 0 -146.5 -44t-62.5 -130q0 -14 14 -115l29 -162h315l19 -110h-316l142 -803h-117l-142 803h-245z" />
<glyph unicode="g" d="M100 481q0 193 129 323t314 130q172 0 297 -115l-19 94h117l145 -823q1 -9 8 -47t10 -57.5t6 -50.5t3 -56q0 -178 -119 -284.5t-315 -106.5q-115 0 -224.5 48.5t-187.5 129.5l78 80q150 -147 336 -147q132 0 224.5 72t92.5 206q0 42 -22 170l-17 96q-147 -163 -360 -163 q-209 0 -352.5 142.5t-143.5 358.5zM217 481q0 -164 110.5 -277.5t268.5 -113.5q98 0 189.5 51.5t148.5 132.5l-68 381q-141 168 -319 168q-143 0 -236.5 -101.5t-93.5 -240.5z" />
<glyph unicode="h" horiz-adv-x="1206" d="M6 1454h117l123 -690q63 79 151.5 124.5t194.5 45.5q98 0 182.5 -36.5t143.5 -104.5q84 -97 114 -263l92 -530h-116l-86 494q-27 152 -86 219q-42 51 -106.5 80.5t-139.5 29.5q-94 0 -180.5 -53.5t-139.5 -142.5l109 -627h-117z" />
<glyph unicode="i" horiz-adv-x="471" d="M-2 1247q0 43 30.5 74t73.5 31t73 -31t30 -74t-30 -72.5t-73 -29.5t-73.5 29.5t-30.5 72.5zM102 913h117l160 -913h-117z" />
<glyph unicode="j" horiz-adv-x="512" d="M41 1247q0 43 30.5 74t73.5 31t73 -31t30 -74t-30 -72.5t-73 -29.5t-73.5 29.5t-30.5 72.5zM68 -502l16 109q40 -8 74 -8q77 0 127.5 44.5t50.5 129.5q0 27 -12 114l-179 1026h117l172 -985q17 -91 17 -155q0 -133 -84.5 -209t-208.5 -76q-45 0 -90 10z" />
<glyph unicode="k" horiz-adv-x="991" d="M6 1454h117l162 -913l387 372h164l-404 -391l621 -522h-179l-581 492l86 -492h-117z" />
<glyph unicode="l" horiz-adv-x="471" d="M6 1454h117l256 -1454h-117z" />
<glyph unicode="m" horiz-adv-x="1918" d="M102 913h117l27 -149q140 170 352 170q182 0 301 -135q30 -37 47 -68q160 203 381 203q182 0 301 -135q87 -100 117 -269l92 -530h-117l-86 494q-29 163 -84 225q-87 104 -227 104q-99 0 -185.5 -55.5t-144.5 -146.5q22 -84 23 -91l92 -530h-117l-86 494q-29 163 -84 225 q-87 104 -227 104q-95 0 -181.5 -52.5t-142.5 -143.5l109 -627h-117z" />
<glyph unicode="n" horiz-adv-x="1206" d="M102 913h117l27 -149q63 79 151.5 124.5t194.5 45.5q98 0 182.5 -36.5t143.5 -104.5q84 -97 114 -263l92 -530h-116l-86 494q-27 152 -86 219q-42 51 -106.5 80.5t-139.5 29.5q-94 0 -180.5 -53.5t-139.5 -142.5l109 -627h-117z" />
<glyph unicode="o" horiz-adv-x="1165" d="M100 481q0 192 131 322.5t330 130.5q139 0 256.5 -66.5t186.5 -182t69 -253.5q0 -192 -131 -322t-330 -130q-139 0 -256.5 66t-186.5 181.5t-69 253.5zM217 481q0 -161 116.5 -276t278.5 -115q150 0 247 97.5t97 244.5q0 162 -116.5 276.5t-278.5 114.5 q-150 0 -247 -97.5t-97 -244.5z" />
<glyph unicode="p" horiz-adv-x="1191" d="M102 913h117l25 -143q147 164 360 164q209 0 352.5 -143t143.5 -359q0 -193 -129 -322.5t-314 -129.5q-173 0 -297 114l105 -586h-117zM266 639l68 -381q141 -168 319 -168q143 0 236.5 101.5t93.5 240.5q0 164 -110.5 277.5t-268.5 113.5q-98 0 -189.5 -51.5 t-148.5 -132.5z" />
<glyph unicode="q" d="M100 481q0 193 129 323t314 130q172 0 297 -115l-19 94h117l246 -1405h-117l-111 635q-147 -163 -360 -163q-209 0 -352.5 142.5t-143.5 358.5zM217 481q0 -164 110.5 -277.5t268.5 -113.5q98 0 189.5 51.5t148.5 132.5l-68 381q-141 168 -319 168q-143 0 -236.5 -101.5 t-93.5 -240.5z" />
<glyph unicode="r" horiz-adv-x="655" d="M102 913h117l29 -153q46 80 133 127t180 47l2 -111q-98 0 -174.5 -59.5t-116.5 -147.5l107 -616h-117z" />
<glyph unicode="s" horiz-adv-x="880" d="M92 684q0 112 92.5 181t225.5 69q83 0 142.5 -20t123.5 -56l-55 -98q-59 34 -104.5 48.5t-106.5 14.5q-81 0 -141 -37.5t-60 -101.5q0 -41 32.5 -69t84.5 -45t115 -31.5t126 -35.5t115 -50t84.5 -81.5t32.5 -123.5q0 -114 -92 -191t-228 -77q-100 0 -189.5 37.5 t-154.5 97.5l68 90q71 -58 134 -86.5t142 -28.5q85 0 144 43.5t59 114.5q0 50 -32.5 85t-84.5 54t-115 34.5t-126 33.5t-115 43.5t-84.5 72.5t-32.5 113z" />
<glyph unicode="t" horiz-adv-x="829" d="M-41 913h268l-45 254h117l45 -254h326l20 -110h-328l76 -434q23 -143 70 -195q71 -84 203 -84q51 0 88 12l30 -106q-56 -16 -118 -16q-184 0 -287 116q-69 77 -98 250l-80 457h-266z" />
<glyph unicode="u" d="M92 913h117l86 -493q16 -87 34.5 -139.5t49.5 -87.5q87 -103 227 -103q95 0 181.5 53t142.5 144l-109 626h117l160 -913h-117l-27 150q-140 -170 -352 -170q-185 0 -303 133q-84 97 -115 270z" />
<glyph unicode="v" horiz-adv-x="976" d="M-41 913h139l459 -723l209 723h119l-267 -913h-75z" />
<glyph unicode="w" horiz-adv-x="1562" d="M-31 913h129l402 -708l174 708h76l446 -706l150 706h114l-192 -913h-76l-451 713l-178 -713h-76z" />
<glyph unicode="x" horiz-adv-x="976" d="M20 913h154l307 -340l191 340h129l-236 -421l443 -492h-152l-362 401l-228 -401h-129l273 481z" />
<glyph unicode="y" horiz-adv-x="976" d="M-41 913h137l463 -682l205 682h121l-424 -1409h-119l176 592z" />
<glyph unicode="z" horiz-adv-x="964" d="M20 913h758l13 -69l-490 -733h653l21 -111h-819l-13 70l490 733h-592z" />
<glyph unicode="{" horiz-adv-x="890" d="M199 547q129 3 129 117q0 38 -18 105t-39.5 131t-39.5 145.5t-18 144.5q0 125 92 194q66 50 176 50q48 0 62 -2l20 -111q-16 2 -55 2q-178 0 -178 -137q0 -79 28 -177.5t56 -192.5t28 -163q0 -83 -51 -127q104 -56 123 -198q3 -20 11 -193t26 -246q27 -107 78.5 -147.5 t169.5 -40.5q31 0 49 2l20 -109q-25 -4 -61 -4q-117 0 -191 29q-140 56 -182 258q-15 78 -25.5 251.5t-15.5 205.5q-24 143 -182 143z" />
<glyph unicode="|" horiz-adv-x="391" d="M-20 1434h116l326 -1844h-117z" />
<glyph unicode="}" horiz-adv-x="890" d="M23 1430q25 4 61 4q116 0 190 -29q141 -57 183 -258q15 -78 25.5 -251.5t15.5 -205.5q24 -143 182 -143l12 -70q-129 -3 -129 -117q0 -46 28.5 -139t57.5 -200.5t29 -186.5q0 -125 -92 -194q-66 -50 -176 -50q-48 0 -62 2l-20 111q16 -2 55 -2q178 0 178 137 q0 79 -28 177.5t-56 192.5t-28 163q0 83 51 127q-104 56 -123 198q-3 20 -11 193t-26 246q-27 107 -78.5 147.5t-169.5 40.5q-31 0 -49 -2z" />
<glyph unicode="~" horiz-adv-x="1044" d="M76 422q11 111 69 179.5t156 68.5q61 0 124.5 -28.5t107.5 -62t95.5 -62t90.5 -28.5q59 0 86.5 42.5t40.5 115.5l104 -20q-11 -111 -69 -179.5t-156 -68.5q-50 0 -100.5 18.5t-91 45t-78.5 53t-77 45t-71 18.5q-59 0 -86.5 -42.5t-40.5 -115.5z" />
<glyph unicode="&#xa1;" horiz-adv-x="501" d="M92 827q0 44 31.5 75.5t75.5 31.5t75 -31.5t31 -75.5t-31 -75t-75 -31t-75.5 31t-31.5 75zM213 512h76l104 -483l92 -521h-116l-93 521z" />
<glyph unicode="&#xa2;" horiz-adv-x="1054" d="M100 481q0 166 101 288.5t264 154.5l-39 225h115l37 -215q198 -3 340 -135l-72 -86q-116 110 -279 110q-152 0 -251 -97t-99 -245q0 -160 116 -275.5t283 -115.5q197 0 316 139l82 -71q-122 -145 -301 -170l39 -224h-115l-37 216q-101 3 -192.5 41.5t-159.5 104t-108 158 t-40 197.5z" />
<glyph unicode="&#xa3;" horiz-adv-x="1011" d="M31 801h157q-96 167 -96 299q0 153 109 253.5t260 100.5q189 0 317 -164l-86 -76q-96 129 -231 129q-100 0 -176 -65.5t-76 -177.5q0 -65 28.5 -132.5t84.5 -166.5h272l20 -111h-231q86 -168 86 -295q0 -169 -115 -284h668l20 -111h-911l-12 70q107 54 170 136.5 t63 188.5q0 75 -25.5 144t-72.5 151h-203z" />
<glyph unicode="&#xa4;" horiz-adv-x="1105" d="M82 324l154 151q-84 112 -84 244q0 130 84 242l-154 153l76 76l153 -154q112 84 242 84q132 0 244 -84l151 154l76 -76l-152 -153q82 -109 82 -242q0 -135 -82 -244l152 -151l-76 -76l-151 151q-109 -82 -244 -82q-133 0 -242 82l-153 -151zM268 719q0 -119 83 -202 t202 -83t202 83t83 202t-83 202t-202 83t-202 -83t-83 -202z" />
<glyph unicode="&#xa5;" horiz-adv-x="1093" d="M-223 1434h153l527 -633l295 633h131l-234 -502h221l21 -111h-295l-70 -147l11 -60h389l20 -110h-389l88 -504h-121l-88 504h-389l-20 110h391l-12 62l-121 145h-293l-21 111h222z" />
<glyph unicode="&#xa6;" horiz-adv-x="493" d="M31 1434h116l142 -799h-117zM215 389h117l141 -799h-117z" />
<glyph unicode="&#xa7;" horiz-adv-x="1107" d="M61 557q0 84 42 161t116 128q-145 96 -145 272q0 97 54.5 174.5t143 119.5t191.5 42q200 0 360 -127l-73 -94q-131 104 -287 104q-113 0 -189.5 -64t-76.5 -155q0 -28 6.5 -52.5t16 -44t28 -37.5t34 -31t44 -27t47 -22.5t54 -20.5t55 -17.5t60 -17t58.5 -17.5 q174 -53 245 -91q156 -84 184 -235q7 -37 7 -79q0 -86 -42 -163t-117 -126q147 -95 147 -272q0 -97 -54.5 -174.5t-143 -119.5t-191.5 -42q-195 0 -361 127l74 94q131 -104 287 -104q113 0 189.5 64t76.5 155q0 28 -6.5 52.5t-16 44t-28 37.5t-34 31t-44 27t-47 22.5 t-54 20.5t-55 17.5t-60 17t-58.5 17.5q-174 53 -244 91q-158 83 -186 235q-7 37 -7 79zM184 557q0 -54 20 -97.5t49.5 -72.5t79.5 -54t94 -39.5t108 -31.5q125 -31 213 -61q80 30 122.5 90.5t42.5 134.5q0 54 -20 97.5t-49.5 72.5t-79 54t-93.5 39.5t-108 31.5 q-125 31 -213 61q-81 -30 -123.5 -91t-42.5 -134z" />
<glyph unicode="&#xa8;" horiz-adv-x="827" d="M143 1206q0 43 30 74t73 31t73.5 -31t30.5 -74t-30.5 -72.5t-73.5 -29.5t-73 29.5t-30 72.5zM477 1206q0 43 30 74t73 31t73.5 -31t30.5 -74t-30.5 -72.5t-73.5 -29.5t-73 29.5t-30 72.5z" />
<glyph unicode="&#xa9;" horiz-adv-x="1720" d="M92 717q0 145 57 278t153 229t229 153t278 57t278 -57t229 -153t153 -229t57 -278t-57 -278t-153 -229t-229 -153t-278 -57t-278 57t-229 153t-153 229t-57 278zM188 717q0 -125 49.5 -240t133 -198.5t198.5 -133t240 -49.5t240 49.5t198.5 133t133 198.5t49.5 240 t-49.5 240t-133 198t-198.5 132.5t-240 49.5t-240 -49.5t-198.5 -132.5t-133 -198t-49.5 -240zM428 721q0 171 111.5 288t277.5 117q152 0 262 -102l-55 -72q-91 84 -207 84q-126 0 -209.5 -87.5t-83.5 -227.5q0 -137 83 -225t216 -88q126 0 226 86l55 -72 q-53 -48 -127 -76.5t-154 -28.5q-172 0 -283.5 116.5t-111.5 287.5z" />
<glyph unicode="&#xaa;" horiz-adv-x="851" d="M2 1153q0 129 90.5 215t214.5 86q62 0 107.5 -19.5t64.5 -41.5l-8 41h100l105 -594h-103l-14 78q-31 -39 -86 -69t-133 -30q-141 0 -239.5 95.5t-98.5 238.5zM102 1153q0 -101 69 -170.5t169 -69.5q68 0 119.5 32.5t83.5 80.5l-41 231q-30 44 -81 73.5t-110 29.5 q-83 0 -146 -58.5t-63 -148.5z" />
<glyph unicode="&#xab;" horiz-adv-x="1095" d="M137 516l234 344h135l-246 -364l406 -394h-160l-356 344zM547 516l233 344h135l-245 -364l405 -394h-160l-356 344z" />
<glyph unicode="&#xac;" horiz-adv-x="1085" d="M74 739h850l84 -471h-111l-66 361h-737z" />
<glyph unicode="&#xad;" horiz-adv-x="860" d="M156 561h522l18 -100h-522z" />
<glyph unicode="&#xae;" horiz-adv-x="1720" d="M92 717q0 145 57 278t153 229t229 153t278 57t278 -57t229 -153t153 -229t57 -278t-57 -278t-153 -229t-229 -153t-278 -57t-278 57t-229 153t-153 229t-57 278zM188 717q0 -125 49.5 -240t133 -198.5t198.5 -133t240 -49.5t240 49.5t198.5 133t133 198.5t49.5 240 t-49.5 240t-133 198t-198.5 132.5t-240 49.5t-240 -49.5t-198.5 -132.5t-133 -198t-49.5 -240zM553 330v784h270q124 0 183 -59t59 -142q0 -84 -59 -143q-47 -47 -142 -55l260 -385h-108l-264 385h-103v-385h-96zM649 803h168q94 0 125 39q27 30 27 71q0 42 -27 72 q-31 39 -125 39h-168v-221z" />
<glyph unicode="&#xaf;" horiz-adv-x="860" d="M143 1159v103h574v-103h-574z" />
<glyph unicode="&#xb0;" horiz-adv-x="798" d="M82 1137q0 132 92.5 224.5t224.5 92.5t225 -92.5t93 -224.5t-93 -225t-225 -93t-224.5 93t-92.5 225zM186 1137q0 -88 61.5 -149.5t149.5 -61.5t150.5 61.5t62.5 149.5t-62.5 150.5t-150.5 62.5t-149.5 -62.5t-61.5 -150.5z" />
<glyph unicode="&#xb1;" horiz-adv-x="1085" d="M100 666h371l-59 329h110l60 -329h368l21 -111h-371l57 -330h-110l-58 330h-368zM188 164h850l21 -111h-850z" />
<glyph unicode="&#xb2;" horiz-adv-x="557" d="M-82 1292q34 82 93.5 122t123.5 40q107 0 171.5 -71t64.5 -162q0 -58 -20 -105.5t-58 -103.5l-156 -226h301l17 -90h-449l-8 49l215 310q35 53 49 89t14 77q0 59 -36.5 101t-100.5 42q-45 0 -81.5 -29.5t-59.5 -79.5z" />
<glyph unicode="&#xb3;" horiz-adv-x="577" d="M-102 1434h413l8 -50l-131 -198q90 -3 162 -60q45 -35 72 -89t27 -117q0 -105 -69.5 -174.5t-178.5 -69.5q-149 0 -236 123l76 55q24 -37 67 -62.5t93 -25.5q68 0 109.5 43.5t41.5 110.5q0 81 -57.5 129.5t-140.5 48.5q-51 0 -103 -13l-8 50l145 208h-274z" />
<glyph unicode="&#xb4;" horiz-adv-x="573" d="M143 1065l133 287h154l-194 -287h-93z" />
<glyph unicode="&#xb5;" horiz-adv-x="1200" d="M102 913h117l86 -493q16 -87 34.5 -139.5t49.5 -87.5q87 -103 227 -103q95 0 181.5 53t142.5 144l-109 626h117l160 -913h-117l-26 150q-65 -79 -155.5 -124.5t-197.5 -45.5q-65 0 -132 22t-111 59l98 -553h-117z" />
<glyph unicode="&#xb6;" horiz-adv-x="1341" d="M-37 1026q0 111 52 203t141 147q95 58 237 58h674l20 -111h-206l307 -1733h-117l-307 1733h-295l305 -1733h-117l-170 963q-96 0 -151 14q-166 38 -269.5 161t-103.5 298zM80 1026q0 -161 111.5 -261.5t277.5 -100.5l-117 659q-120 -7 -196 -90.5t-76 -206.5z" />
<glyph unicode="&#xb7;" horiz-adv-x="622" d="M215 457q0 44 31.5 75t75.5 31t75 -31t31 -75t-31 -75.5t-75 -31.5t-75.5 31.5t-31.5 75.5z" />
<glyph unicode="&#xb8;" horiz-adv-x="491" d="M143 -287l113 307h92l-51 -307h-154z" />
<glyph unicode="&#xb9;" horiz-adv-x="438" d="M-78 1327l187 107h55l125 -738h-96l-107 619l-147 -80z" />
<glyph unicode="&#xba;" horiz-adv-x="851" d="M2 1159q0 123 86 209t211 86q145 0 240.5 -99t95.5 -241q0 -124 -85.5 -209.5t-211.5 -85.5q-145 0 -240.5 99t-95.5 241zM102 1159q0 -102 67 -174t169 -72q84 0 140.5 59t56.5 142q0 102 -67 174t-169 72q-84 0 -140.5 -59t-56.5 -142z" />
<glyph unicode="&#xbb;" horiz-adv-x="1095" d="M20 860h160l357 -344l12 -70l-234 -344h-135l246 365zM430 860h160l356 -344l12 -70l-233 -344h-135l246 365z" />
<glyph unicode="&#xbc;" horiz-adv-x="1060" d="M-78 1327l187 107h55l125 -738h-96l-107 619l-147 -80zM141 0l582 1434h98l-581 -1434h-99zM514 223l315 514h56l80 -473h122l15 -90h-123l31 -174h-97l-30 174h-361zM645 264h223l-49 289z" />
<glyph unicode="&#xbd;" horiz-adv-x="1093" d="M-78 1327l187 107h55l125 -738h-96l-107 619l-147 -80zM141 0l582 1434h98l-581 -1434h-99zM586 582q20 55 59.5 91.5t78.5 50t79 13.5q103 0 166 -69t63 -158q0 -98 -74 -203l-149 -217h289l16 -90h-436l-8 49l207 299q59 85 59 162q0 56 -37 96.5t-96 40.5 q-44 0 -80.5 -29.5t-50.5 -72.5z" />
<glyph unicode="&#xbe;" d="M-41 1434h414l8 -50l-131 -198q90 -3 162 -60q45 -34 71.5 -88.5t26.5 -117.5q0 -105 -69.5 -174.5t-178.5 -69.5q-148 0 -235 123l75 55q24 -37 67 -62.5t93 -25.5q68 0 110 43.5t42 110.5q0 80 -58 129t-141 49q-50 0 -102 -13l-9 50l146 208h-275zM270 0l582 1434h98 l-581 -1434h-99zM643 223l315 514h56l80 -473h123l14 -90h-123l31 -174h-97l-30 174h-361zM774 264h223l-49 289z" />
<glyph unicode="&#xbf;" horiz-adv-x="1024" d="M264 -141q0 86 34 156.5t82 114.5t96 80t82 72t34 72q0 20 -8 39t-26 37.5t-29 28.5t-33 28l75 86q74 -60 106 -107.5t32 -111.5q0 -52 -24.5 -96.5t-60.5 -73.5t-79 -63t-79 -66t-60.5 -83t-24.5 -113q0 -105 86 -182.5t215 -77.5q107 0 183 55t112 143l110 -37 q-45 -124 -154 -198t-251 -74q-180 0 -299 110.5t-119 260.5zM412 827q0 44 31 75.5t75 31.5t75.5 -31.5t31.5 -75.5t-31.5 -75t-75.5 -31t-75 31t-31 75z" />
<glyph unicode="&#xc0;" horiz-adv-x="1304" d="M82 0l356 1434h82l856 -1434h-131l-256 432h-684l-106 -432h-117zM219 1802h154l133 -286h-92zM334 549h586l-412 690z" />
<glyph unicode="&#xc1;" horiz-adv-x="1304" d="M82 0l356 1434h82l856 -1434h-131l-256 432h-684l-106 -432h-117zM334 549h586l-412 690zM426 1516l133 286h154l-195 -286h-92z" />
<glyph unicode="&#xc2;" horiz-adv-x="1304" d="M82 0l356 1434h82l856 -1434h-131l-256 432h-684l-106 -432h-117zM215 1516l141 286h144l248 -286h-93l-227 182l-121 -182h-92zM334 549h586l-412 690z" />
<glyph unicode="&#xc3;" horiz-adv-x="1304" d="M82 0l356 1434h82l856 -1434h-131l-256 432h-684l-106 -432h-117zM158 1591q2 68 41.5 119t109.5 51q44 0 91 -23t89 -46t74 -23q68 0 74 92l82 -22q-2 -68 -42 -119t-110 -51q-44 0 -91 23t-89 46t-74 23q-67 0 -73 -92zM334 549h586l-412 690z" />
<glyph unicode="&#xc4;" horiz-adv-x="1304" d="M82 0l356 1434h82l856 -1434h-131l-256 432h-684l-106 -432h-117zM166 1657q0 43 29.5 73.5t72.5 30.5t74 -30.5t31 -73.5t-31 -73t-74 -30t-72.5 30t-29.5 73zM334 549h586l-412 690zM500 1657q0 43 29.5 73.5t72.5 30.5t74 -30.5t31 -73.5t-31 -73t-74 -30t-72.5 30 t-29.5 73z" />
<glyph unicode="&#xc5;" horiz-adv-x="1304" d="M82 0l356 1434h82l856 -1434h-131l-256 432h-684l-106 -432h-117zM250 1679q0 77 54 131t130 54t130 -54t54 -131t-54 -130.5t-130 -53.5t-130 53.5t-54 130.5zM332 1679q0 -43 29.5 -72.5t72.5 -29.5t73 29.5t30 72.5t-30 73t-73 30t-72.5 -30t-29.5 -73zM334 549h586 l-412 690z" />
<glyph unicode="&#xc6;" horiz-adv-x="1814" d="M92 0l602 1434h848l21 -117h-648l82 -467h504l21 -117h-504l108 -616h668l21 -117h-789l-78 432h-547l-182 -432h-127zM451 549h477l-142 809z" />
<glyph unicode="&#xc7;" horiz-adv-x="1458" d="M61 758q0 195 93 355t255 250.5t359 90.5q245 0 451 -158l-74 -94q-178 135 -377 135q-162 0 -295.5 -74t-211 -207t-77.5 -298q0 -138 51.5 -261.5t139 -211t206.5 -138.5t250 -51q154 0 282.5 63.5t205.5 174.5l98 -74q-82 -116 -213.5 -188.5t-288.5 -87.5l-45 -271 h-153l98 269q-154 3 -293.5 64.5t-240.5 164t-160.5 245.5t-59.5 302z" />
<glyph unicode="&#xc8;" horiz-adv-x="1060" d="M20 1434h768l21 -117h-647l82 -467h504l20 -117h-504l109 -616h667l21 -117h-789zM193 1802h153l133 -286h-92z" />
<glyph unicode="&#xc9;" horiz-adv-x="1060" d="M20 1434h768l21 -117h-647l82 -467h504l20 -117h-504l109 -616h667l21 -117h-789zM340 1516l133 286h154l-195 -286h-92z" />
<glyph unicode="&#xca;" horiz-adv-x="1060" d="M20 1434h768l21 -117h-647l82 -467h504l20 -117h-504l109 -616h667l21 -117h-789zM133 1516l141 286h144l248 -286h-93l-227 182l-121 -182h-92z" />
<glyph unicode="&#xcb;" horiz-adv-x="1060" d="M20 1434h768l21 -117h-647l82 -467h504l20 -117h-504l109 -616h667l21 -117h-789zM117 1657q0 43 29.5 73.5t72.5 30.5t74 -30.5t31 -73.5t-31 -73t-74 -30t-72.5 30t-29.5 73zM451 1657q0 43 29.5 73.5t72.5 30.5t73.5 -30.5t30.5 -73.5t-30.5 -73t-73.5 -30t-72.5 30 t-29.5 73z" />
<glyph unicode="&#xcc;" horiz-adv-x="495" d="M-180 1802h153l133 -286h-92zM20 1434h121l252 -1434h-121z" />
<glyph unicode="&#xcd;" horiz-adv-x="495" d="M20 1434h121l252 -1434h-121zM27 1516l133 286h153l-194 -286h-92z" />
<glyph unicode="&#xce;" horiz-adv-x="495" d="M-197 1516l142 286h143l248 -286h-92l-228 182l-120 -182h-93zM20 1434h121l252 -1434h-121z" />
<glyph unicode="&#xcf;" horiz-adv-x="495" d="M-231 1657q0 43 29.5 73.5t72.5 30.5t73.5 -30.5t30.5 -73.5t-30.5 -73t-73.5 -30t-72.5 30t-29.5 73zM20 1434h121l252 -1434h-121zM102 1657q0 43 30 73.5t73 30.5t73.5 -30.5t30.5 -73.5t-30.5 -73t-73.5 -30t-73 30t-30 73z" />
<glyph unicode="&#xd0;" horiz-adv-x="1488" d="M-82 850h205l-103 584h500q390 0 610 -226q106 -108 166 -246t60 -286q0 -302 -178 -483q-193 -193 -529 -193h-377l-129 733h-204zM162 1317l82 -467h409l21 -117h-410l109 -616h268q289 0 446 157q146 149 146 402q0 123 -51.5 241.5t-139.5 208.5q-188 191 -510 191 h-370z" />
<glyph unicode="&#xd1;" horiz-adv-x="1540" d="M20 1434h82l1172 -1186l-209 1186h121l252 -1434h-82l-1170 1182l207 -1182h-121zM315 1591q2 68 42 119t110 51q44 0 91 -23t89 -46t74 -23q68 0 74 92l82 -22q-2 -68 -42 -119t-110 -51q-44 0 -91 23t-89 46t-74 23q-68 0 -74 -92z" />
<glyph unicode="&#xd2;" horiz-adv-x="1660" d="M61 758q0 144 50.5 272.5t146.5 224.5q98 97 225.5 148t270.5 51q149 0 290.5 -57.5t251.5 -167.5q109 -111 170.5 -256.5t61.5 -296.5q0 -144 -50.5 -273t-146.5 -225q-98 -97 -225 -147.5t-270 -50.5q-149 0 -291 57.5t-252 167.5q-109 111 -170.5 256.5t-61.5 296.5z M184 758q0 -126 52.5 -250.5t144.5 -218.5q91 -92 211.5 -142.5t243.5 -50.5q241 0 407 166q162 162 162 414q0 126 -52.5 250.5t-144.5 218.5q-91 92 -211 142t-243 50q-242 0 -408 -166q-162 -162 -162 -413zM471 1802h154l133 -286h-92z" />
<glyph unicode="&#xd3;" horiz-adv-x="1660" d="M61 758q0 144 50.5 272.5t146.5 224.5q98 97 225.5 148t270.5 51q149 0 290.5 -57.5t251.5 -167.5q109 -111 170.5 -256.5t61.5 -296.5q0 -144 -50.5 -273t-146.5 -225q-98 -97 -225 -147.5t-270 -50.5q-149 0 -291 57.5t-252 167.5q-109 111 -170.5 256.5t-61.5 296.5z M184 758q0 -126 52.5 -250.5t144.5 -218.5q91 -92 211.5 -142.5t243.5 -50.5q241 0 407 166q162 162 162 414q0 126 -52.5 250.5t-144.5 218.5q-91 92 -211 142t-243 50q-242 0 -408 -166q-162 -162 -162 -413zM659 1516l136 286h155l-196 -286h-95z" />
<glyph unicode="&#xd4;" horiz-adv-x="1660" d="M61 758q0 144 50.5 272.5t146.5 224.5q98 97 225.5 148t270.5 51q149 0 290.5 -57.5t251.5 -167.5q109 -111 170.5 -256.5t61.5 -296.5q0 -144 -50.5 -273t-146.5 -225q-98 -97 -225 -147.5t-270 -50.5q-149 0 -291 57.5t-252 167.5q-109 111 -170.5 256.5t-61.5 296.5z M184 758q0 -126 52.5 -250.5t144.5 -218.5q91 -92 211.5 -142.5t243.5 -50.5q241 0 407 166q162 162 162 414q0 126 -52.5 250.5t-144.5 218.5q-91 92 -211 142t-243 50q-242 0 -408 -166q-162 -162 -162 -413zM461 1516l141 286h143l248 -286h-92l-227 182l-121 -182h-92z " />
<glyph unicode="&#xd5;" horiz-adv-x="1660" d="M61 758q0 144 50.5 272.5t146.5 224.5q98 97 225.5 148t270.5 51q149 0 290.5 -57.5t251.5 -167.5q109 -111 170.5 -256.5t61.5 -296.5q0 -144 -50.5 -273t-146.5 -225q-98 -97 -225 -147.5t-270 -50.5q-149 0 -291 57.5t-252 167.5q-109 111 -170.5 256.5t-61.5 296.5z M184 758q0 -126 52.5 -250.5t144.5 -218.5q91 -92 211.5 -142.5t243.5 -50.5q241 0 407 166q162 162 162 414q0 126 -52.5 250.5t-144.5 218.5q-91 92 -211 142t-243 50q-242 0 -408 -166q-162 -162 -162 -413zM369 1591q2 68 41.5 119t109.5 51q44 0 91 -23t89 -46t74 -23 q68 0 74 92l82 -22q-2 -68 -42 -119t-110 -51q-44 0 -91 23t-89 46t-74 23q-67 0 -73 -92z" />
<glyph unicode="&#xd6;" horiz-adv-x="1660" d="M61 758q0 144 50.5 272.5t146.5 224.5q98 97 225.5 148t270.5 51q149 0 290.5 -57.5t251.5 -167.5q109 -111 170.5 -256.5t61.5 -296.5q0 -144 -50.5 -273t-146.5 -225q-98 -97 -225 -147.5t-270 -50.5q-149 0 -291 57.5t-252 167.5q-109 111 -170.5 256.5t-61.5 296.5z M184 758q0 -126 52.5 -250.5t144.5 -218.5q91 -92 211.5 -142.5t243.5 -50.5q241 0 407 166q162 162 162 414q0 126 -52.5 250.5t-144.5 218.5q-91 92 -211 142t-243 50q-242 0 -408 -166q-162 -162 -162 -413zM424 1657q0 43 29.5 73.5t72.5 30.5t74 -30.5t31 -73.5 t-31 -73t-74 -30t-72.5 30t-29.5 73zM758 1657q0 43 29.5 73.5t72.5 30.5t74 -30.5t31 -73.5t-31 -73t-74 -30t-72.5 30t-29.5 73z" />
<glyph unicode="&#xd7;" horiz-adv-x="1085" d="M92 807l70 84l370 -311l248 311l86 -68l-250 -313l371 -309l-69 -84l-369 309l-250 -309l-86 67l252 312z" />
<glyph unicode="&#xd8;" horiz-adv-x="1660" d="M61 758q0 144 50.5 272.5t146.5 224.5q98 97 225.5 148t270.5 51q151 0 293 -59l28 59h123l-51 -111q77 -45 149 -114q110 -108 171 -254t61 -299q0 -144 -50.5 -273t-146.5 -225q-98 -97 -225 -147.5t-270 -50.5q-153 0 -295 59l-27 -59h-123l49 108q-80 50 -147 117 q-109 111 -170.5 256.5t-61.5 296.5zM184 758q0 -126 52.5 -250.5t144.5 -218.5q45 -48 111 -90l505 1087q-124 51 -243 51q-242 0 -408 -166q-162 -162 -162 -413zM592 145q116 -49 244 -49q241 0 407 166q162 162 162 414q0 126 -52.5 250.5t-144.5 218.5q-56 56 -112 90z " />
<glyph unicode="&#xd9;" horiz-adv-x="1468" d="M0 1434h121l155 -885q36 -208 166 -330.5t328 -122.5q107 0 199 42.5t151.5 130.5t59.5 206q0 60 -15 152l-141 807h121l137 -781q23 -131 23 -182q0 -107 -43.5 -200t-116.5 -156t-170.5 -99t-204.5 -36q-244 0 -404.5 145.5t-205.5 402.5zM346 1802h154l133 -286h-92z " />
<glyph unicode="&#xda;" horiz-adv-x="1468" d="M0 1434h121l155 -885q36 -208 166 -330.5t328 -122.5q107 0 199 42.5t151.5 130.5t59.5 206q0 60 -15 152l-141 807h121l137 -781q23 -131 23 -182q0 -107 -43.5 -200t-116.5 -156t-170.5 -99t-204.5 -36q-244 0 -404.5 145.5t-205.5 402.5zM522 1516l133 286h154 l-195 -286h-92z" />
<glyph unicode="&#xdb;" horiz-adv-x="1468" d="M0 1434h121l155 -885q36 -208 166 -330.5t328 -122.5q107 0 199 42.5t151.5 130.5t59.5 206q0 60 -15 152l-141 807h121l137 -781q23 -131 23 -182q0 -107 -43.5 -200t-116.5 -156t-170.5 -99t-204.5 -36q-244 0 -404.5 145.5t-205.5 402.5zM305 1516l141 286h144 l248 -286h-93l-227 182l-121 -182h-92z" />
<glyph unicode="&#xdc;" horiz-adv-x="1468" d="M0 1434h121l155 -885q36 -208 166 -330.5t328 -122.5q107 0 199 42.5t151.5 130.5t59.5 206q0 60 -15 152l-141 807h121l137 -781q23 -131 23 -182q0 -107 -43.5 -200t-116.5 -156t-170.5 -99t-204.5 -36q-244 0 -404.5 145.5t-205.5 402.5zM291 1657q0 43 29.5 73.5 t72.5 30.5t74 -30.5t31 -73.5t-31 -73t-74 -30t-72.5 30t-29.5 73zM625 1657q0 43 29.5 73.5t72.5 30.5t73.5 -30.5t30.5 -73.5t-30.5 -73t-73.5 -30t-72.5 30t-29.5 73z" />
<glyph unicode="&#xdd;" horiz-adv-x="1093" d="M-160 1434h154l526 -633l295 633h131l-356 -760l119 -674h-121l-119 676zM354 1516l133 286h154l-195 -286h-92z" />
<glyph unicode="&#xde;" horiz-adv-x="1181" d="M20 1434h121l60 -347h434q158 0 242 -43q100 -48 161.5 -143.5t61.5 -210.5q0 -183 -133 -280q-86 -64 -242 -64h-393l61 -346h-121zM221 971l90 -508h410q116 0 168 39q88 64 88 188q0 79 -42.5 147t-109.5 101q-68 33 -168 33h-436z" />
<glyph unicode="&#xdf;" horiz-adv-x="1181" d="M61 1133q0 151 109 246.5t264 95.5q87 0 161.5 -32.5t124 -86.5t77.5 -124.5t28 -146.5q0 -162 -110 -245q159 -33 267 -158.5t108 -288.5q0 -178 -119.5 -295.5t-304.5 -117.5q-120 0 -224 55l52 100q85 -45 172 -45q138 0 222.5 86.5t84.5 216.5q0 94 -51 176t-134 127 q-78 43 -206 43h-125l-21 111q129 0 201 66.5t72 168.5q0 116 -77 197.5t-198 81.5q-110 0 -183 -64.5t-73 -166.5q0 -37 15 -129l176 -1004h-117l-176 999q-15 77 -15 134z" />
<glyph unicode="&#xe0;" d="M100 481q0 193 129 323t314 130q172 0 297 -115l-19 94h117l160 -913h-117l-25 143q-147 -163 -360 -163q-209 0 -352.5 142.5t-143.5 358.5zM217 481q0 -164 110.5 -277.5t268.5 -113.5q98 0 189.5 51.5t148.5 132.5l-68 381q-141 168 -319 168q-143 0 -236.5 -101.5 t-93.5 -240.5zM342 1352h154l133 -287h-92z" />
<glyph unicode="&#xe1;" d="M100 481q0 193 129 323t314 130q172 0 297 -115l-19 94h117l160 -913h-117l-25 143q-147 -163 -360 -163q-209 0 -352.5 142.5t-143.5 358.5zM217 481q0 -164 110.5 -277.5t268.5 -113.5q98 0 189.5 51.5t148.5 132.5l-68 381q-141 168 -319 168q-143 0 -236.5 -101.5 t-93.5 -240.5zM479 1065l133 287h154l-195 -287h-92z" />
<glyph unicode="&#xe2;" d="M100 481q0 193 129 323t314 130q172 0 297 -115l-19 94h117l160 -913h-117l-25 143q-147 -163 -360 -163q-209 0 -352.5 142.5t-143.5 358.5zM217 481q0 -164 110.5 -277.5t268.5 -113.5q98 0 189.5 51.5t148.5 132.5l-68 381q-141 168 -319 168q-143 0 -236.5 -101.5 t-93.5 -240.5zM258 1065l141 287h144l248 -287h-93l-227 182l-121 -182h-92z" />
<glyph unicode="&#xe3;" d="M100 481q0 193 129 323t314 130q172 0 297 -115l-19 94h117l160 -913h-117l-25 143q-147 -163 -360 -163q-209 0 -352.5 142.5t-143.5 358.5zM217 481q0 -164 110.5 -277.5t268.5 -113.5q98 0 189.5 51.5t148.5 132.5l-68 381q-141 168 -319 168q-143 0 -236.5 -101.5 t-93.5 -240.5zM242 1141q2 68 41.5 119t109.5 51q44 0 91 -23t89 -46t74 -23q68 0 74 92l82 -23q-2 -68 -42 -119t-110 -51q-44 0 -91 23t-89 46t-74 23q-67 0 -73 -92z" />
<glyph unicode="&#xe4;" d="M100 481q0 193 129 323t314 130q172 0 297 -115l-19 94h117l160 -913h-117l-25 143q-147 -163 -360 -163q-209 0 -352.5 142.5t-143.5 358.5zM217 481q0 -164 110.5 -277.5t268.5 -113.5q98 0 189.5 51.5t148.5 132.5l-68 381q-141 168 -319 168q-143 0 -236.5 -101.5 t-93.5 -240.5zM256 1206q0 43 30 74t72 31q43 0 74 -31t31 -74q0 -42 -31 -72t-74 -30t-72.5 29.5t-29.5 72.5zM590 1206q0 43 30 74t72 31q43 0 74 -31t31 -74q0 -42 -31 -72t-74 -30t-72.5 29.5t-29.5 72.5z" />
<glyph unicode="&#xe5;" d="M100 481q0 193 129 323t314 130q172 0 297 -115l-19 94h117l160 -913h-117l-25 143q-147 -163 -360 -163q-209 0 -352.5 142.5t-143.5 358.5zM217 481q0 -164 110.5 -277.5t268.5 -113.5q98 0 189.5 51.5t148.5 132.5l-68 381q-141 168 -319 168q-143 0 -236.5 -101.5 t-93.5 -240.5zM338 1229q0 77 54 130.5t130 53.5q77 0 131 -54t54 -130q0 -77 -54.5 -131t-130.5 -54t-130 54t-54 131zM420 1229q0 -43 29.5 -73t72.5 -30t73 30t30 73t-30 72.5t-73 29.5t-72.5 -29.5t-29.5 -72.5z" />
<glyph unicode="&#xe6;" horiz-adv-x="1875" d="M100 481q0 193 129 323t314 130q172 0 297 -115l-19 94h117l33 -184q54 96 145.5 150.5t210.5 54.5q129 0 233.5 -65t163 -176.5t60.5 -246.5h-764q12 -153 120.5 -254.5t262.5 -101.5q165 0 280 107l74 -88q-141 -129 -348 -129q-191 0 -328 118l17 -98h-117l-25 143 q-147 -163 -360 -163q-209 0 -352.5 142.5t-143.5 358.5zM217 481q0 -164 110.5 -277.5t268.5 -113.5q98 0 189.5 51.5t148.5 132.5l-68 381q-141 168 -319 168q-143 0 -236.5 -101.5t-93.5 -240.5zM1024 553h629q-25 118 -115.5 194t-210.5 76q-124 0 -204 -73.5 t-99 -196.5z" />
<glyph unicode="&#xe7;" horiz-adv-x="1054" d="M100 481q0 193 133 323t334 130q206 0 351 -135l-72 -86q-116 110 -279 110q-152 0 -251 -97t-99 -245q0 -160 116 -275.5t283 -115.5q197 0 316 139l82 -71q-128 -154 -336 -174l-45 -271h-154l99 269q-201 14 -339.5 154t-138.5 345z" />
<glyph unicode="&#xe8;" horiz-adv-x="1073" d="M100 481q0 197 117.5 325t306.5 128q129 0 233.5 -65t163 -176.5t60.5 -246.5h-764q12 -153 120.5 -254.5t262.5 -101.5q166 0 281 107l73 -88q-141 -129 -348 -129q-136 0 -251 63t-185 178.5t-70 259.5zM221 553h629q-25 118 -115.5 194t-210.5 76q-124 0 -204 -73.5 t-99 -196.5zM285 1352h153l133 -287h-92z" />
<glyph unicode="&#xe9;" horiz-adv-x="1073" d="M100 481q0 197 117.5 325t306.5 128q129 0 233.5 -65t163 -176.5t60.5 -246.5h-764q12 -153 120.5 -254.5t262.5 -101.5q166 0 281 107l73 -88q-141 -129 -348 -129q-136 0 -251 63t-185 178.5t-70 259.5zM221 553h629q-25 118 -115.5 194t-210.5 76q-124 0 -204 -73.5 t-99 -196.5zM428 1065l133 287h154l-195 -287h-92z" />
<glyph unicode="&#xea;" horiz-adv-x="1073" d="M100 481q0 197 117.5 325t306.5 128q129 0 233.5 -65t163 -176.5t60.5 -246.5h-764q12 -153 120.5 -254.5t262.5 -101.5q166 0 281 107l73 -88q-141 -129 -348 -129q-136 0 -251 63t-185 178.5t-70 259.5zM221 553h629q-25 118 -115.5 194t-210.5 76q-124 0 -204 -73.5 t-99 -196.5zM225 1065l142 287h143l248 -287h-92l-228 182l-121 -182h-92z" />
<glyph unicode="&#xeb;" horiz-adv-x="1073" d="M100 481q0 197 117.5 325t306.5 128q129 0 233.5 -65t163 -176.5t60.5 -246.5h-764q12 -153 120.5 -254.5t262.5 -101.5q166 0 281 107l73 -88q-141 -129 -348 -129q-136 0 -251 63t-185 178.5t-70 259.5zM209 1206q0 43 30 74t72 31q43 0 74 -31t31 -74q0 -42 -31 -72 t-74 -30t-72.5 29.5t-29.5 72.5zM221 553h629q-25 118 -115.5 194t-210.5 76q-124 0 -204 -73.5t-99 -196.5zM543 1206q0 43 30 74t72 31q43 0 74 -31t31 -74q0 -42 -31 -72t-74 -30t-72.5 29.5t-29.5 72.5z" />
<glyph unicode="&#xec;" horiz-adv-x="471" d="M-106 1352h153l133 -287h-92zM102 913h117l160 -913h-117z" />
<glyph unicode="&#xed;" horiz-adv-x="471" d="M84 1065l133 287h154l-195 -287h-92zM102 913h117l160 -913h-117z" />
<glyph unicode="&#xee;" horiz-adv-x="471" d="M-109 1065l142 287h143l248 -287h-92l-228 182l-120 -182h-93zM102 913h117l160 -913h-117z" />
<glyph unicode="&#xef;" horiz-adv-x="471" d="M-166 1206q0 43 30 74t73 31t73.5 -31t30.5 -74t-30.5 -72.5t-73.5 -29.5t-73 29.5t-30 72.5zM102 913h117l160 -913h-117zM168 1206q0 43 30 74t72 31q43 0 74 -31t31 -74q0 -42 -31 -72t-74 -30t-72.5 29.5t-29.5 72.5z" />
<glyph unicode="&#xf0;" horiz-adv-x="1167" d="M100 479q0 192 129 323.5t330 131.5q51 0 107 -8l-209 245l-234 -135l-57 94l219 125l-166 199h152l116 -139l242 139l55 -92l-225 -131l354 -420q162 -191 162 -377q0 -194 -131 -324t-332 -130q-139 0 -256.5 66t-186.5 181t-69 252zM217 479q0 -162 116.5 -275.5 t278.5 -113.5q150 0 248 99.5t98 244.5q0 151 -106 279l-55 63q-100 47 -238 47q-149 0 -245.5 -99t-96.5 -245z" />
<glyph unicode="&#xf1;" horiz-adv-x="1206" d="M102 913h117l27 -149q63 79 151.5 124.5t194.5 45.5q98 0 182.5 -36.5t143.5 -104.5q84 -97 114 -263l92 -530h-116l-86 494q-27 152 -86 219q-42 51 -106.5 80.5t-139.5 29.5q-94 0 -180.5 -53.5t-139.5 -142.5l109 -627h-117zM231 1141q2 68 42 119t110 51q44 0 91 -23 t89 -46t74 -23q68 0 74 92l82 -23q-2 -68 -42 -119t-110 -51q-44 0 -91 23t-89 46t-74 23q-68 0 -74 -92z" />
<glyph unicode="&#xf2;" horiz-adv-x="1165" d="M100 481q0 192 131 322.5t330 130.5q139 0 256.5 -66.5t186.5 -182t69 -253.5q0 -192 -131 -322t-330 -130q-139 0 -256.5 66t-186.5 181.5t-69 253.5zM217 481q0 -161 116.5 -276t278.5 -115q150 0 247 97.5t97 244.5q0 162 -116.5 276.5t-278.5 114.5 q-150 0 -247 -97.5t-97 -244.5zM289 1352h153l133 -287h-92z" />
<glyph unicode="&#xf3;" horiz-adv-x="1165" d="M100 481q0 192 131 322.5t330 130.5q139 0 256.5 -66.5t186.5 -182t69 -253.5q0 -192 -131 -322t-330 -130q-139 0 -256.5 66t-186.5 181.5t-69 253.5zM217 481q0 -161 116.5 -276t278.5 -115q150 0 247 97.5t97 244.5q0 162 -116.5 276.5t-278.5 114.5 q-150 0 -247 -97.5t-97 -244.5zM471 1065l133 287h154l-195 -287h-92z" />
<glyph unicode="&#xf4;" horiz-adv-x="1165" d="M100 481q0 192 131 322.5t330 130.5q139 0 256.5 -66.5t186.5 -182t69 -253.5q0 -192 -131 -322t-330 -130q-139 0 -256.5 66t-186.5 181.5t-69 253.5zM217 481q0 -161 116.5 -276t278.5 -115q150 0 247 97.5t97 244.5q0 162 -116.5 276.5t-278.5 114.5 q-150 0 -247 -97.5t-97 -244.5zM250 1065l141 287h144l247 -287h-92l-227 182l-121 -182h-92z" />
<glyph unicode="&#xf5;" horiz-adv-x="1165" d="M100 481q0 192 131 322.5t330 130.5q139 0 256.5 -66.5t186.5 -182t69 -253.5q0 -192 -131 -322t-330 -130q-139 0 -256.5 66t-186.5 181.5t-69 253.5zM193 1141q2 68 41.5 119t109.5 51q44 0 91 -23t89 -46t74 -23q68 0 74 92l82 -23q-2 -68 -42 -119t-110 -51 q-44 0 -91 23t-89 46t-74 23q-68 0 -74 -92zM217 481q0 -161 116.5 -276t278.5 -115q150 0 247 97.5t97 244.5q0 162 -116.5 276.5t-278.5 114.5q-150 0 -247 -97.5t-97 -244.5z" />
<glyph unicode="&#xf6;" horiz-adv-x="1165" d="M100 481q0 192 131 322.5t330 130.5q139 0 256.5 -66.5t186.5 -182t69 -253.5q0 -192 -131 -322t-330 -130q-139 0 -256.5 66t-186.5 181.5t-69 253.5zM217 481q0 -161 116.5 -276t278.5 -115q150 0 247 97.5t97 244.5q0 162 -116.5 276.5t-278.5 114.5 q-150 0 -247 -97.5t-97 -244.5zM227 1206q0 43 30 74t73 31t73.5 -31t30.5 -74t-30.5 -72.5t-73.5 -29.5t-73 29.5t-30 72.5zM561 1206q0 43 30 74t73 31t73.5 -31t30.5 -74t-30.5 -72.5t-73.5 -29.5t-73 29.5t-30 72.5z" />
<glyph unicode="&#xf7;" horiz-adv-x="1085" d="M104 559h850l21 -110h-850zM377 852q0 43 29.5 72.5t72.5 29.5t73 -29.5t30 -72.5t-30 -72.5t-73 -29.5t-72.5 29.5t-29.5 72.5zM500 156q0 43 29.5 72.5t72.5 29.5t73 -29.5t30 -72.5t-30 -73t-73 -30t-72.5 30t-29.5 73z" />
<glyph unicode="&#xf8;" horiz-adv-x="1165" d="M100 481q0 192 131 322.5t330 130.5q85 0 170 -29l14 29h115l-35 -74q113 -66 180.5 -179.5t67.5 -248.5q0 -192 -131 -322t-330 -130q-88 0 -174 28l-12 -28h-115l33 73q-112 68 -178 180.5t-66 247.5zM217 481q0 -99 47 -184t127 -139l295 645q-56 20 -125 20 q-150 0 -247 -97.5t-97 -244.5zM485 111q68 -21 127 -21q150 0 247 97.5t97 244.5q0 99 -48.5 185.5t-129.5 140.5z" />
<glyph unicode="&#xf9;" d="M92 913h117l86 -493q16 -87 34.5 -139.5t49.5 -87.5q87 -103 227 -103q95 0 181.5 53t142.5 144l-109 626h117l160 -913h-117l-27 150q-140 -170 -352 -170q-185 0 -303 133q-84 97 -115 270zM287 1352h153l133 -287h-92z" />
<glyph unicode="&#xfa;" d="M92 913h117l86 -493q16 -87 34.5 -139.5t49.5 -87.5q87 -103 227 -103q95 0 181.5 53t142.5 144l-109 626h117l160 -913h-117l-27 150q-140 -170 -352 -170q-185 0 -303 133q-84 97 -115 270zM430 1065l133 287h154l-195 -287h-92z" />
<glyph unicode="&#xfb;" d="M92 913h117l86 -493q16 -87 34.5 -139.5t49.5 -87.5q87 -103 227 -103q95 0 181.5 53t142.5 144l-109 626h117l160 -913h-117l-27 150q-140 -170 -352 -170q-185 0 -303 133q-84 97 -115 270zM225 1065l142 287h143l248 -287h-92l-228 182l-121 -182h-92z" />
<glyph unicode="&#xfc;" d="M92 913h117l86 -493q16 -87 34.5 -139.5t49.5 -87.5q87 -103 227 -103q95 0 181.5 53t142.5 144l-109 626h117l160 -913h-117l-27 150q-140 -170 -352 -170q-185 0 -303 133q-84 97 -115 270zM225 1206q0 43 30 74t73 31t73.5 -31t30.5 -74t-30.5 -72.5t-73.5 -29.5 t-73 29.5t-30 72.5zM559 1206q0 43 30 74t73 31t73.5 -31t30.5 -74t-30.5 -72.5t-73.5 -29.5t-73 29.5t-30 72.5z" />
<glyph unicode="&#xfd;" horiz-adv-x="976" d="M-41 913h137l463 -682l205 682h121l-424 -1409h-119l176 592zM373 1065l133 287h153l-194 -287h-92z" />
<glyph unicode="&#xfe;" horiz-adv-x="1191" d="M6 1454h117l121 -684q147 164 360 164q209 0 352.5 -143t143.5 -359q0 -193 -129 -322.5t-314 -129.5q-173 0 -297 114l105 -586h-117zM266 639l68 -381q141 -168 319 -168q143 0 236.5 101.5t93.5 240.5q0 164 -110.5 277.5t-268.5 113.5q-98 0 -189.5 -51.5 t-148.5 -132.5z" />
<glyph unicode="&#xff;" horiz-adv-x="976" d="M-41 913h137l463 -682l205 682h121l-424 -1409h-119l176 592zM145 1206q0 43 30 74t73 31t73.5 -31t30.5 -74t-30.5 -72.5t-73.5 -29.5t-73 29.5t-30 72.5zM479 1206q0 43 30 74t73 31t73.5 -31t30.5 -74t-30.5 -72.5t-73.5 -29.5t-73 29.5t-30 72.5z" />
<glyph unicode="&#x152;" horiz-adv-x="2322" d="M61 758q0 144 50.5 272.5t146.5 224.5q98 97 225.5 148t270.5 51q159 0 311 -67t260 -191l-43 238h768l21 -117h-648l82 -467h504l21 -117h-504l108 -616h668l20 -117h-788l-68 381q-52 -120 -135 -203q-98 -97 -225 -147.5t-270 -50.5q-149 0 -291 57.5t-252 167.5 q-109 111 -170.5 256.5t-61.5 296.5zM184 758q0 -126 52.5 -250.5t144.5 -218.5q91 -92 211.5 -142.5t243.5 -50.5q241 0 407 166q162 162 162 414q0 126 -52.5 250.5t-144.5 218.5q-91 92 -211 142t-243 50q-242 0 -408 -166q-162 -162 -162 -413z" />
<glyph unicode="&#x153;" horiz-adv-x="1927" d="M100 481q0 192 131 322.5t330 130.5q140 0 257 -69.5t183 -186.5q45 119 143 187.5t234 68.5q129 0 233.5 -65t163 -176.5t60.5 -246.5h-764q12 -153 120.5 -254.5t262.5 -101.5q166 0 281 107l73 -88q-141 -129 -348 -129q-141 0 -256.5 68.5t-177.5 187.5 q-54 -117 -163 -186.5t-251 -69.5q-139 0 -256.5 66t-186.5 181.5t-69 253.5zM217 481q0 -161 116.5 -276t278.5 -115q150 0 247 97.5t97 244.5q0 162 -116.5 276.5t-278.5 114.5q-150 0 -247 -97.5t-97 -244.5zM1075 553h629q-25 118 -115.5 194t-210.5 76 q-124 0 -204 -73.5t-99 -196.5z" />
<glyph unicode="&#x178;" horiz-adv-x="1093" d="M-160 1434h154l526 -633l295 633h131l-356 -760l119 -674h-121l-119 676zM131 1657q0 43 29.5 73.5t72.5 30.5t74 -30.5t31 -73.5t-31 -73t-74 -30t-72.5 30t-29.5 73zM465 1657q0 43 29.5 73.5t72.5 30.5t74 -30.5t31 -73.5t-31 -73t-74 -30t-72.5 30t-29.5 73z" />
<glyph unicode="&#x2c6;" horiz-adv-x="819" d="M143 1065l142 287h143l248 -287h-92l-228 182l-120 -182h-93z" />
<glyph unicode="&#x2dc;" horiz-adv-x="847" d="M143 1141q2 68 42 119t110 51q44 0 91 -23t89 -46t74 -23q68 0 74 92l82 -23q-2 -68 -42 -119t-110 -51q-44 0 -91 23t-89 46t-74 23q-68 0 -74 -92z" />
<glyph unicode="&#x2000;" horiz-adv-x="932" />
<glyph unicode="&#x2001;" horiz-adv-x="1864" />
<glyph unicode="&#x2002;" horiz-adv-x="932" />
<glyph unicode="&#x2003;" horiz-adv-x="1864" />
<glyph unicode="&#x2004;" horiz-adv-x="621" />
<glyph unicode="&#x2005;" horiz-adv-x="466" />
<glyph unicode="&#x2006;" horiz-adv-x="310" />
<glyph unicode="&#x2007;" horiz-adv-x="310" />
<glyph unicode="&#x2008;" horiz-adv-x="233" />
<glyph unicode="&#x2009;" horiz-adv-x="372" />
<glyph unicode="&#x200a;" horiz-adv-x="103" />
<glyph unicode="&#x2010;" horiz-adv-x="860" d="M156 561h522l18 -100h-522z" />
<glyph unicode="&#x2011;" horiz-adv-x="860" d="M156 561h522l18 -100h-522z" />
<glyph unicode="&#x2012;" horiz-adv-x="860" d="M156 561h522l18 -100h-522z" />
<glyph unicode="&#x2013;" horiz-adv-x="921" d="M31 561h829l19 -100h-830z" />
<glyph unicode="&#x2014;" horiz-adv-x="1536" d="M31 561h1444l18 -100h-1444z" />
<glyph unicode="&#x2018;" horiz-adv-x="491" d="M10 942l135 492h103l-84 -492h-154z" />
<glyph unicode="&#x2019;" horiz-adv-x="491" d="M41 942l84 492h154l-136 -492h-102z" />
<glyph unicode="&#x201a;" horiz-adv-x="501" d="M225 -287l84 492h154l-135 -492h-103z" />
<glyph unicode="&#x201c;" horiz-adv-x="860" d="M10 942l135 492h103l-84 -492h-154zM379 942l135 492h102l-84 -492h-153z" />
<glyph unicode="&#x201d;" horiz-adv-x="860" d="M41 942l84 492h154l-136 -492h-102zM410 942l84 492h153l-135 -492h-102z" />
<glyph unicode="&#x201e;" horiz-adv-x="870" d="M225 -287l84 492h154l-135 -492h-103zM594 -287l84 492h153l-135 -492h-102z" />
<glyph unicode="&#x2022;" horiz-adv-x="1064" d="M184 457q0 152 108.5 260t260.5 108t260.5 -108t108.5 -260t-108.5 -260.5t-260.5 -108.5t-260.5 108.5t-108.5 260.5z" />
<glyph unicode="&#x2026;" horiz-adv-x="1687" d="M256 86q0 44 31 75.5t75 31.5t75.5 -31.5t31.5 -75.5t-31.5 -75t-75.5 -31t-75 31t-31 75zM788 86q0 44 31.5 75.5t75.5 31.5t75 -31.5t31 -75.5t-31 -75t-75 -31t-75.5 31t-31.5 75zM1321 86q0 44 31 75.5t75 31.5t75.5 -31.5t31.5 -75.5t-31.5 -75t-75.5 -31t-75 31 t-31 75z" />
<glyph unicode="&#x202f;" horiz-adv-x="372" />
<glyph unicode="&#x2039;" horiz-adv-x="686" d="M137 516l234 344h135l-246 -364l406 -394h-160l-356 344z" />
<glyph unicode="&#x203a;" horiz-adv-x="686" d="M20 860h160l357 -344l12 -70l-234 -344h-135l246 365z" />
<glyph unicode="&#x205f;" horiz-adv-x="466" />
<glyph unicode="&#x20ac;" horiz-adv-x="1329" d="M-82 932h205q49 233 213.5 377.5t378.5 144.5q251 0 434 -174l-82 -90q-82 77 -165 112t-187 35q-167 0 -293.5 -111.5t-171.5 -293.5h526l21 -111h-566q-2 -20 -2 -61q0 -73 13 -146h589l21 -110h-582q65 -186 209 -297t324 -111q260 0 401 223l94 -71 q-77 -128 -205.5 -198t-289.5 -70q-229 0 -410.5 143.5t-251.5 380.5h-147l-21 110h144q-11 86 -11 146q0 31 3 61h-170z" />
<glyph unicode="&#x2122;" horiz-adv-x="1714" d="M20 1343v91h543v-91h-223v-694h-96v694h-224zM653 649v785h56l342 -541l342 541h55v-785h-96v553l-273 -434h-57l-272 434v-553h-97z" />
<glyph unicode="&#x25fc;" horiz-adv-x="911" d="M0 0v911h911v-911h-911z" />
</font>
</defs>
</svg>
