<?xml version="1.0" standalone="no"?>
<!DOCTYPE svg PUBLIC "-//W3C//DTD SVG 1.1//EN" "http://www.w3.org/Graphics/SVG/1.1/DTD/svg11.dtd" >
<svg xmlns="http://www.w3.org/2000/svg">
<metadata></metadata>
<defs>
<font id="brownbold" horiz-adv-x="1259" >
<font-face units-per-em="2048" ascent="1638" descent="-410" />
<missing-glyph horiz-adv-x="552" />
<glyph unicode="&#xfb01;" horiz-adv-x="1474" d="M41 768v225h256v41q0 221 106 324q120 117 310 117q82 0 157 -19l-41 -227q-38 10 -79 10q-102 0 -150 -57q-37 -47 -37 -158v-31h758v-993h-266v768h-492v-768h-266v768h-256zM1014 1346q0 72 51 121t123 49t123 -49t51 -121t-51 -121t-123 -49t-123 49t-51 121z" />
<glyph unicode="&#xfb02;" horiz-adv-x="1474" d="M41 768v225h256v41q0 221 106 324q120 117 310 117q82 0 157 -19l-41 -227q-38 10 -79 10q-102 0 -150 -57q-37 -47 -37 -158v-31h492v461h266v-1454h-266v768h-492v-768h-266v768h-256z" />
<glyph unicode="&#xfb03;" horiz-adv-x="2232" d="M41 768v225h256v41q0 221 106 324q120 117 310 117q82 0 157 -19l-41 -227q-38 10 -79 10q-102 0 -150 -57q-37 -47 -37 -158v-31h492v41q0 221 106 324q120 117 309 117q83 0 158 -19l-41 -227q-38 10 -80 10q-101 0 -149 -57q-37 -47 -37 -158v-31h758v-993h-267v768 h-491v-768h-266v768h-492v-768h-266v768h-256zM1772 1346q0 72 51 121t123 49t123 -49t51 -121t-51 -121t-123 -49t-123 49t-51 121z" />
<glyph unicode="&#xfb04;" horiz-adv-x="2232" d="M41 768v225h256v41q0 221 106 324q120 117 310 117q82 0 157 -19l-41 -227q-38 10 -79 10q-102 0 -150 -57q-37 -47 -37 -158v-31h492v41q0 221 106 324q120 117 309 117q83 0 158 -19l-41 -227q-38 10 -80 10q-101 0 -149 -57q-37 -47 -37 -158v-31h491v461h267v-1454 h-267v768h-491v-768h-266v768h-492v-768h-266v768h-256z" />
<glyph horiz-adv-x="0" />
<glyph horiz-adv-x="682" />
<glyph unicode=" "  horiz-adv-x="552" />
<glyph unicode="&#x09;" horiz-adv-x="552" />
<glyph unicode="&#xa0;" horiz-adv-x="552" />
<glyph unicode="!" horiz-adv-x="768" d="M205 158q0 75 51.5 127.5t126.5 52.5t127.5 -52.5t52.5 -127.5t-52.5 -126.5t-127.5 -51.5t-126.5 51.5t-51.5 126.5zM250 993v441h266v-441l-41 -522h-184z" />
<glyph unicode="&#x22;" horiz-adv-x="983" d="M143 1434h267l-41 -523h-185zM573 1434h267l-41 -523h-185z" />
<glyph unicode="#" horiz-adv-x="1501" d="M72 379v225h284l62 225h-225v226h286l101 379h233l-100 -379h258l100 379h234l-101 -379h226v-226h-285l-64 -225h226l8 -225h-293l-100 -379h-234l100 379h-258l-100 -379h-233l100 379h-225zM590 604h258l61 225h-258z" />
<glyph unicode="$" horiz-adv-x="1095" d="M20 195l181 188q64 -71 153.5 -114.5t184.5 -43.5q92 0 150.5 51.5t58.5 129.5q0 52 -28 92t-79.5 68t-105.5 49.5t-125.5 51.5t-120.5 58q-203 119 -203 326q0 143 90 243.5t230 139.5v235h245v-221q174 -19 324 -129l-144 -205q-44 41 -111.5 67.5t-135.5 26.5 q-41 0 -79 -9t-70.5 -26.5t-52.5 -48.5t-20 -71q0 -41 28.5 -74.5t75 -55.5t106 -47.5t121.5 -49.5t121.5 -61.5t106 -82.5t75 -115t28.5 -157q0 -158 -106.5 -272t-266.5 -146v-228h-245v230q-212 41 -386 201z" />
<glyph unicode="%" horiz-adv-x="1976" d="M102 1075q0 158 112.5 268.5t277.5 110.5t277 -110.5t112 -268.5t-112 -268.5t-277 -110.5t-277.5 110.5t-112.5 268.5zM348 1075q0 -65 40 -109t104 -44t103.5 44t39.5 109t-39.5 109.5t-103.5 44.5t-104 -44.5t-40 -109.5zM459 0l837 1434h228l-838 -1434h-227z M1096 358q0 158 112 268.5t277 110.5t277 -110.5t112 -268.5t-112 -268t-277 -110t-277 110t-112 268zM1341 358q0 -65 40 -109t104 -44t103.5 44t39.5 109t-39.5 109.5t-103.5 44.5t-104 -44.5t-40 -109.5z" />
<glyph unicode="&#x26;" horiz-adv-x="1351" d="M51 449q0 247 256 419q-112 147 -112 275q0 130 102.5 220.5t241.5 90.5q149 0 246.5 -95.5t97.5 -240.5q0 -97 -51 -173t-138 -144l275 -316q20 75 20 154q0 103 -35 225l248 60q43 -151 43 -287q0 -218 -88 -367l236 -270h-332l-76 86q-157 -106 -397 -106 q-102 0 -198.5 33.5t-172 93t-121 149t-45.5 193.5zM317 449q0 -93 77.5 -158.5t205.5 -65.5q126 0 215 56l-342 395q-156 -86 -156 -227zM461 1120q0 -59 69 -135q86 75 86 135q0 36 -21.5 62t-55.5 26q-33 0 -55.5 -26t-22.5 -62z" />
<glyph unicode="'" horiz-adv-x="552" d="M143 1434h267l-41 -523h-185z" />
<glyph unicode="(" horiz-adv-x="931" d="M287 512q0 259 75 500t216 442l198 -139q-117 -168 -180.5 -376t-63.5 -427t63.5 -427t180.5 -376l-198 -139q-141 201 -216 442t-75 500z" />
<glyph unicode=")" horiz-adv-x="931" d="M156 -291q117 167 180 375t63 428t-63 428t-180 375l198 139q141 -201 216 -442t75 -500t-75 -500t-216 -442z" />
<glyph unicode="*" horiz-adv-x="1056" d="M66 1016l69 211l281 -90v297h225v-297l281 92l69 -213l-282 -92l174 -240l-181 -131l-174 240l-174 -240l-180 131l174 240z" />
<glyph unicode="+" horiz-adv-x="1126" d="M92 461v225h359v358h225v-358h358v-225h-358v-359h-225v359h-359z" />
<glyph unicode="," horiz-adv-x="768" d="M102 -287l154 604h287l-246 -604h-195z" />
<glyph unicode="-" horiz-adv-x="962" d="M143 420v225h676v-225h-676z" />
<glyph unicode="." horiz-adv-x="768" d="M225 158q0 75 51.5 127.5t126.5 52.5t128 -52.5t53 -127.5t-53 -126.5t-128 -51.5t-126.5 51.5t-51.5 126.5z" />
<glyph unicode="/" horiz-adv-x="931" d="M10 0l666 1434h246l-666 -1434h-246z" />
<glyph unicode="0" horiz-adv-x="1228" d="M113 717q0 159 27.5 288.5t85 232t156.5 159.5t232 57q107 0 192.5 -38t143 -104t95.5 -160t54.5 -201.5t16.5 -233.5t-16.5 -233.5t-54.5 -201.5t-95.5 -160t-143 -104t-192.5 -38q-133 0 -232 57t-156.5 159.5t-85 232t-27.5 288.5zM389 717q0 -105 12 -191.5 t38 -155.5t70.5 -107t104.5 -38q80 0 132 68.5t73 175t21 248.5q0 105 -12.5 191t-38 155t-70.5 107t-105 38t-104.5 -38t-70.5 -107t-38 -155t-12 -191z" />
<glyph unicode="1" horiz-adv-x="870" d="M113 967v262l348 205h194v-1434h-276v1114z" />
<glyph unicode="2" horiz-adv-x="1116" d="M82 0v164l504 571q79 89 110 155t31 126q0 77 -53 134.5t-133 57.5q-70 0 -121.5 -43.5t-73.5 -117.5l-254 75q46 148 170.5 240t282.5 92q123 0 227.5 -56t168 -158t63.5 -228q0 -118 -49 -215t-136 -197l-305 -354h500v-246h-932z" />
<glyph unicode="3" horiz-adv-x="1173" d="M51 203l199 166q46 -65 116.5 -104.5t149.5 -39.5q105 0 186.5 74t81.5 186t-81 187.5t-201 75.5q-92 0 -172 -41v163l268 318h-479v246h870v-164l-260 -320q151 -58 241.5 -181.5t90.5 -283.5q0 -148 -72 -264t-193.5 -178.5t-269.5 -62.5q-133 0 -256.5 58t-218.5 165z " />
<glyph unicode="4" d="M41 328v164l747 942h195v-861h236v-245h-236v-328h-276v328h-666zM438 573h269v336z" />
<glyph unicode="5" horiz-adv-x="1157" d="M82 164l188 176q48 -52 112.5 -83.5t133.5 -31.5q100 0 172 66q80 73 80 184q0 120 -88 195q-66 57 -174 57q-118 0 -211 -78l-172 25l92 760h758v-246h-533l-22 -225q48 10 110 10q201 0 334 -109q85 -68 133.5 -171t48.5 -218q0 -139 -71.5 -253t-192.5 -178t-264 -64 q-250 0 -434 184z" />
<glyph unicode="6" horiz-adv-x="1208" d="M92 469q0 96 36.5 188.5t104.5 206.5l338 570h306l-271 -457h19q135 0 249.5 -63t183 -177t68.5 -254q0 -137 -69 -253t-186.5 -183t-254.5 -67q-101 0 -195 35t-167.5 97t-117.5 155t-44 202zM358 469q0 -101 74.5 -172.5t179.5 -71.5q104 0 173 73t69 177 q0 106 -71.5 181t-184.5 75q-80 0 -154 -35q-86 -117 -86 -227z" />
<glyph unicode="7" horiz-adv-x="1095" d="M92 1188v246h942v-164l-616 -1270h-293l580 1188h-613z" />
<glyph unicode="8" horiz-adv-x="1228" d="M102 444q0 227 207 363q-114 103 -114 252q0 166 119.5 280.5t299.5 114.5t300 -114.5t120 -280.5q0 -149 -114 -252q206 -135 206 -363q0 -195 -148.5 -329.5t-363.5 -134.5t-363.5 134.5t-148.5 329.5zM379 444q0 -93 67 -156t168 -63t168.5 63t67.5 156t-67.5 157.5 t-168.5 64.5q-100 0 -167.5 -64.5t-67.5 -157.5zM471 1059q0 -63 40 -105.5t103 -42.5t103.5 42.5t40.5 105.5t-40.5 106t-103.5 43t-103 -43t-40 -106z" />
<glyph unicode="9" horiz-adv-x="1208" d="M82 950q0 137 69 253.5t186.5 183.5t254.5 67q101 0 195 -35t167.5 -97t117.5 -155t44 -202q0 -96 -36.5 -189.5t-104.5 -206.5l-338 -569h-305l270 457h-18q-135 0 -250 62.5t-183.5 176.5t-68.5 254zM354 958q0 -106 71.5 -181t184.5 -75q80 0 154 35q86 117 86 228 q0 101 -74.5 172t-179.5 71q-104 0 -173 -73t-69 -177z" />
<glyph unicode=":" horiz-adv-x="768" d="M225 154q0 75 51.5 125.5t126.5 50.5t128 -50.5t53 -125.5q0 -74 -52.5 -124t-128.5 -50q-75 0 -126.5 49.5t-51.5 124.5zM225 838q0 75 51.5 125.5t126.5 50.5t128 -50.5t53 -125.5q0 -74 -52.5 -124t-128.5 -50q-75 0 -126.5 49.5t-51.5 124.5z" />
<glyph unicode=";" horiz-adv-x="768" d="M102 -287l154 604h287l-246 -604h-195zM215 838q0 75 51.5 125.5t126.5 50.5t127.5 -50.5t52.5 -125.5q0 -74 -52 -124t-128 -50q-75 0 -126.5 49.5t-51.5 124.5z" />
<glyph unicode="&#x3c;" horiz-adv-x="1126" d="M92 502v143l942 410v-244l-545 -238l545 -237v-244z" />
<glyph unicode="=" horiz-adv-x="1126" d="M92 246v225h942v-225h-942zM92 676v225h942v-225h-942z" />
<glyph unicode="&#x3e;" horiz-adv-x="1126" d="M92 92v244l545 237l-545 238v244l942 -410v-143z" />
<glyph unicode="?" horiz-adv-x="1024" d="M123 1151q29 129 137 216t268 87q174 0 294 -106t120 -263q0 -71 -24.5 -131.5t-60.5 -100t-79 -76.5t-79 -62.5t-60.5 -55t-24.5 -57.5q0 -39 35 -74l-207 -143q-94 110 -94 223q0 62 24.5 115.5t60.5 88.5t79 70.5t79 62.5t60.5 62.5t24.5 73.5q0 57 -41 92t-107 35 q-63 0 -102.5 -38t-44.5 -87zM330 154q0 75 51.5 125.5t126.5 50.5t127.5 -50.5t52.5 -125.5q0 -74 -52 -124t-128 -50q-75 0 -126.5 49.5t-51.5 124.5z" />
<glyph unicode="@" horiz-adv-x="2048" d="M143 512q0 183 69 349.5t186.5 287.5t282.5 192.5t349 71.5q172 0 332 -64.5t279.5 -175.5t191.5 -270.5t72 -339.5q0 -101 -23 -188.5t-68 -156t-119 -107.5t-169 -39q-70 0 -133.5 29t-108.5 79q-118 -108 -280 -108q-58 0 -119.5 17.5t-120 54t-105 87.5t-74.5 124 t-28 157q0 101 40 186.5t103.5 139.5t138 84t146.5 30q126 0 223 -63v43h217v-494q0 -76 21 -114q28 -48 86 -48q44 0 74.5 27.5t45.5 74t21 91.5t6 94q0 178 -91 323t-238.5 223.5t-317.5 78.5q-135 0 -258 -53t-211.5 -143t-141 -215.5t-52.5 -264.5q0 -137 52 -262.5 t139.5 -216t209 -144t254.5 -53.5q238 0 406 133l126 -186q-230 -172 -518 -172q-185 0 -351 71t-285 191.5t-189 287t-70 351.5zM782 512q0 -99 66.5 -167.5t169.5 -68.5q58 0 108.5 22t77.5 56q-4 54 -4 90v230q-29 32 -78 53t-104 21q-103 0 -169.5 -68.5t-66.5 -167.5z " />
<glyph unicode="A" horiz-adv-x="1423" d="M0 0l614 1434h195l614 -1434h-288l-136 317h-575l-135 -317h-289zM528 563h365l-182 424z" />
<glyph unicode="B" horiz-adv-x="1280" d="M164 0v1434h487q115 0 190 -25.5t132 -75.5q62 -54 97.5 -129t35.5 -160q0 -67 -27 -133.5t-65 -105.5q96 -48 155.5 -148t59.5 -219q0 -89 -35 -169t-96 -140q-129 -129 -375 -129h-559zM440 246h277q127 0 184 63q51 54 51 131t-51 131q-57 64 -184 64h-277v-389z M440 881h195q105 0 153 51q41 44 41 102q0 59 -41 103q-48 51 -153 51h-195v-307z" />
<glyph unicode="C" horiz-adv-x="1464" d="M61 717q0 153 56 288.5t154.5 234.5t240 156.5t305.5 57.5q156 0 290 -54t234 -151l-178 -188q-147 147 -348 147q-133 0 -243 -65.5t-172 -178.5t-62 -247q0 -209 141 -350.5t348 -141.5q131 0 234 55t172 144l190 -170q-99 -126 -255 -200t-347 -74q-164 0 -306.5 57.5 t-241.5 156.5t-155.5 234.5t-56.5 288.5z" />
<glyph unicode="D" horiz-adv-x="1454" d="M164 0v1434h450q309 0 494 -136q133 -99 209 -251.5t76 -329.5t-76 -330t-209 -252q-184 -135 -494 -135h-450zM440 246h205q239 0 367 160q104 129 104 311t-104 311q-128 160 -367 160h-205v-942z" />
<glyph unicode="E" horiz-adv-x="1126" d="M164 0v1434h860v-246h-584v-297h441v-246h-441v-399h604v-246h-880z" />
<glyph unicode="F" horiz-adv-x="1064" d="M164 0v1434h860v-246h-584v-297h441v-246h-441v-645h-276z" />
<glyph unicode="G" horiz-adv-x="1546" d="M61 717q0 153 56 288.5t154.5 234.5t240 156.5t305.5 57.5q156 0 290 -54t234 -151l-178 -188q-147 147 -348 147q-133 0 -243 -65.5t-172 -178.5t-62 -247q0 -209 141 -350.5t348 -141.5q182 0 320 111v309h-369v246h645v-637q-99 -126 -255 -200t-347 -74 q-164 0 -306.5 57.5t-241.5 156.5t-155.5 234.5t-56.5 288.5z" />
<glyph unicode="H" horiz-adv-x="1597" d="M164 0v1434h276v-543h717v543h277v-1434h-277v645h-717v-645h-276z" />
<glyph unicode="I" horiz-adv-x="604" d="M164 0v1434h276v-1434h-276z" />
<glyph unicode="J" horiz-adv-x="1024" d="M31 231l237 119q21 -52 62.5 -88.5t105.5 -36.5q80 0 125 58q33 45 33 137v1014h276v-983q0 -171 -45 -254q-55 -102 -160 -159.5t-231 -57.5q-139 0 -246 67.5t-157 183.5z" />
<glyph unicode="K" horiz-adv-x="1423" d="M164 0v1434h276v-574l543 574h365l-631 -656l706 -778h-354l-629 705v-705h-276z" />
<glyph unicode="L" horiz-adv-x="1095" d="M164 0v1434h276v-1188h604v-246h-880z" />
<glyph unicode="M" horiz-adv-x="1761" d="M164 0v1434h194l523 -859l522 859h194v-1434h-276v799l-344 -563h-193l-344 563v-799h-276z" />
<glyph unicode="N" horiz-adv-x="1597" d="M164 0v1434h194l799 -934v934h277v-1434h-195l-799 934v-934h-276z" />
<glyph unicode="O" horiz-adv-x="1617" d="M61 717q0 152 55.5 287t152.5 234.5t237.5 157.5t302.5 58t302.5 -58t237.5 -157.5t152 -234.5t55 -287t-55 -287t-152 -234.5t-237.5 -157.5t-302.5 -58t-302.5 58t-237.5 157.5t-152.5 234.5t-55.5 287zM338 717q0 -134 61 -246.5t169.5 -179t240.5 -66.5t240.5 66.5 t169.5 179t61 246.5t-61 246.5t-169.5 178.5t-240.5 66t-240.5 -66t-169.5 -178.5t-61 -246.5z" />
<glyph unicode="P" horiz-adv-x="1228" d="M164 0v1434h538q134 0 222.5 -32t150.5 -97q54 -55 83.5 -133.5t29.5 -163.5t-29.5 -163.5t-83.5 -133.5q-121 -127 -373 -127h-262v-584h-276zM440 829h250q119 0 174 58q47 50 47 121q0 72 -47 122q-55 58 -174 58h-250v-359z" />
<glyph unicode="Q" horiz-adv-x="1638" d="M61 717q0 152 55.5 287t152.5 234.5t237.5 157.5t302.5 58t302.5 -58t237.5 -157.5t152 -234.5t55 -287q0 -260 -151 -457l233 -260h-313l-90 102q-186 -122 -426 -122q-162 0 -302.5 58t-237.5 157.5t-152.5 234.5t-55.5 287zM338 717q0 -134 61 -246.5t169.5 -179 t240.5 -66.5q139 0 252 74l-311 352l174 152l295 -332q61 113 61 246q0 134 -61 246.5t-169.5 178.5t-240.5 66t-240.5 -66t-169.5 -178.5t-61 -246.5z" />
<glyph unicode="R" horiz-adv-x="1372" d="M164 0v1434h522q196 0 313 -107q60 -57 93.5 -132.5t33.5 -160.5t-33.5 -160.5t-93.5 -132.5q-61 -58 -143 -84l537 -657h-342l-510 635h-101v-635h-276zM440 881h230q99 0 139 43q41 44 41 108q0 67 -41 111q-42 45 -139 45h-230v-307z" />
<glyph unicode="S" horiz-adv-x="1095" d="M20 195l181 188q64 -71 153.5 -114.5t184.5 -43.5q92 0 150.5 51.5t58.5 129.5q0 52 -28 92t-79.5 68t-105.5 49.5t-125.5 51.5t-120.5 58q-203 119 -203 326q0 93 40.5 170.5t107 127.5t151 77.5t174.5 27.5q234 0 416 -135l-144 -205q-44 41 -111.5 67.5t-135.5 26.5 q-41 0 -79 -9t-70.5 -26.5t-52.5 -48.5t-20 -71q0 -41 28.5 -74.5t75 -55.5t106 -47.5t121.5 -49.5t121.5 -61.5t106 -82.5t75 -115t28.5 -157q0 -123 -67.5 -223t-178 -153.5t-239.5 -53.5q-285 0 -519 215z" />
<glyph unicode="T" horiz-adv-x="1136" d="M51 1188v246h1034v-246h-378v-1188h-277v1188h-379z" />
<glyph unicode="U" horiz-adv-x="1536" d="M154 604v830h276v-850q0 -179 94 -267q95 -92 244 -92t244 92q94 88 94 267v850h276v-830q0 -313 -184 -477q-82 -72 -194 -109.5t-236 -37.5t-236 37.5t-194 109.5q-184 164 -184 477z" />
<glyph unicode="V" horiz-adv-x="1394" d="M20 1434h285l391 -979l394 979h284l-579 -1434h-195z" />
<glyph unicode="W" horiz-adv-x="2017" d="M20 1434h279l297 -895l315 895h195l315 -895l297 895h279l-475 -1434h-195l-319 907l-318 -907h-194z" />
<glyph unicode="X" horiz-adv-x="1392" d="M31 0l495 764l-434 670h318l286 -453l287 453h317l-436 -670l498 -764h-318l-348 545l-348 -545h-317z" />
<glyph unicode="Y" horiz-adv-x="1280" d="M10 1434h316l315 -504l313 504h316l-492 -785v-649h-276v649z" />
<glyph unicode="Z" d="M82 0v164l696 1024h-635v246h1004v-164l-698 -1024h739v-246h-1106z" />
<glyph unicode="[" horiz-adv-x="931" d="M287 -410v1844h563v-236h-318v-1372h318v-236h-563z" />
<glyph unicode="\" horiz-adv-x="931" d="M10 1434h246l666 -1434h-246z" />
<glyph unicode="]" horiz-adv-x="931" d="M82 -174h317v1372h-317v236h563v-1844h-563v236z" />
<glyph unicode="^" horiz-adv-x="1064" d="M61 717l379 717h185l379 -717h-254l-218 411l-217 -411h-254z" />
<glyph unicode="_" horiz-adv-x="1064" d="M31 0h1003v-225h-1003v225z" />
<glyph unicode="`" horiz-adv-x="716" d="M143 1475h287l143 -328h-184z" />
<glyph unicode="a" d="M72 496q0 219 142 368.5t345 149.5q166 0 291 -101v80h256v-993h-256v80q-117 -100 -277 -100q-109 0 -208 45t-166 122q-127 147 -127 349zM338 496q0 -117 74.5 -194t187.5 -77q74 0 137.5 33.5t102.5 89.5v297q-42 57 -106.5 90t-139.5 33q-113 0 -184.5 -80.5 t-71.5 -191.5z" />
<glyph unicode="b" d="M154 0v1454h266v-532q118 92 280 92q133 0 245 -68t177.5 -187t65.5 -263q0 -202 -127 -349q-67 -77 -166.5 -122t-208.5 -45q-159 0 -276 100v-80h-256zM420 348q39 -57 102 -90t137 -33q113 0 188 77t75 194q0 111 -71.5 191.5t-184.5 80.5q-75 0 -139.5 -33 t-106.5 -90v-297z" />
<glyph unicode="c" horiz-adv-x="1105" d="M72 496q0 143 69.5 261.5t192.5 187.5t272 69q126 0 236.5 -54t181.5 -145l-188 -166q-41 55 -100.5 87t-129.5 32q-115 0 -191.5 -78.5t-76.5 -193.5q0 -118 76.5 -194.5t197.5 -76.5q76 0 139 38t99 93l205 -153q-167 -223 -451 -223q-228 0 -380 149.5t-152 366.5z " />
<glyph unicode="d" d="M72 496q0 219 142 368.5t345 149.5q163 0 281 -92v532h266v-1454h-256v80q-117 -100 -277 -100q-109 0 -208 45t-166 122q-127 147 -127 349zM338 496q0 -117 74.5 -194t187.5 -77q74 0 137.5 33.5t102.5 89.5v297q-42 57 -106.5 90t-139.5 33q-113 0 -184.5 -80.5 t-71.5 -191.5z" />
<glyph unicode="e" horiz-adv-x="1095" d="M72 496q0 103 34.5 197t96 165.5t153 113.5t199.5 42q134 0 242 -69.5t167.5 -185.5t59.5 -253q0 -42 -6 -76h-688q10 -104 86 -169.5t182 -65.5q77 0 142.5 34t107.5 80l151 -151q-71 -85 -180 -131.5t-227 -46.5q-226 0 -373 143t-147 373zM342 625h410 q-6 69 -62 121.5t-135 52.5q-81 0 -142.5 -52t-70.5 -122z" />
<glyph unicode="f" horiz-adv-x="942" d="M41 768v225h256v41q0 221 106 324q120 117 310 117q82 0 157 -19l-41 -227q-38 10 -79 10q-102 0 -150 -57q-37 -47 -37 -158v-31h307v-225h-307v-768h-266v768h-256z" />
<glyph unicode="g" d="M72 496q0 219 142 368.5t345 149.5q166 0 291 -101v80h256v-938q0 -240 -90 -368q-68 -94 -183.5 -146.5t-257.5 -52.5t-271.5 58t-205.5 147l168 174q25 -27 49 -47.5t62.5 -44.5t89 -37.5t108.5 -13.5q136 0 203 79q32 35 47 88.5t15 145.5v33q-118 -90 -267 -90 q-109 0 -209 45t-167 122q-125 144 -125 349zM338 496q0 -117 74.5 -194t187.5 -77q74 0 137.5 33.5t102.5 89.5v297q-42 57 -106.5 90t-139.5 33q-113 0 -184.5 -80.5t-71.5 -191.5z" />
<glyph unicode="h" horiz-adv-x="1269" d="M154 0v1454h266v-532q119 92 270 92q101 0 191.5 -42.5t152.5 -117.5q52 -61 77.5 -143t25.5 -205v-506h-267v526q0 128 -59 187q-55 55 -149 55q-77 0 -142.5 -38.5t-99.5 -84.5v-645h-266z" />
<glyph unicode="i" horiz-adv-x="573" d="M113 1346q0 72 51 121t123 49t123 -49t51 -121t-51 -121t-123 -49t-123 49t-51 121zM154 0v993h266v-993h-266z" />
<glyph unicode="j" horiz-adv-x="655" d="M-41 -498l41 242q30 -10 70 -10q85 0 127 45q39 42 39 170v1044h266v-1044q0 -112 -17 -185t-55 -129q-104 -147 -338 -147q-65 0 -133 14zM195 1346q0 72 51 121t123 49t123 -49t51 -121t-51 -121t-123 -49t-123 49t-51 121z" />
<glyph unicode="k" horiz-adv-x="1218" d="M154 0v1454h266v-782l342 321h375l-486 -446l547 -547h-358l-420 430v-430h-266z" />
<glyph unicode="l" horiz-adv-x="573" d="M154 0v1454h266v-1454h-266z" />
<glyph unicode="m" horiz-adv-x="1945" d="M154 0v993h256v-80q113 101 268 101q99 0 186.5 -42t147.5 -114q65 69 156.5 112.5t195.5 43.5q102 0 195 -43t153 -117q100 -124 100 -328v-526h-266v537q0 115 -49 170q-56 61 -149 61q-77 0 -142 -41.5t-98 -89.5q8 -66 8 -111v-526h-266v537q0 115 -49 170 q-56 61 -150 61q-75 0 -134.5 -38t-96.5 -85v-645h-266z" />
<glyph unicode="n" horiz-adv-x="1269" d="M154 0v993h256v-80q126 101 280 101q101 0 191.5 -42.5t152.5 -117.5q52 -61 77.5 -143t25.5 -205v-506h-267v526q0 128 -59 187q-55 55 -149 55q-77 0 -142.5 -38.5t-99.5 -84.5v-645h-266z" />
<glyph unicode="o" horiz-adv-x="1200" d="M72 496q0 142 68.5 260.5t190 188t269.5 69.5t269.5 -69.5t190 -188t68.5 -260.5t-68.5 -260t-190 -187t-269.5 -69t-269.5 69t-190 187t-68.5 260zM338 496q0 -115 73.5 -193t188.5 -78t188.5 78t73.5 193t-73.5 193.5t-188.5 78.5t-188.5 -78.5t-73.5 -193.5z" />
<glyph unicode="p" d="M154 -492v1485h256v-80q125 101 290 101q133 0 245 -68t177.5 -187t65.5 -263q0 -205 -125 -349q-67 -77 -167.5 -122t-209.5 -45q-148 0 -266 90v-562h-266zM420 348q39 -57 102 -90t137 -33q113 0 188 77t75 194q0 111 -71.5 191.5t-184.5 80.5q-75 0 -139.5 -33 t-106.5 -90v-297z" />
<glyph unicode="q" d="M72 496q0 219 142 368.5t345 149.5q166 0 291 -101v80h256v-1485h-266v562q-118 -90 -267 -90q-109 0 -209 45t-167 122q-125 144 -125 349zM338 496q0 -117 74.5 -194t187.5 -77q74 0 137.5 33.5t102.5 89.5v297q-42 57 -106.5 90t-139.5 33q-113 0 -184.5 -80.5 t-71.5 -191.5z" />
<glyph unicode="r" horiz-adv-x="839" d="M154 0v993h256v-100q45 56 121.5 88.5t166.5 32.5q32 0 90 -8l-30 -248q-30 10 -96 10q-80 0 -146 -45t-96 -98v-625h-266z" />
<glyph unicode="s" horiz-adv-x="942" d="M55 113l129 190q51 -46 124.5 -72t148.5 -26q54 0 90.5 23.5t36.5 60.5q0 27 -20.5 48t-54.5 35t-77.5 30.5t-88.5 31t-88.5 39t-77.5 54t-54.5 75.5t-20.5 103q0 137 113.5 223t267.5 86q93 0 188.5 -30t147.5 -71l-125 -192q-92 67 -190 67q-58 0 -96.5 -21t-38.5 -58 q0 -26 26.5 -45.5t69 -34.5t94 -31.5t102.5 -41t93.5 -57.5t69 -87.5t26.5 -124.5q0 -92 -55.5 -163t-144.5 -107.5t-195 -36.5q-104 0 -208.5 34.5t-191.5 98.5z" />
<glyph unicode="t" horiz-adv-x="1013" d="M41 768v225h276v277h267v-277h327v-225h-327v-379q0 -87 32 -125q43 -49 136 -49q63 0 108 10l41 -225q-58 -20 -166 -20q-236 0 -344 143q-74 99 -74 297v348h-276z" />
<glyph unicode="u" horiz-adv-x="1249" d="M133 467v526h266v-536q0 -114 50 -170q56 -62 149 -62q75 0 134.5 38t96.5 85v645h267v-993h-256v80q-111 -100 -269 -100q-101 0 -189.5 42.5t-148.5 116.5q-100 124 -100 328z" />
<glyph unicode="v" horiz-adv-x="1138" d="M20 993h277l272 -606l273 606h276l-456 -993h-185z" />
<glyph unicode="w" horiz-adv-x="1744" d="M20 993h269l241 -579l250 579h185l247 -579l244 579h268l-417 -993h-185l-250 578l-249 -578h-185z" />
<glyph unicode="x" horiz-adv-x="1118" d="M10 0l381 530l-334 463h305l197 -282l197 282h305l-334 -463l381 -530h-315l-234 336l-233 -336h-316z" />
<glyph unicode="y" horiz-adv-x="1173" d="M20 993h293l291 -596l268 596h281l-684 -1485h-279l275 592z" />
<glyph unicode="z" horiz-adv-x="1085" d="M102 0v164l476 604h-435v225h799v-164l-481 -604h522v-225h-881z" />
<glyph unicode="{" horiz-adv-x="931" d="M102 430v164q185 0 185 139q0 53 -10.5 163t-10.5 171q0 181 109.5 274t310.5 93h62v-236h-80q-156 0 -156 -139q0 -49 10 -150t10 -157q0 -62 -12 -106t-36 -70t-45.5 -39t-55.5 -25q34 -12 55.5 -25t45.5 -39t36 -70t12 -106q0 -56 -10 -157t-10 -150q0 -139 156 -139 h80v-236h-62q-201 0 -310.5 93t-109.5 274q0 61 10.5 171t10.5 163q0 139 -185 139z" />
<glyph unicode="|" horiz-adv-x="491" d="M123 -410v1844h246v-1844h-246z" />
<glyph unicode="}" horiz-adv-x="931" d="M184 -174h80q156 0 156 139q0 49 -10.5 150t-10.5 157q0 62 12 106t36.5 70t46 39t55.5 25q-34 12 -55.5 25t-46 39t-36.5 70t-12 106q0 56 10.5 157t10.5 150q0 139 -156 139h-80v236h62q201 0 310.5 -93t109.5 -274q0 -61 -10.5 -171t-10.5 -163q0 -139 184 -139v-164 q-184 0 -184 -139q0 -53 10.5 -163t10.5 -171q0 -181 -109.5 -274t-310.5 -93h-62v236z" />
<glyph unicode="~" horiz-adv-x="1167" d="M41 440q14 66 41 124t68.5 105.5t102 75t132.5 27.5q67 0 129.5 -27t101.5 -59t82.5 -59t75.5 -27q50 0 85 45.5t48 116.5l219 -55q-14 -66 -41 -124t-68.5 -105.5t-102 -75t-132.5 -27.5q-67 0 -129.5 27t-101.5 59t-82.5 59t-75.5 27q-50 0 -85 -45.5t-48 -116.5z" />
<glyph unicode="&#xa1;" horiz-adv-x="768" d="M205 840q0 75 51.5 124.5t126.5 49.5q76 0 128 -50t52 -124q0 -75 -52.5 -125.5t-127.5 -50.5t-126.5 50.5t-51.5 125.5zM250 -51l41 522h184l41 -522v-441h-266v441z" />
<glyph unicode="&#xa2;" horiz-adv-x="1105" d="M72 496q0 180 109 317t284 182v234h246v-225q194 -38 313 -189l-188 -166q-41 55 -100.5 87t-129.5 32q-115 0 -191.5 -78.5t-76.5 -193.5q0 -118 76.5 -194.5t197.5 -76.5q76 0 139 38t99 93l205 -153q-135 -180 -344 -215v-224h-246v234q-175 41 -284 179t-109 319z " />
<glyph unicode="&#xa3;" horiz-adv-x="1085" d="M51 0v164q126 41 197 131.5t71 210.5q0 52 -10 98h-227v225h135q-41 97 -41 211q0 171 128 292.5t306 121.5q150 0 254 -75t152 -203l-232 -91q-20 53 -64 88t-102 35q-74 0 -125 -48t-51 -120q0 -76 58 -211h276v-225h-198q8 -58 8 -96q0 -142 -82 -262h561v-246h-1014z " />
<glyph unicode="&#xa4;" horiz-adv-x="1249" d="M82 350l164 162q-53 92 -53 207q0 113 53 205l-164 163l174 175l164 -164q92 53 205 53q114 0 206 -53l162 164l174 -175l-161 -163q51 -94 51 -205q0 -113 -51 -207l161 -162l-174 -174l-162 162q-94 -51 -206 -51q-111 0 -205 51l-164 -162zM459 719q0 -69 48.5 -117.5 t117.5 -48.5t117.5 48.5t48.5 117.5t-48.5 117.5t-117.5 48.5t-117.5 -48.5t-48.5 -117.5z" />
<glyph unicode="&#xa5;" horiz-adv-x="1280" d="M10 1434h316l315 -504l313 504h316l-277 -441h181v-225h-322l-64 -102h386v-226h-396v-440h-276v440h-396v226h386l-66 102h-320v225h179z" />
<glyph unicode="&#xa6;" horiz-adv-x="573" d="M164 389h246v-799h-246v799zM164 635v799h246v-799h-246z" />
<glyph unicode="&#xa7;" horiz-adv-x="1173" d="M72 543q0 181 143 305q-61 83 -61 203q0 93 40.5 170.5t107 127.5t151 77.5t174.5 27.5q233 0 415 -135l-143 -205q-44 41 -111.5 67.5t-136.5 26.5q-56 0 -104 -15t-82.5 -51.5t-34.5 -88.5q0 -46 37 -81.5t96.5 -60.5t131 -50t143 -59t131 -78t96.5 -117t37 -167 q0 -180 -144 -307q62 -89 62 -201q0 -93 -40.5 -170.5t-107 -127.5t-151 -77.5t-174.5 -27.5q-234 0 -416 135l143 205q44 -41 111.5 -67.5t136.5 -26.5q56 0 104 15t82.5 51.5t34.5 88.5q0 41 -29 74t-76 54t-107.5 45.5t-123 46t-123 57t-107.5 78t-76 109t-29 149.5z M348 547q0 -38 17.5 -69t45 -50.5t70.5 -38t82.5 -31t93.5 -31.5t93 -36q75 53 75 145q0 38 -18 68.5t-45 50t-70 38t-82.5 31t-93.5 31t-92 35.5q-76 -51 -76 -143z" />
<glyph unicode="&#xa8;" horiz-adv-x="1044" d="M143 1315q0 67 48 113.5t116 46.5t116 -46.5t48 -113.5t-48 -113.5t-116 -46.5t-116 46.5t-48 113.5zM573 1315q0 67 48 113.5t116 46.5t116 -46.5t48 -113.5t-48 -113.5t-116 -46.5t-116 46.5t-48 113.5z" />
<glyph unicode="&#xa9;" horiz-adv-x="1720" d="M143 717q0 145 57 278t153 229t229 153t278 57t278 -57t229 -153t153 -229t57 -278t-57 -278t-153 -229t-229 -153t-278 -57t-278 57t-229 153t-153 229t-57 278zM287 717q0 -156 76.5 -288t208.5 -209t288 -77t288 77t209 209t77 288t-77 288t-209 208.5t-288 76.5 q-117 0 -223 -45.5t-182.5 -122t-122 -182.5t-45.5 -223zM463 717q0 177 120 294t296 117q161 0 258 -94l-101 -121q-72 52 -155 52q-99 0 -169.5 -73t-70.5 -175q0 -103 71.5 -174.5t174.5 -71.5q102 0 176 74l104 -125q-46 -47 -121.5 -80t-156.5 -33q-180 0 -303 118 t-123 292z" />
<glyph unicode="&#xaa;" horiz-adv-x="851" d="M92 1126q0 138 90 233t219 95q105 0 177 -57v45h182v-631h-182v45q-69 -57 -175 -57q-66 0 -127.5 29t-103.5 77q-80 93 -80 221zM276 1126q0 -69 45.5 -116t112.5 -47q91 0 141 73v178q-53 76 -143 76q-68 0 -112 -48.5t-44 -115.5z" />
<glyph unicode="&#xab;" horiz-adv-x="1349" d="M143 434v144l258 317h293l-319 -389l319 -389h-293zM717 434v144l258 317h293l-320 -389l320 -389h-293z" />
<glyph unicode="&#xac;" horiz-adv-x="1126" d="M92 676v225h942v-655h-225v430h-717z" />
<glyph unicode="&#xad;" horiz-adv-x="962" d="M143 420v225h676v-225h-676z" />
<glyph unicode="&#xae;" horiz-adv-x="1720" d="M143 717q0 145 57 278t153 229t229 153t278 57t278 -57t229 -153t153 -229t57 -278t-57 -278t-153 -229t-229 -153t-278 -57t-278 57t-229 153t-153 229t-57 278zM287 717q0 -156 76.5 -288t208.5 -209t288 -77t288 77t209 209t77 288t-77 288t-209 208.5t-288 76.5 q-117 0 -223 -45.5t-182.5 -122t-122 -182.5t-45.5 -223zM584 326v784h278q130 0 197 -61q78 -68 78 -177q0 -119 -101 -180q-15 -11 -49 -22l236 -344h-195l-219 331h-47v-331h-178zM762 803h106q56 0 76 26q14 17 14 43q0 28 -14 46q-24 28 -76 28h-106v-143z" />
<glyph unicode="&#xaf;" horiz-adv-x="942" d="M143 1208v205h656v-205h-656z" />
<glyph unicode="&#xb0;" horiz-adv-x="880" d="M92 1106q0 145 101.5 246.5t246.5 101.5t246.5 -101.5t101.5 -246.5t-101.5 -246.5t-246.5 -101.5t-246.5 101.5t-101.5 246.5zM297 1106q0 -60 41.5 -101.5t101.5 -41.5t102 41.5t42 101.5t-42 101.5t-102 41.5t-101.5 -41.5t-41.5 -101.5z" />
<glyph unicode="&#xb1;" horiz-adv-x="1126" d="M92 61v226h942v-226h-942zM92 602v225h359v258h225v-258h358v-225h-358v-258h-225v258h-359z" />
<glyph unicode="&#xb2;" horiz-adv-x="649" d="M61 696v103l269 325q43 54 43 88q0 24 -14.5 41t-39.5 17q-46 0 -63 -53l-184 53q23 84 93.5 134t162.5 50q102 0 173.5 -65t71.5 -166q0 -97 -86 -203l-120 -150h221v-174h-527z" />
<glyph unicode="&#xb3;" horiz-adv-x="606" d="M0 776l121 123q44 -55 123 -55q40 0 70 25.5t30 66.5t-30.5 68.5t-73.5 27.5q-40 0 -80 -16v102l119 152h-234v164h471v-103l-123 -174q70 -29 111 -89t41 -132q0 -114 -87 -187t-208 -73q-150 0 -250 100z" />
<glyph unicode="&#xb4;" horiz-adv-x="716" d="M143 1147l144 328h286l-245 -328h-185z" />
<glyph unicode="&#xb5;" horiz-adv-x="1269" d="M154 -492v1485h266v-536q0 -115 49 -170q56 -62 149 -62q75 0 135 38t97 85v645h266v-993h-256v80q-111 -100 -268 -100q-99 0 -172 45v-517h-266z" />
<glyph unicode="&#xb6;" horiz-adv-x="1484" d="M51 993q0 119 61 221t162 160q52 31 117 45.5t168 14.5h834v-226h-205v-1618h-246v1618h-205v-1618h-245v963q-183 0 -312 128.5t-129 311.5zM297 993q0 -85 56 -146t139 -69v430q-83 -8 -139 -69t-56 -146z" />
<glyph unicode="&#xb7;" horiz-adv-x="768" d="M205 496q0 75 51.5 127.5t126.5 52.5t127.5 -52.5t52.5 -127.5t-52.5 -127t-127.5 -52t-126.5 52t-51.5 127z" />
<glyph unicode="&#xb8;" horiz-adv-x="634" d="M164 -307l133 327h195l-62 -327h-266z" />
<glyph unicode="&#xb9;" horiz-adv-x="532" d="M61 1108v199l246 127h123v-738h-205v496z" />
<glyph unicode="&#xba;" horiz-adv-x="851" d="M92 1126q0 138 92.5 233t241.5 95t241.5 -95t92.5 -233t-92.5 -232.5t-241.5 -94.5t-241.5 94.5t-92.5 232.5zM276 1126q0 -71 40.5 -117t109.5 -46t109 46t40 117t-40 117.5t-109 46.5t-109.5 -46.5t-40.5 -117.5z" />
<glyph unicode="&#xbb;" horiz-adv-x="1349" d="M82 117l319 389l-319 389h293l258 -317v-144l-258 -317h-293zM655 117l320 389l-320 389h293l258 -317v-144l-258 -317h-293z" />
<glyph unicode="&#xbc;" horiz-adv-x="1484" d="M133 1108v199l246 127h123v-738h-205v496zM205 0l837 1434h228l-838 -1434h-227zM727 143v103l377 491h123v-440h135v-154h-135v-143h-174v143h-326zM961 297h92v119z" />
<glyph unicode="&#xbd;" horiz-adv-x="1488" d="M133 1108v199l246 127h123v-738h-205v496zM205 0l837 1434h228l-838 -1434h-227zM901 0v102l268 326q43 54 43 88q0 24 -14 40.5t-39 16.5q-46 0 -63 -53l-185 53q23 84 93.5 134.5t162.5 50.5q102 0 174 -65.5t72 -166.5q0 -96 -86 -202l-121 -150h221v-174h-526z" />
<glyph unicode="&#xbe;" horiz-adv-x="1511" d="M0 776l121 123q44 -55 123 -55q40 0 70 25.5t30 66.5t-30.5 68.5t-73.5 27.5q-40 0 -80 -16v102l119 152h-234v164h471v-103l-123 -174q70 -29 111 -89t41 -132q0 -114 -87 -187t-208 -73q-150 0 -250 100zM176 0l838 1434h227l-838 -1434h-227zM698 143v103l377 491h123 v-440h135v-154h-135v-143h-174v143h-326zM932 297h92v119z" />
<glyph unicode="&#xbf;" horiz-adv-x="1024" d="M82 -143q0 71 24.5 131.5t60.5 100t79 76.5t79 62.5t60.5 55t24.5 57.5q0 39 -35 74l207 143q94 -110 94 -223q0 -62 -24.5 -115.5t-60.5 -88.5t-79 -70.5t-79 -62.5t-60.5 -62.5t-24.5 -73.5q0 -57 41 -92t107 -35q63 0 102.5 38t44.5 87l258 -68q-29 -129 -137 -216 t-268 -87q-174 0 -294 106t-120 263zM336 840q0 74 52 124t128 50q75 0 126.5 -49.5t51.5 -124.5t-51.5 -125.5t-126.5 -50.5t-127.5 50.5t-52.5 125.5z" />
<glyph unicode="&#xc0;" horiz-adv-x="1423" d="M0 0l614 1434h195l614 -1434h-288l-136 317h-575l-135 -317h-289zM373 1884h286l144 -328h-185zM528 563h365l-182 424z" />
<glyph unicode="&#xc1;" horiz-adv-x="1423" d="M0 0l614 1434h195l614 -1434h-288l-136 317h-575l-135 -317h-289zM528 563h365l-182 424zM618 1556l144 328h287l-246 -328h-185z" />
<glyph unicode="&#xc2;" horiz-adv-x="1423" d="M0 0l614 1434h195l614 -1434h-288l-136 317h-575l-135 -317h-289zM362 1556l205 328h287l205 -328h-185l-163 185l-164 -185h-185zM528 563h365l-182 424z" />
<glyph unicode="&#xc3;" horiz-adv-x="1423" d="M0 0l614 1434h195l614 -1434h-288l-136 317h-575l-135 -317h-289zM322 1610q0 116 60.5 195t166.5 79q52 0 110 -25.5t108.5 -51t86.5 -25.5q35 0 56 28.5t26 73.5l164 -33q0 -116 -61 -195t-167 -79q-52 0 -110 25.5t-108.5 51t-86.5 25.5q-35 0 -56 -28.5t-26 -73.5z M528 563h365l-182 424z" />
<glyph unicode="&#xc4;" horiz-adv-x="1423" d="M0 0l614 1434h195l614 -1434h-288l-136 317h-575l-135 -317h-289zM334 1724q0 67 48 113.5t116 46.5t116 -46.5t48 -113.5t-48 -113t-116 -46t-116 46t-48 113zM528 563h365l-182 424zM764 1724q0 67 48 113.5t116 46.5t116 -46.5t48 -113.5t-48 -113t-116 -46t-116 46 t-48 113z" />
<glyph unicode="&#xc5;" horiz-adv-x="1423" d="M0 0l614 1434h195l614 -1434h-288l-136 317h-575l-135 -317h-289zM485 1741q0 94 66 159.5t160 65.5t159.5 -65.5t65.5 -159.5t-65.5 -159.5t-159.5 -65.5t-160 65.5t-66 159.5zM528 563h365l-182 424zM649 1741q0 -26 18 -44t44 -18t43.5 18t17.5 44t-17.5 43.5 t-43.5 17.5t-44 -17.5t-18 -43.5z" />
<glyph unicode="&#xc6;" horiz-adv-x="1966" d="M-20 0l862 1434h1022v-246h-584v-297h461v-246h-461v-399h604v-246h-880v317h-525l-190 -317h-309zM627 563h377v627z" />
<glyph unicode="&#xc7;" horiz-adv-x="1464" d="M61 717q0 153 56 288.5t154.5 234.5t240 156.5t305.5 57.5q156 0 290 -54t234 -151l-178 -188q-147 147 -348 147q-133 0 -243 -65.5t-172 -178.5t-62 -247q0 -209 141 -350.5t348 -141.5q131 0 234 55t172 144l190 -170q-91 -114 -228.5 -186t-305.5 -84l-53 -291h-267 l121 297q-281 41 -455 244t-174 483z" />
<glyph unicode="&#xc8;" horiz-adv-x="1126" d="M164 0v1434h860v-246h-584v-297h441v-246h-441v-399h604v-246h-880zM281 1884h286l144 -328h-185z" />
<glyph unicode="&#xc9;" horiz-adv-x="1126" d="M164 0v1434h860v-246h-584v-297h441v-246h-441v-399h604v-246h-880zM492 1556l143 328h287l-246 -328h-184z" />
<glyph unicode="&#xca;" horiz-adv-x="1126" d="M164 0v1434h860v-246h-584v-297h441v-246h-441v-399h604v-246h-880zM256 1556l205 328h287l204 -328h-184l-164 185l-164 -185h-184z" />
<glyph unicode="&#xcb;" horiz-adv-x="1126" d="M164 0v1434h860v-246h-584v-297h441v-246h-441v-399h604v-246h-880zM217 1724q0 67 48 113.5t116 46.5t116 -46.5t48 -113.5t-48 -113t-116 -46t-116 46t-48 113zM647 1724q0 67 48 113.5t116 46.5t116 -46.5t48 -113.5t-48 -113t-116 -46t-116 46t-48 113z" />
<glyph unicode="&#xcc;" horiz-adv-x="604" d="M-31 1884h287l143 -328h-184zM164 0v1434h276v-1434h-276z" />
<glyph unicode="&#xcd;" horiz-adv-x="604" d="M164 0v1434h276v-1434h-276zM205 1556l143 328h287l-246 -328h-184z" />
<glyph unicode="&#xce;" horiz-adv-x="604" d="M-47 1556l205 328h286l205 -328h-184l-164 185l-164 -185h-184zM164 0v1434h276v-1434h-276z" />
<glyph unicode="&#xcf;" horiz-adv-x="604" d="M-78 1724q0 67 48 113.5t116 46.5t116 -46.5t48 -113.5t-48 -113t-116 -46t-116 46t-48 113zM164 0v1434h276v-1434h-276zM352 1724q0 67 48 113.5t116 46.5t116 -46.5t48 -113.5t-48 -113t-116 -46t-116 46t-48 113z" />
<glyph unicode="&#xd0;" horiz-adv-x="1495" d="M0 645v246h205v543h450q309 0 494 -136q133 -99 209 -251.5t76 -329.5t-76 -330t-209 -252q-184 -135 -494 -135h-450v645h-205zM481 246h205q239 0 367 160q104 129 104 311t-104 311q-128 160 -367 160h-205v-297h410v-246h-410v-399z" />
<glyph unicode="&#xd1;" horiz-adv-x="1597" d="M164 0v1434h194l799 -934v934h277v-1434h-195l-799 934v-934h-276zM399 1610q0 116 61 195t167 79q52 0 110 -25.5t108.5 -51t86.5 -25.5q35 0 56 28.5t26 73.5l164 -33q0 -116 -61 -195t-167 -79q-52 0 -110 25.5t-108.5 51t-86.5 25.5q-35 0 -56 -28.5t-26 -73.5z" />
<glyph unicode="&#xd2;" horiz-adv-x="1617" d="M61 717q0 152 55.5 287t152.5 234.5t237.5 157.5t302.5 58t302.5 -58t237.5 -157.5t152 -234.5t55 -287t-55 -287t-152 -234.5t-237.5 -157.5t-302.5 -58t-302.5 58t-237.5 157.5t-152.5 234.5t-55.5 287zM338 717q0 -134 61 -246.5t169.5 -179t240.5 -66.5t240.5 66.5 t169.5 179t61 246.5t-61 246.5t-169.5 178.5t-240.5 66t-240.5 -66t-169.5 -178.5t-61 -246.5zM471 1884h287l143 -328h-184z" />
<glyph unicode="&#xd3;" horiz-adv-x="1617" d="M61 717q0 152 55.5 287t152.5 234.5t237.5 157.5t302.5 58t302.5 -58t237.5 -157.5t152 -234.5t55 -287t-55 -287t-152 -234.5t-237.5 -157.5t-302.5 -58t-302.5 58t-237.5 157.5t-152.5 234.5t-55.5 287zM338 717q0 -134 61 -246.5t169.5 -179t240.5 -66.5t240.5 66.5 t169.5 179t61 246.5t-61 246.5t-169.5 178.5t-240.5 66t-240.5 -66t-169.5 -178.5t-61 -246.5zM717 1556l143 328h287l-246 -328h-184z" />
<glyph unicode="&#xd4;" horiz-adv-x="1617" d="M61 717q0 152 55.5 287t152.5 234.5t237.5 157.5t302.5 58t302.5 -58t237.5 -157.5t152 -234.5t55 -287t-55 -287t-152 -234.5t-237.5 -157.5t-302.5 -58t-302.5 58t-237.5 157.5t-152.5 234.5t-55.5 287zM338 717q0 -134 61 -246.5t169.5 -179t240.5 -66.5t240.5 66.5 t169.5 179t61 246.5t-61 246.5t-169.5 178.5t-240.5 66t-240.5 -66t-169.5 -178.5t-61 -246.5zM461 1556l205 328h286l205 -328h-184l-164 185l-164 -185h-184z" />
<glyph unicode="&#xd5;" horiz-adv-x="1617" d="M61 717q0 152 55.5 287t152.5 234.5t237.5 157.5t302.5 58t302.5 -58t237.5 -157.5t152 -234.5t55 -287t-55 -287t-152 -234.5t-237.5 -157.5t-302.5 -58t-302.5 58t-237.5 157.5t-152.5 234.5t-55.5 287zM338 717q0 -134 61 -246.5t169.5 -179t240.5 -66.5t240.5 66.5 t169.5 179t61 246.5t-61 246.5t-169.5 178.5t-240.5 66t-240.5 -66t-169.5 -178.5t-61 -246.5zM420 1610q0 116 60.5 195t166.5 79q52 0 110 -25.5t108.5 -51t86.5 -25.5q35 0 56 28.5t26 73.5l164 -33q0 -116 -60.5 -195t-166.5 -79q-52 0 -110 25.5t-108.5 51t-86.5 25.5 q-35 0 -56 -28.5t-26 -73.5z" />
<glyph unicode="&#xd6;" horiz-adv-x="1617" d="M61 717q0 152 55.5 287t152.5 234.5t237.5 157.5t302.5 58t302.5 -58t237.5 -157.5t152 -234.5t55 -287t-55 -287t-152 -234.5t-237.5 -157.5t-302.5 -58t-302.5 58t-237.5 157.5t-152.5 234.5t-55.5 287zM338 717q0 -134 61 -246.5t169.5 -179t240.5 -66.5t240.5 66.5 t169.5 179t61 246.5t-61 246.5t-169.5 178.5t-240.5 66t-240.5 -66t-169.5 -178.5t-61 -246.5zM430 1724q0 67 48 113.5t116 46.5t116 -46.5t48 -113.5t-48 -113t-116 -46t-116 46t-48 113zM860 1724q0 67 48 113.5t116 46.5t116 -46.5t48 -113.5t-48 -113t-116 -46t-116 46 t-48 113z" />
<glyph unicode="&#xd7;" horiz-adv-x="1085" d="M86 276l297 297l-297 297l160 160l297 -297l297 297l159 -160l-297 -297l297 -297l-159 -159l-297 297l-297 -297z" />
<glyph unicode="&#xd8;" horiz-adv-x="1617" d="M18 -20l215 253q-83 97 -127.5 221.5t-44.5 262.5q0 152 55.5 287t152.5 234.5t237.5 157.5t302.5 58q203 0 377 -94l76 94h335l-213 -256q172 -204 172 -481q0 -152 -55 -287t-152 -234.5t-237.5 -157.5t-302.5 -58q-205 0 -379 94l-78 -94h-334zM338 717 q0 -148 74 -271l604 713q-96 49 -207 49q-132 0 -240.5 -66t-169.5 -178.5t-61 -246.5zM600 274q96 -49 209 -49q132 0 240.5 66.5t169.5 179t61 246.5q0 144 -76 270z" />
<glyph unicode="&#xd9;" horiz-adv-x="1536" d="M154 604v830h276v-850q0 -179 94 -267q95 -92 244 -92t244 92q94 88 94 267v850h276v-830q0 -313 -184 -477q-82 -72 -194 -109.5t-236 -37.5t-236 37.5t-194 109.5q-184 164 -184 477zM432 1884h287l143 -328h-184z" />
<glyph unicode="&#xda;" horiz-adv-x="1536" d="M154 604v830h276v-850q0 -179 94 -267q95 -92 244 -92t244 92q94 88 94 267v850h276v-830q0 -313 -184 -477q-82 -72 -194 -109.5t-236 -37.5t-236 37.5t-194 109.5q-184 164 -184 477zM676 1556l143 328h287l-246 -328h-184z" />
<glyph unicode="&#xdb;" horiz-adv-x="1536" d="M154 604v830h276v-850q0 -179 94 -267q95 -92 244 -92t244 92q94 88 94 267v850h276v-830q0 -313 -184 -477q-82 -72 -194 -109.5t-236 -37.5t-236 37.5t-194 109.5q-184 164 -184 477zM420 1556l205 328h286l205 -328h-184l-164 185l-164 -185h-184z" />
<glyph unicode="&#xdc;" horiz-adv-x="1536" d="M154 604v830h276v-850q0 -179 94 -267q95 -92 244 -92t244 92q94 88 94 267v850h276v-830q0 -313 -184 -477q-82 -72 -194 -109.5t-236 -37.5t-236 37.5t-194 109.5q-184 164 -184 477zM389 1724q0 67 48 113.5t116 46.5t116 -46.5t48 -113.5t-48 -113t-116 -46t-116 46 t-48 113zM819 1724q0 67 48 113.5t116 46.5t116 -46.5t48 -113.5t-48 -113t-116 -46t-116 46t-48 113z" />
<glyph unicode="&#xdd;" horiz-adv-x="1280" d="M10 1434h316l315 -504l313 504h316l-492 -785v-649h-276v649zM547 1556l143 328h287l-246 -328h-184z" />
<glyph unicode="&#xde;" horiz-adv-x="1228" d="M164 0v1434h276v-287h262q133 0 221.5 -33.5t151.5 -99.5q54 -56 83.5 -132t29.5 -161t-29.5 -161t-83.5 -132q-125 -131 -373 -131h-262v-297h-276zM440 543h250q120 0 174 57q47 50 47 121q0 73 -47 123q-54 57 -174 57h-250v-358z" />
<glyph unicode="&#xdf;" horiz-adv-x="1239" d="M154 0v1034q0 52 6 96q17 117 80 199q60 77 151 121.5t199 44.5q186 0 313 -122.5t127 -297.5q0 -138 -88 -239q102 -57 163.5 -163.5t61.5 -228.5q0 -194 -134 -329t-328 -135q-127 0 -228 55l115 211q54 -21 96 -21q94 0 153.5 61.5t59.5 151.5q0 108 -80 172 q-63 49 -178 49h-68v246q86 0 134 45q55 52 55 127q0 71 -49.5 121.5t-122.5 50.5q-82 0 -131 -59q-41 -47 -41 -154v-1036h-266z" />
<glyph unicode="&#xe0;" d="M72 496q0 219 142 368.5t345 149.5q166 0 291 -101v80h256v-993h-256v80q-117 -100 -277 -100q-109 0 -208 45t-166 122q-127 147 -127 349zM338 496q0 -117 74.5 -194t187.5 -77q74 0 137.5 33.5t102.5 89.5v297q-42 57 -106.5 90t-139.5 33q-113 0 -184.5 -80.5 t-71.5 -191.5zM389 1475h287l143 -328h-184z" />
<glyph unicode="&#xe1;" d="M72 496q0 219 142 368.5t345 149.5q166 0 291 -101v80h256v-993h-256v80q-117 -100 -277 -100q-109 0 -208 45t-166 122q-127 147 -127 349zM338 496q0 -117 74.5 -194t187.5 -77q74 0 137.5 33.5t102.5 89.5v297q-42 57 -106.5 90t-139.5 33q-113 0 -184.5 -80.5 t-71.5 -191.5zM532 1147l144 328h287l-246 -328h-185z" />
<glyph unicode="&#xe2;" d="M72 496q0 219 142 368.5t345 149.5q166 0 291 -101v80h256v-993h-256v80q-117 -100 -277 -100q-109 0 -208 45t-166 122q-127 147 -127 349zM297 1147l205 328h286l205 -328h-184l-164 184l-164 -184h-184zM338 496q0 -117 74.5 -194t187.5 -77q74 0 137.5 33.5 t102.5 89.5v297q-42 57 -106.5 90t-139.5 33q-113 0 -184.5 -80.5t-71.5 -191.5z" />
<glyph unicode="&#xe3;" d="M72 496q0 219 142 368.5t345 149.5q166 0 291 -101v80h256v-993h-256v80q-117 -100 -277 -100q-109 0 -208 45t-166 122q-127 147 -127 349zM266 1200q0 116 61 195.5t167 79.5q41 0 87 -16t79 -35.5t71.5 -35.5t67.5 -16q35 0 56 29t26 74l163 -33q0 -116 -60.5 -195.5 t-166.5 -79.5q-41 0 -87 16t-79 35.5t-71.5 35.5t-67.5 16q-35 0 -56 -29t-26 -74zM338 496q0 -117 74.5 -194t187.5 -77q74 0 137.5 33.5t102.5 89.5v297q-42 57 -106.5 90t-139.5 33q-113 0 -184.5 -80.5t-71.5 -191.5z" />
<glyph unicode="&#xe4;" d="M72 496q0 219 142 368.5t345 149.5q166 0 291 -101v80h256v-993h-256v80q-117 -100 -277 -100q-109 0 -208 45t-166 122q-127 147 -127 349zM266 1315q0 67 48 113.5t116 46.5t116 -46.5t48 -113.5t-48 -113.5t-116 -46.5t-116 46.5t-48 113.5zM338 496q0 -117 74.5 -194 t187.5 -77q74 0 137.5 33.5t102.5 89.5v297q-42 57 -106.5 90t-139.5 33q-113 0 -184.5 -80.5t-71.5 -191.5zM696 1315q0 67 48 113.5t116 46.5t116 -46.5t48 -113.5t-48 -113.5t-116 -46.5t-116 46.5t-48 113.5z" />
<glyph unicode="&#xe5;" d="M72 496q0 219 142 368.5t345 149.5q166 0 291 -101v80h256v-993h-256v80q-117 -100 -277 -100q-109 0 -208 45t-166 122q-127 147 -127 349zM338 496q0 -117 74.5 -194t187.5 -77q74 0 137.5 33.5t102.5 89.5v297q-42 57 -106.5 90t-139.5 33q-113 0 -184.5 -80.5 t-71.5 -191.5zM440 1331q0 94 66 159.5t160 65.5t159.5 -65.5t65.5 -159.5t-65.5 -159.5t-159.5 -65.5t-160 65.5t-66 159.5zM604 1331q0 -26 18 -43.5t44 -17.5t43.5 17.5t17.5 43.5t-17.5 44t-43.5 18t-44 -18t-18 -44z" />
<glyph unicode="&#xe6;" horiz-adv-x="1886" d="M72 496q0 219 142 368.5t345 149.5q166 0 291 -101v80h235v-80q46 44 113 72.5t141 28.5q129 0 238.5 -68t173.5 -185t64 -255q0 -36 -7 -76h-708q10 -103 90.5 -169t187.5 -66q78 0 148.5 34.5t111.5 79.5l152 -151q-71 -85 -180.5 -131.5t-227.5 -46.5q-76 0 -158.5 28 t-138.5 72v-80h-235v80q-117 -100 -277 -100q-109 0 -208 45t-166 122q-127 147 -127 349zM338 496q0 -117 74.5 -194t187.5 -77q74 0 137.5 33.5t102.5 89.5v297q-42 57 -106.5 90t-139.5 33q-113 0 -184.5 -80.5t-71.5 -191.5zM1112 625h430q-10 73 -72 123.5t-139 50.5 q-78 0 -140 -48t-79 -126z" />
<glyph unicode="&#xe7;" horiz-adv-x="1105" d="M72 496q0 143 69.5 261.5t192.5 187.5t272 69q126 0 236.5 -54t181.5 -145l-188 -166q-41 55 -100.5 87t-129.5 32q-115 0 -191.5 -78.5t-76.5 -193.5q0 -118 76.5 -194.5t197.5 -76.5q76 0 139 38t99 93l205 -153q-142 -188 -353 -215l-55 -295h-266l119 297 q-189 32 -308.5 173.5t-119.5 332.5z" />
<glyph unicode="&#xe8;" horiz-adv-x="1095" d="M72 496q0 103 34.5 197t96 165.5t153 113.5t199.5 42q134 0 242 -69.5t167.5 -185.5t59.5 -253q0 -42 -6 -76h-688q10 -104 86 -169.5t182 -65.5q77 0 142.5 34t107.5 80l151 -151q-71 -85 -180 -131.5t-227 -46.5q-226 0 -373 143t-147 373zM240 1475h286l144 -328h-185 zM342 625h410q-6 69 -62 121.5t-135 52.5q-81 0 -142.5 -52t-70.5 -122z" />
<glyph unicode="&#xe9;" horiz-adv-x="1095" d="M72 496q0 103 34.5 197t96 165.5t153 113.5t199.5 42q134 0 242 -69.5t167.5 -185.5t59.5 -253q0 -42 -6 -76h-688q10 -104 86 -169.5t182 -65.5q77 0 142.5 34t107.5 80l151 -151q-71 -85 -180 -131.5t-227 -46.5q-226 0 -373 143t-147 373zM342 625h410 q-6 69 -62 121.5t-135 52.5q-81 0 -142.5 -52t-70.5 -122zM465 1147l143 328h287l-246 -328h-184z" />
<glyph unicode="&#xea;" horiz-adv-x="1095" d="M72 496q0 103 34.5 197t96 165.5t153 113.5t199.5 42q134 0 242 -69.5t167.5 -185.5t59.5 -253q0 -42 -6 -76h-688q10 -104 86 -169.5t182 -65.5q77 0 142.5 34t107.5 80l151 -151q-71 -85 -180 -131.5t-227 -46.5q-226 0 -373 143t-147 373zM219 1147l205 328h287 l204 -328h-184l-164 184l-164 -184h-184zM342 625h410q-6 69 -62 121.5t-135 52.5q-81 0 -142.5 -52t-70.5 -122z" />
<glyph unicode="&#xeb;" horiz-adv-x="1095" d="M72 496q0 103 34.5 197t96 165.5t153 113.5t199.5 42q134 0 242 -69.5t167.5 -185.5t59.5 -253q0 -42 -6 -76h-688q10 -104 86 -169.5t182 -65.5q77 0 142.5 34t107.5 80l151 -151q-71 -85 -180 -131.5t-227 -46.5q-226 0 -373 143t-147 373zM188 1315q0 67 48 113.5 t116 46.5t116 -46.5t48 -113.5t-48 -113.5t-116 -46.5t-116 46.5t-48 113.5zM342 625h410q-6 69 -62 121.5t-135 52.5q-81 0 -142.5 -52t-70.5 -122zM618 1315q0 67 48 113.5t116 46.5t116 -46.5t48 -113.5t-48 -113.5t-116 -46.5t-116 46.5t-48 113.5z" />
<glyph unicode="&#xec;" horiz-adv-x="573" d="M-31 1475h287l143 -328h-184zM154 0v993h266v-993h-266z" />
<glyph unicode="&#xed;" horiz-adv-x="573" d="M154 0v993h266v-993h-266zM174 1147l143 328h287l-246 -328h-184z" />
<glyph unicode="&#xee;" horiz-adv-x="573" d="M-61 1147l204 328h287l205 -328h-184l-164 184l-164 -184h-184zM154 0v993h266v-993h-266z" />
<glyph unicode="&#xef;" horiz-adv-x="573" d="M-90 1315q0 67 48 113.5t116 46.5t116 -46.5t48 -113.5t-48 -113.5t-116 -46.5t-116 46.5t-48 113.5zM154 0v993h266v-993h-266zM340 1315q0 67 48 113.5t116 46.5t116 -46.5t48 -113.5t-48 -113.5t-116 -46.5t-116 46.5t-48 113.5z" />
<glyph unicode="&#xf0;" horiz-adv-x="1200" d="M72 496q0 137 63 253t178.5 187t259.5 76l-75 104l-203 -115l-102 179l184 104l-119 170h309l31 -43l184 105l101 -181l-164 -94l227 -313q182 -250 182 -432q0 -105 -40 -200.5t-109.5 -164.5t-167 -110t-207.5 -41q-149 0 -271.5 68.5t-191.5 186.5t-69 261zM338 496 q0 -115 75 -193t191 -78q113 0 187.5 79.5t74.5 191.5q0 119 -75 211l-19 22q-58 39 -151 39q-126 0 -204.5 -76t-78.5 -196z" />
<glyph unicode="&#xf1;" horiz-adv-x="1269" d="M154 0v993h256v-80q126 101 280 101q101 0 191.5 -42.5t152.5 -117.5q52 -61 77.5 -143t25.5 -205v-506h-267v526q0 128 -59 187q-55 55 -149 55q-77 0 -142.5 -38.5t-99.5 -84.5v-645h-266zM246 1200q0 116 60.5 195.5t166.5 79.5q41 0 87 -16t79 -35.5t71.5 -35.5 t67.5 -16q35 0 56 29t26 74l164 -33q0 -116 -60.5 -195.5t-166.5 -79.5q-41 0 -87 16t-79 35.5t-71.5 35.5t-67.5 16q-35 0 -56 -29t-26 -74z" />
<glyph unicode="&#xf2;" horiz-adv-x="1200" d="M72 496q0 142 68.5 260.5t190 188t269.5 69.5t269.5 -69.5t190 -188t68.5 -260.5t-68.5 -260t-190 -187t-269.5 -69t-269.5 69t-190 187t-68.5 260zM262 1475h287l143 -328h-184zM338 496q0 -115 73.5 -193t188.5 -78t188.5 78t73.5 193t-73.5 193.5t-188.5 78.5 t-188.5 -78.5t-73.5 -193.5z" />
<glyph unicode="&#xf3;" horiz-adv-x="1200" d="M72 496q0 142 68.5 260.5t190 188t269.5 69.5t269.5 -69.5t190 -188t68.5 -260.5t-68.5 -260t-190 -187t-269.5 -69t-269.5 69t-190 187t-68.5 260zM338 496q0 -115 73.5 -193t188.5 -78t188.5 78t73.5 193t-73.5 193.5t-188.5 78.5t-188.5 -78.5t-73.5 -193.5zM508 1147 l143 328h287l-246 -328h-184z" />
<glyph unicode="&#xf4;" horiz-adv-x="1200" d="M72 496q0 142 68.5 260.5t190 188t269.5 69.5t269.5 -69.5t190 -188t68.5 -260.5t-68.5 -260t-190 -187t-269.5 -69t-269.5 69t-190 187t-68.5 260zM252 1147l205 328h286l205 -328h-184l-164 184l-164 -184h-184zM338 496q0 -115 73.5 -193t188.5 -78t188.5 78t73.5 193 t-73.5 193.5t-188.5 78.5t-188.5 -78.5t-73.5 -193.5z" />
<glyph unicode="&#xf5;" horiz-adv-x="1200" d="M72 496q0 142 68.5 260.5t190 188t269.5 69.5t269.5 -69.5t190 -188t68.5 -260.5t-68.5 -260t-190 -187t-269.5 -69t-269.5 69t-190 187t-68.5 260zM211 1200q0 116 60.5 195.5t166.5 79.5q41 0 87 -16t79 -35.5t71.5 -35.5t67.5 -16q35 0 56 29t26 74l164 -33 q0 -116 -60.5 -195.5t-166.5 -79.5q-41 0 -87 16t-79 35.5t-71.5 35.5t-67.5 16q-35 0 -56 -29t-26 -74zM338 496q0 -115 73.5 -193t188.5 -78t188.5 78t73.5 193t-73.5 193.5t-188.5 78.5t-188.5 -78.5t-73.5 -193.5z" />
<glyph unicode="&#xf6;" horiz-adv-x="1200" d="M72 496q0 142 68.5 260.5t190 188t269.5 69.5t269.5 -69.5t190 -188t68.5 -260.5t-68.5 -260t-190 -187t-269.5 -69t-269.5 69t-190 187t-68.5 260zM221 1315q0 67 48 113.5t116 46.5t116 -46.5t48 -113.5t-48 -113.5t-116 -46.5t-116 46.5t-48 113.5zM338 496 q0 -115 73.5 -193t188.5 -78t188.5 78t73.5 193t-73.5 193.5t-188.5 78.5t-188.5 -78.5t-73.5 -193.5zM651 1315q0 67 48 113.5t116 46.5t116 -46.5t48 -113.5t-48 -113.5t-116 -46.5t-116 46.5t-48 113.5z" />
<glyph unicode="&#xf7;" horiz-adv-x="1126" d="M92 461v225h942v-225h-942zM410 211q0 63 45 106t108 43t108.5 -43t45.5 -106t-45.5 -106.5t-108.5 -43.5t-108 43.5t-45 106.5zM410 936q0 63 45 106t108 43t108.5 -43t45.5 -106t-45.5 -106.5t-108.5 -43.5t-108 43.5t-45 106.5z" />
<glyph unicode="&#xf8;" horiz-adv-x="1200" d="M12 -20l166 200q-106 134 -106 316q0 142 68.5 260.5t190 188t269.5 69.5q132 0 248 -58l47 58h293l-168 -201q108 -140 108 -317q0 -142 -68.5 -260t-190 -187t-269.5 -69q-137 0 -248 57l-47 -57h-293zM338 496q0 -56 18 -103l308 367q-27 8 -64 8q-115 0 -188.5 -78.5 t-73.5 -193.5zM535 231q30 -6 65 -6q115 0 188.5 78t73.5 193q0 54 -18 104z" />
<glyph unicode="&#xf9;" horiz-adv-x="1249" d="M133 467v526h266v-536q0 -114 50 -170q56 -62 149 -62q75 0 134.5 38t96.5 85v645h267v-993h-256v80q-111 -100 -269 -100q-101 0 -189.5 42.5t-148.5 116.5q-100 124 -100 328zM287 1475h286l144 -328h-185z" />
<glyph unicode="&#xfa;" horiz-adv-x="1249" d="M133 467v526h266v-536q0 -114 50 -170q56 -62 149 -62q75 0 134.5 38t96.5 85v645h267v-993h-256v80q-111 -100 -269 -100q-101 0 -189.5 42.5t-148.5 116.5q-100 124 -100 328zM532 1147l144 328h287l-246 -328h-185z" />
<glyph unicode="&#xfb;" horiz-adv-x="1249" d="M133 467v526h266v-536q0 -114 50 -170q56 -62 149 -62q75 0 134.5 38t96.5 85v645h267v-993h-256v80q-111 -100 -269 -100q-101 0 -189.5 42.5t-148.5 116.5q-100 124 -100 328zM266 1147l205 328h287l205 -328h-185l-164 184l-163 -184h-185z" />
<glyph unicode="&#xfc;" horiz-adv-x="1249" d="M133 467v526h266v-536q0 -114 50 -170q56 -62 149 -62q75 0 134.5 38t96.5 85v645h267v-993h-256v80q-111 -100 -269 -100q-101 0 -189.5 42.5t-148.5 116.5q-100 124 -100 328zM236 1315q0 67 47.5 113.5t115.5 46.5t116 -46.5t48 -113.5t-48 -113.5t-116 -46.5 t-115.5 46.5t-47.5 113.5zM666 1315q0 67 47.5 113.5t115.5 46.5t116 -46.5t48 -113.5t-48 -113.5t-116 -46.5t-115.5 46.5t-47.5 113.5z" />
<glyph unicode="&#xfd;" horiz-adv-x="1173" d="M20 993h293l291 -596l268 596h281l-684 -1485h-279l275 592zM512 1147l143 328h287l-246 -328h-184z" />
<glyph unicode="&#xfe;" d="M154 -492v1946h266v-532q118 92 280 92q133 0 245 -68t177.5 -187t65.5 -263q0 -205 -125 -349q-67 -77 -167.5 -122t-209.5 -45q-148 0 -266 90v-562h-266zM420 348q39 -57 102 -90t137 -33q113 0 188 77t75 194q0 111 -71.5 191.5t-184.5 80.5q-75 0 -139.5 -33 t-106.5 -90v-297z" />
<glyph unicode="&#xff;" horiz-adv-x="1173" d="M20 993h293l291 -596l268 596h281l-684 -1485h-279l275 592zM215 1315q0 67 48 113.5t116 46.5t116 -46.5t48 -113.5t-48 -113.5t-116 -46.5t-116 46.5t-48 113.5zM645 1315q0 67 48 113.5t116 46.5t116 -46.5t48 -113.5t-48 -113.5t-116 -46.5t-116 46.5t-48 113.5z" />
<glyph unicode="&#x152;" horiz-adv-x="2242" d="M61 717q0 202 96 370.5t268 267.5t384 99q269 0 471 -162v142h860v-246h-584v-297h461v-246h-461v-399h605v-246h-881v141q-197 -161 -471 -161q-212 0 -384 99t-268 267.5t-96 370.5zM338 717q0 -134 61 -246.5t169.5 -179t240.5 -66.5t240.5 66.5t169.5 179t61 246.5 t-61 246.5t-169.5 178.5t-240.5 66t-240.5 -66t-169.5 -178.5t-61 -246.5z" />
<glyph unicode="&#x153;" horiz-adv-x="1886" d="M72 496q0 142 68.5 260.5t190 188t269.5 69.5q118 0 217.5 -47t169.5 -129q61 82 152.5 129t206.5 47q134 0 242 -69.5t167.5 -185.5t59.5 -253q0 -36 -7 -76h-688q10 -104 86.5 -169.5t182.5 -65.5q77 0 141.5 34t107.5 80l152 -151q-71 -85 -180.5 -131.5t-227.5 -46.5 q-125 0 -226 45.5t-167 130.5q-70 -81 -170.5 -128.5t-218.5 -47.5q-148 0 -269.5 69t-190 187t-68.5 260zM338 496q0 -115 73.5 -193t188.5 -78t188.5 78t73.5 193t-73.5 193.5t-188.5 78.5t-188.5 -78.5t-73.5 -193.5zM1133 625h409q-6 69 -61.5 121.5t-134.5 52.5 q-81 0 -142.5 -52t-70.5 -122z" />
<glyph unicode="&#x178;" horiz-adv-x="1280" d="M10 1434h316l315 -504l313 504h316l-492 -785v-649h-276v649zM262 1724q0 67 48 113.5t116 46.5t116 -46.5t48 -113.5t-48 -113t-116 -46t-116 46t-48 113zM692 1724q0 67 48 113.5t116 46.5t116 -46.5t48 -113.5t-48 -113t-116 -46t-116 46t-48 113z" />
<glyph unicode="&#x2c6;" horiz-adv-x="983" d="M143 1147l205 328h287l205 -328h-185l-163 184l-164 -184h-185z" />
<glyph unicode="&#x2dc;" horiz-adv-x="1064" d="M143 1200q0 116 61 195.5t167 79.5q41 0 87 -16t79 -35.5t71.5 -35.5t67.5 -16q35 0 56 29t26 74l164 -33q0 -116 -61 -195.5t-167 -79.5q-41 0 -87 16t-79 35.5t-71.5 35.5t-67.5 16q-35 0 -56 -29t-26 -74z" />
<glyph unicode="&#x2000;" horiz-adv-x="983" />
<glyph unicode="&#x2001;" horiz-adv-x="1966" />
<glyph unicode="&#x2002;" horiz-adv-x="983" />
<glyph unicode="&#x2003;" horiz-adv-x="1966" />
<glyph unicode="&#x2004;" horiz-adv-x="655" />
<glyph unicode="&#x2005;" horiz-adv-x="491" />
<glyph unicode="&#x2006;" horiz-adv-x="327" />
<glyph unicode="&#x2007;" horiz-adv-x="327" />
<glyph unicode="&#x2008;" horiz-adv-x="245" />
<glyph unicode="&#x2009;" horiz-adv-x="393" />
<glyph unicode="&#x200a;" horiz-adv-x="109" />
<glyph unicode="&#x2010;" horiz-adv-x="962" d="M143 420v225h676v-225h-676z" />
<glyph unicode="&#x2011;" horiz-adv-x="962" d="M143 420v225h676v-225h-676z" />
<glyph unicode="&#x2012;" horiz-adv-x="962" d="M143 420v225h676v-225h-676z" />
<glyph unicode="&#x2013;" horiz-adv-x="1064" d="M31 420v225h1003v-225h-1003z" />
<glyph unicode="&#x2014;" horiz-adv-x="1679" d="M31 420v225h1618v-225h-1618z" />
<glyph unicode="&#x2018;" horiz-adv-x="665" d="M102 829l246 605h195l-154 -605h-287z" />
<glyph unicode="&#x2019;" horiz-adv-x="665" d="M123 829l153 605h287l-246 -605h-194z" />
<glyph unicode="&#x201a;" horiz-adv-x="665" d="M123 -287l153 604h287l-246 -604h-194z" />
<glyph unicode="&#x201c;" horiz-adv-x="1157" d="M102 829l246 605h195l-154 -605h-287zM594 829l246 605h194l-153 -605h-287z" />
<glyph unicode="&#x201d;" horiz-adv-x="1157" d="M123 829l153 605h287l-246 -605h-194zM614 829l154 605h287l-246 -605h-195z" />
<glyph unicode="&#x201e;" horiz-adv-x="1157" d="M123 -287l153 604h287l-246 -604h-194zM614 -287l154 604h287l-246 -604h-195z" />
<glyph unicode="&#x2022;" horiz-adv-x="1228" d="M164 496q0 186 132 318t318 132t318.5 -132t132.5 -318t-132.5 -318.5t-318.5 -132.5t-318 132.5t-132 318.5z" />
<glyph unicode="&#x2026;" horiz-adv-x="2037" d="M225 154q0 75 51.5 125.5t126.5 50.5t128 -50.5t53 -125.5q0 -74 -52.5 -124t-128.5 -50q-75 0 -126.5 49.5t-51.5 124.5zM860 154q0 75 51.5 125.5t126.5 50.5t128 -50.5t53 -125.5q0 -74 -52.5 -124t-128.5 -50q-75 0 -126.5 49.5t-51.5 124.5zM1495 154 q0 75 51.5 125.5t126.5 50.5t127.5 -50.5t52.5 -125.5q0 -74 -52 -124t-128 -50q-75 0 -126.5 49.5t-51.5 124.5z" />
<glyph unicode="&#x202f;" horiz-adv-x="393" />
<glyph unicode="&#x2039;" horiz-adv-x="776" d="M143 434v144l258 317h293l-319 -389l319 -389h-293z" />
<glyph unicode="&#x203a;" horiz-adv-x="776" d="M82 117l319 389l-319 389h293l258 -317v-144l-258 -317h-293z" />
<glyph unicode="&#x205f;" horiz-adv-x="491" />
<glyph unicode="&#x20ac;" horiz-adv-x="1331" d="M-10 440v226h143v102h-143v225h186q71 207 234 334t378 127q147 0 268 -63t208 -177l-199 -161q-107 155 -272 155q-104 0 -188.5 -57t-131.5 -158h481v-225h-542q-2 -16 -2 -51t2 -51h542v-226h-485q43 -101 129.5 -158t194.5 -57q100 0 180 49.5t133 137.5l205 -154 q-203 -278 -518 -278q-221 0 -385 124.5t-234 335.5h-184z" />
<glyph unicode="&#x2122;" horiz-adv-x="1802" d="M143 1270v164h588v-164h-205v-621h-178v621h-205zM831 649v785h111l305 -445l303 445h109v-785h-182v375l-187 -268h-90l-186 268v-375h-183z" />
<glyph unicode="&#x25fc;" horiz-adv-x="993" d="M0 0v993h993v-993h-993z" />
</font>
</defs>
</svg>
