<?xml version="1.0" encoding="UTF-8" standalone="no"?>
<!DOCTYPE svg  PUBLIC '-//W3C//DTD SVG 1.1//EN'  'http://www.w3.org/Graphics/SVG/1.1/DTD/svg11.dtd'>
<svg xmlns="http://www.w3.org/2000/svg">
<defs>
<font id="AkzidenzGroteskStd-Regular" horiz-adv-x="724">
<font-face underline-position="-50" font-weight="400" descent="-200" panose-1="2 0 5 3 3 0 0 2 0 3" units-per-em="1000" unicode-range="U+0020-25CA" bbox="-123 -233 1225 943" x-height="471" underline-thickness="50" font-family="AkzidenzGroteskStd" ascent="800" cap-height="706"/>
<missing-glyph horiz-adv-x="1000"/>
<glyph glyph-name=".notdef" horiz-adv-x="1000"/>
<glyph glyph-name=".null" horiz-adv-x="0"/>
<glyph glyph-name="nonmarkingreturn" horiz-adv-x="333"/>
<glyph glyph-name="space" horiz-adv-x="271" unicode=" "/>
<glyph glyph-name="exclam" horiz-adv-x="271" unicode="!" d="M194 0h-79v90h79v-90zM115 706h79v-288l-24 -271h-31l-24 282v277z"/>
<glyph glyph-name="quotedbl" horiz-adv-x="347" unicode='&quot;' d="M133 743l-28 -294h-32l-29 294h89zM302 743l-28 -294h-31l-29 294h88z"/>
<glyph glyph-name="numbersign" horiz-adv-x="667" unicode="#" d="M397 414h-111l-16 -108h112zM625 414h-148l-16 -108h139v-77h-150l-33 -229h-79l33 229h-111l-33 -229h-81l35 229h-139v77h149l16 108h-142v77h152l31 214h80l-31 -214h110l32 214h78l-30 -214h138v-77z"/>
<glyph glyph-name="dollar" horiz-adv-x="625" unicode="$" d="M354 295v-237q54 0 98 30t44 84q0 44 -33 71.5t-109 51.5zM287 422v220q-47 -2 -84.5 -31.5t-37.5 -78.5q0 -26 11 -45t31.5 -31.5t37.5 -19.5t42 -14zM287 -137v119q-97 14 -158 55q-84 57 -109 167l102 11q13 -60 55 -101t110 -53v253q-32 9 -57 18t-58 27t-55 38.5 t-37.5 53t-15.5 70.5q0 48 22 86t57 60t71.5 34t72.5 15v110h67v-111q33 -5 65 -16t65.5 -32t60 -57t37.5 -83l-93 -9q-15 48 -49.5 81t-85.5 40v-236q34 -10 58.5 -18t63 -27t63 -40.5t43 -56t18.5 -74.5q0 -88 -72 -146.5t-166 -58.5h-8v-119h-67z"/>
<glyph glyph-name="percent" horiz-adv-x="896" unicode="%" d="M784 217q0 55 -10.5 93.5t-28 54.5t-32 22t-29.5 6q-48 0 -72 -47t-24 -121q0 -22 2 -42t10 -55.5t30 -57t56 -21.5q44 0 71 40t27 128zM522 219q0 54 14 103.5t53 88.5t96 39q68 0 116 -61t48 -171q0 -36 -7 -72t-24 -72.5t-51 -59.5t-81 -23q-76 0 -120 63.5t-44 164.5 zM288 450q0 55 -10.5 93.5t-28 54.5t-32 22t-29.5 6q-48 0 -72 -47t-24 -121q0 -22 2 -42t10 -55.5t30 -57t56 -21.5q44 0 71 40t27 128zM26 452q0 54 14 103.5t53 88.5t96 39q68 0 116 -61t48 -171q0 -36 -7 -72t-24 -72.5t-51 -59.5t-81 -23q-76 0 -120 63.5t-44 164.5z M620 656l-317 -685l-55 26l318 685z"/>
<glyph glyph-name="ampersand" horiz-adv-x="604" unicode="&amp;" d="M362 121q-3 4 -70 115q-44 75 -56 101q-62 -27 -87.5 -67t-25.5 -75q0 -49 34 -87.5t90 -38.5q58 0 115 52zM283 443q57 25 84 59t27 68q0 29 -18.5 49.5t-48.5 20.5q-26 0 -51.5 -21.5t-25.5 -65.5q0 -43 33 -110zM467 325h77q-14 -95 -76 -197q37 -52 97 -52q9 0 28 3 v-83q-21 -4 -38 -4q-83 0 -146 72q-81 -73 -178 -73q-29 0 -60.5 10.5t-62.5 32t-50.5 61t-19.5 90.5q0 44 14.5 80.5t42.5 63.5t51 42.5t57 34.5q-2 4 -7 18t-7 19t-6 17t-5.5 18.5t-3.5 17t-3 20.5t-1 20q0 70 44.5 117.5t113.5 47.5q61 0 103 -40t42 -101q0 -87 -96 -153 q-11 -8 -57 -34q31 -68 100 -178q30 57 47 130z"/>
<glyph glyph-name="quotesingle" horiz-adv-x="177" unicode="&apos;" d="M133 743l-28 -294h-32l-29 294h89z"/>
<glyph glyph-name="parenleft" horiz-adv-x="315" unicode="(" d="M319 -117l-32 -46q-118 88 -182.5 213t-64.5 271q0 141 62 268.5t182 208.5l33 -40q-94 -82 -139 -187t-45 -243q0 -137 50 -257t136 -188z"/>
<glyph glyph-name="parenright" horiz-adv-x="319" unicode=")" d="M4 755l33 46q119 -87 182.5 -213t63.5 -271q0 -144 -64.5 -272t-180.5 -205l-33 39q185 163 185 432q0 138 -50 257.5t-136 186.5z"/>
<glyph glyph-name="asterisk" horiz-adv-x="349" unicode="*" d="M323 583l-104 -37l63 -83l-48 -37l-66 85l-59 -85l-50 36l59 85l-100 28l17 57l102 -27v103h62v-105l103 34z"/>
<glyph glyph-name="plus" d="M631 262h-225v-229h-88v229h-224v78h224v228h88v-228h225v-78z" unicode="+"/>
<glyph glyph-name="comma" horiz-adv-x="229" unicode="," d="M63 109h99v-60q0 -113 -41 -205h-47q33 95 33 156h-44v109z"/>
<glyph glyph-name="hyphen" horiz-adv-x="370" unicode="-" d="M325 262h-280v76h280v-76z"/>
<glyph glyph-name="period" horiz-adv-x="229" unicode="." d="M163 0h-99v113h99v-113z"/>
<glyph glyph-name="slash" horiz-adv-x="333" unicode="/" d="M321 702l-231 -702h-77l233 702h75z"/>
<glyph glyph-name="zero" horiz-adv-x="583" unicode="0" d="M138 330q0 -117 40 -187.5t115 -70.5q46 0 78 27t47 71.5t21 85t6 82.5q0 25 -2 50.5t-10.5 66.5t-23.5 71t-45.5 52.5t-70.5 22.5q-155 0 -155 -271zM49 334q0 153 64.5 249.5t176.5 96.5q106 0 175.5 -92t69.5 -248q0 -155 -64 -250.5t-180 -95.5q-42 0 -82 17 t-77 53.5t-60 106t-23 163.5z"/>
<glyph glyph-name="one" horiz-adv-x="583" unicode="1" d="M357 0h-94v493h-145v62q114 0 151 59q17 26 21 60h67v-674z"/>
<glyph glyph-name="two" horiz-adv-x="583" unicode="2" d="M520 0h-441v85q96 51 209 157q61 56 96 110.5t35 120.5q0 60 -33.5 94.5t-93.5 34.5q-67 0 -97 -37t-30 -96q0 -32 12 -80h-88q-12 41 -12 80q0 103 63 159q59 52 155 52q86 0 145 -50q72 -60 72 -163q0 -145 -166 -282q-72 -58 -149 -108h323v-77z"/>
<glyph glyph-name="three" horiz-adv-x="583" unicode="3" d="M40 223h90q5 -73 37 -111t121 -38q14 0 26.5 1t36.5 7.5t40.5 18t30 36t13.5 58.5q0 113 -148 113q-36 0 -66 -3v81q28 -2 51 -2q147 0 147 108q0 55 -42 84.5t-94 29.5q-73 0 -108 -56q-19 -31 -23 -102l-89 4q3 58 13 89q12 37 34 64.5t44.5 41.5t50.5 22t45 9.5 t34 1.5q104 0 164.5 -53t60.5 -135q0 -99 -82 -143q43 -17 72.5 -58t29.5 -103q0 -76 -52 -129q-64 -65 -182 -65q-51 0 -95 12.5t-81 38.5t-58 71.5t-21 106.5z"/>
<glyph glyph-name="four" horiz-adv-x="583" unicode="4" d="M133 238h214l4 302zM532 162h-98v-162h-87v162h-305v81l322 431h70v-436h98v-76z"/>
<glyph glyph-name="five" horiz-adv-x="583" unicode="5" d="M72 307l22 367h383v-79h-315l-9 -177q62 54 149 54q105 0 164 -70.5t59 -165.5q0 -99 -63 -170.5t-175 -71.5q-53 0 -95.5 15.5t-68.5 41t-40.5 48.5t-23.5 47q-8 25 -12 64l89 6q8 -60 43.5 -102.5t104.5 -42.5q21 0 42.5 6.5t47 22.5t42 52t16.5 87q0 68 -37.5 111.5 t-108.5 43.5q-92 0 -133 -87h-81z"/>
<glyph glyph-name="six" horiz-adv-x="583" unicode="6" d="M162 220q0 -63 40.5 -104.5t102.5 -41.5q60 0 97 42.5t37 102.5q0 21 -6.5 44t-20.5 47t-42.5 39t-67.5 15q-71 0 -105.5 -46t-34.5 -98zM509 506l-87 -12q-7 49 -37.5 79.5t-79.5 30.5q-44 0 -76 -21.5t-49 -58t-24.5 -76.5t-7.5 -85q22 33 65.5 57.5t101.5 24.5 q50 0 96.5 -21.5t81 -73t34.5 -122.5q0 -39 -12.5 -77.5t-37.5 -75t-70 -59t-104 -22.5q-54 0 -104 24.5t-83 75.5q-30 46 -42 100t-12 135q0 73 13 133.5t40.5 110.5t75.5 78.5t113 28.5q166 0 205 -174z"/>
<glyph glyph-name="seven" horiz-adv-x="583" unicode="7" d="M96 466v208h413v-97q0 -9 -1 -17t-2 -13t-5.5 -14t-6.5 -13.5t-11 -19t-13 -22.5l-35 -61q-139 -241 -161 -417h-106q23 179 204 461l30 47q22 35 27.5 48.5t5.5 37.5h-267v-128h-72z"/>
<glyph glyph-name="eight" horiz-adv-x="583" unicode="8" d="M143 202q0 -45 25.5 -75t57.5 -40.5t68 -10.5q25 0 48.5 6t46.5 19t37 39t14 61q0 65 -43.5 93t-107.5 28q-78 0 -112 -36.5t-34 -83.5zM424 507q0 37 -32.5 66.5t-103.5 29.5q-56 0 -93 -24.5t-37 -75.5q0 -41 28.5 -73.5t105.5 -32.5q132 0 132 110zM438 362 q19 -12 30 -20.5t29 -28t27 -47t9 -63.5q0 -87 -61 -148t-180 -61q-62 0 -110 18.5t-75 49.5t-41 66.5t-14 72.5q0 51 24 94.5t68 66.5q-75 50 -75 139q0 86 57.5 132.5t166.5 46.5q58 0 101.5 -14.5t65.5 -34t35 -46.5t16 -45.5t3 -38.5q0 -94 -76 -139z"/>
<glyph glyph-name="nine" horiz-adv-x="583" unicode="9" d="M430 435q0 68 -40 117.5t-111 49.5q-40 0 -69 -16.5t-43 -43.5t-20 -52.5t-6 -50.5q0 -69 41 -105t100 -36q73 0 110.5 42t37.5 95zM73 162l87 16q23 -108 121 -108q55 0 92 36q33 32 49.5 89t16.5 109q-67 -86 -167 -86q-98 0 -159 63.5t-61 162.5q0 42 12.5 81t38 74 t71.5 56.5t106 21.5q123 0 184 -87.5t61 -248.5q0 -172 -75 -270q-59 -77 -175 -77q-85 0 -136 50t-66 118z"/>
<glyph glyph-name="colon" horiz-adv-x="271" unicode=":" d="M205 0h-99v113h99v-113zM205 377h-99v112h99v-112z"/>
<glyph glyph-name="semicolon" horiz-adv-x="271" unicode=";" d="M107 111h99v-61q0 -121 -39 -205h-45q25 78 25 155h-40v111zM206 380h-99v110h99v-110z"/>
<glyph glyph-name="less" d="M579 23l-465 234v89l465 235v-88l-384 -190l384 -189v-91z" unicode="&lt;"/>
<glyph glyph-name="equal" d="M625 163h-526v77h526v-77zM625 350h-526v78h526v-78z" unicode="="/>
<glyph glyph-name="greater" d="M609 256l-465 -235v89l384 189l-384 189v91l465 -233v-90z" unicode="&gt;"/>
<glyph glyph-name="question" horiz-adv-x="562" unicode="?" d="M340 0h-89v97h89v-97zM257 150v236h31q69 0 112 30t43 91q0 60 -44 95t-106 35q-73 0 -104 -45.5t-31 -104.5v-16h-87v18q0 92 61 157.5t164 65.5q94 0 162 -60.5t68 -155.5q0 -86 -54 -137.5t-136 -56.5v-152h-79z"/>
<glyph glyph-name="at" horiz-adv-x="896" unicode="@" d="M540 357q0 40 -22.5 68.5t-61.5 28.5q-61 0 -99.5 -71t-38.5 -145q0 -43 20 -73t60 -30q39 0 69 27t44.5 66.5t21.5 73t7 55.5zM580 495h68l-33 -150q-28 -126 -28 -172q0 -43 31 -43t65 41q41 48 63.5 115.5t22.5 134.5q0 111 -66 174t-178 63q-110 0 -203 -60 t-145 -157t-52 -206q0 -141 92 -222.5t235 -81.5q184 0 335 146l33 -41q-160 -160 -367 -160q-90 0 -174 35q-103 44 -156.5 127t-53.5 196q0 126 60 236t166.5 176t233.5 66q133 0 215.5 -77.5t82.5 -210.5q0 -74 -23 -146q-25 -77 -81.5 -142.5t-126.5 -65.5q-39 0 -61 23 t-22 63q-65 -85 -144 -85q-64 0 -97 47.5t-33 114.5q0 64 24.5 128t74.5 110t112 46q40 0 70 -22.5t45 -61.5z"/>
<glyph glyph-name="A" horiz-adv-x="646" unicode="A" d="M430 295l-103 295l-108 -295h211zM634 0h-99l-77 216h-269l-79 -216h-100l269 706h98z"/>
<glyph glyph-name="B" horiz-adv-x="688" unicode="B" d="M166 83h229q31 0 53 3.5t46 15t36.5 37t12.5 63.5q0 62 -39.5 94.5t-105.5 32.5h-232v-246zM166 409h209q145 0 145 111q0 47 -29 75t-92 28h-233v-214zM77 0v706h339q82 0 142.5 -48.5t60.5 -132.5q0 -54 -29.5 -96.5t-78.5 -56.5q129 -39 129 -177q0 -45 -15 -80.5 t-37.5 -56.5t-53 -34.5t-58.5 -18.5t-57 -5h-342z"/>
<glyph glyph-name="C" horiz-adv-x="764" unicode="C" d="M640 268l102 -12q-10 -47 -34 -92t-64.5 -87.5t-105.5 -68.5t-144 -26q-158 0 -251.5 102t-93.5 269t95.5 269t261.5 102q124 0 205 -56t117 -160l-95 -19q-21 67 -78.5 113.5t-149.5 46.5q-119 0 -185.5 -79.5t-66.5 -211.5q0 -145 70.5 -221t182.5 -76q88 0 153 52.5 t81 154.5z"/>
<glyph glyph-name="D" horiz-adv-x="708" unicode="D" d="M175 623v-541h167q108 0 164 71.5t56 199.5q0 122 -55.5 196t-169.5 74h-162zM78 706h280q133 0 216.5 -92t83.5 -262q0 -71 -16 -130t-51.5 -111t-101.5 -81.5t-158 -29.5h-253v706z"/>
<glyph glyph-name="E" horiz-adv-x="604" unicode="E" d="M577 0h-498v706h486v-83h-396v-218h344v-82h-344v-241h408v-82z"/>
<glyph glyph-name="F" horiz-adv-x="542" unicode="F" d="M531 622h-359v-208h334v-82h-334v-332h-94v706h453v-84z"/>
<glyph glyph-name="G" horiz-adv-x="812" unicode="G" d="M741 0h-82v99q-26 -44 -92 -80.5t-166 -36.5q-157 0 -254 101t-97 261q0 175 103 277.5t261 102.5q46 0 89.5 -10t88.5 -32t84 -63.5t65 -99.5l-98 -25q-22 72 -82 112t-144 40q-66 0 -117.5 -25t-82.5 -66.5t-47 -92.5t-16 -107q0 -143 75.5 -217t185.5 -74 q102 0 173 59.5t71 160.5v10h-246v79h328v-373z"/>
<glyph glyph-name="H" horiz-adv-x="729" unicode="H" d="M651 0h-95v323h-384v-323h-93v706h93v-300h384v300h95v-706z"/>
<glyph glyph-name="I" horiz-adv-x="229" unicode="I" d="M162 0h-95v706h95v-706z"/>
<glyph glyph-name="J" horiz-adv-x="375" unicode="J" d="M297 706v-519q0 -36 -1.5 -54t-10 -43t-26.5 -46q-53 -62 -154 -62q-44 0 -96 10v103q40 -20 93 -20q58 0 83 37q11 16 13.5 39.5t2.5 76.5v478h96z"/>
<glyph glyph-name="K" horiz-adv-x="625" unicode="K" d="M624 0h-115l-248 348l-100 -102v-246h-94v706h94v-345l335 345h116l-286 -292z"/>
<glyph glyph-name="L" horiz-adv-x="521" unicode="L" d="M504 0h-436v706h94v-622h342v-84z"/>
<glyph glyph-name="M" horiz-adv-x="812" unicode="M" d="M746 0h-94l13 592l-223 -592h-73l-219 583q10 -562 10 -583h-92v706h122l216 -579l218 579h122v-706z"/>
<glyph glyph-name="N" horiz-adv-x="708" unicode="N" d="M630 0h-85l-387 574q9 -560 9 -574h-89v706h89l382 -566q-4 544 -4 566h85v-706z"/>
<glyph glyph-name="O" horiz-adv-x="812" unicode="O" d="M153 353q0 -137 68.5 -217t187.5 -80q111 0 181 76.5t70 226.5q0 56 -13.5 105t-41.5 91.5t-79 67.5t-119 25q-67 0 -118 -25t-79.5 -68t-42.5 -93.5t-14 -108.5zM762 359q0 -54 -11.5 -105.5t-38.5 -101.5t-67.5 -87t-102.5 -60t-138 -23q-70 0 -132.5 23t-112.5 67.5 t-79 117t-29 164.5q0 93 30 166t80.5 116.5t113 65.5t132.5 22q160 0 257.5 -101.5t97.5 -263.5z"/>
<glyph glyph-name="P" horiz-adv-x="625" unicode="P" d="M167 383h227q58 0 92.5 32t34.5 94q0 59 -34 87.5t-92 28.5h-228v-242zM76 706h335q99 0 151 -55.5t52 -143.5q0 -53 -18.5 -98t-67 -77.5t-120.5 -32.5h-241v-299h-91v706z"/>
<glyph glyph-name="Q" horiz-adv-x="812" unicode="Q" d="M150 356q0 -55 14 -105.5t42.5 -95t80.5 -71t121 -26.5q66 0 116.5 25.5t79.5 69t43 93.5t14 105q0 127 -65.5 213.5t-190.5 86.5q-65 0 -115.5 -25.5t-80 -68.5t-44.5 -94t-15 -107zM806 34l-60 -70l-112 95q-104 -77 -231 -77q-154 0 -255 98t-101 273q0 71 21.5 135.5 t64 118t113.5 85.5t162 32q158 0 256 -99.5t98 -274.5q0 -120 -65 -222z"/>
<glyph glyph-name="R" horiz-adv-x="667" unicode="R" d="M170 379h208q154 0 154 121q0 60 -37 94t-104 34h-221v-249zM657 0h-112l-193 300h-182v-300h-92v706h318q106 0 167.5 -51.5t61.5 -154.5q0 -73 -38.5 -126t-127.5 -68z"/>
<glyph glyph-name="S" horiz-adv-x="667" unicode="S" d="M37 226l101 13q0 -10 1 -19t5.5 -29t12 -36t23 -35.5t36 -32.5t53 -22t72.5 -9q26 0 53 6t56.5 20t48 43.5t18.5 71.5q0 54 -34 79t-100 38l-64 13q-126 25 -187 70.5t-61 130.5q0 82 67 138q70 58 183 58q126 0 195 -53q43 -32 61.5 -69.5t28.5 -94.5l-95 -6 q0 15 -3.5 31.5t-15 38.5t-30 39t-53.5 29t-80 12q-38 0 -72 -9t-61.5 -35t-27.5 -67q0 -47 35.5 -70.5t105.5 -40.5l129 -31q20 -5 32.5 -8.5t44 -19t51 -34.5t36 -54t16.5 -79q0 -87 -59 -145q-78 -76 -223 -76q-117 0 -193 49q-93 60 -106 195z"/>
<glyph glyph-name="T" horiz-adv-x="542" unicode="T" d="M528 624h-211v-624h-94v624h-212v82h517v-82z"/>
<glyph glyph-name="U" horiz-adv-x="688" unicode="U" d="M76 706h94v-467q0 -79 40.5 -128t128.5 -49q93 0 135 53t42 137v454h95v-473q0 -105 -70 -178t-203 -73q-126 0 -194 68t-68 173v483z"/>
<glyph glyph-name="V" horiz-adv-x="604" unicode="V" d="M592 706l-249 -706h-93l-239 706h100l187 -590l194 590h100z"/>
<glyph glyph-name="W" horiz-adv-x="1021" unicode="W" d="M1003 706l-216 -706h-92l-186 585l-180 -585h-94l-217 706h99l167 -585l179 585h92l186 -585l165 585h97z"/>
<glyph glyph-name="X" horiz-adv-x="625" unicode="X" d="M605 0h-111l-183 287l-181 -287h-109l235 370l-222 336h112l165 -254l158 254h111l-216 -336z"/>
<glyph glyph-name="Y" horiz-adv-x="625" unicode="Y" d="M611 706l-254 -383v-323h-95v323l-248 383h111l186 -299l188 299h112z"/>
<glyph glyph-name="Z" horiz-adv-x="604" unicode="Z" d="M571 0h-553v92l436 528h-401v86h508v-88l-434 -533h444v-85z"/>
<glyph glyph-name="bracketleft" horiz-adv-x="277" unicode="[" d="M252 -144h-184v923h184v-59h-104v-805h104v-59z"/>
<glyph glyph-name="backslash" horiz-adv-x="333" unicode="\" d="M321 0h-75l-233 702h77z"/>
<glyph glyph-name="bracketright" horiz-adv-x="276" unicode="]" d="M207 -143h-184v59h104v805h-104v58h184v-922z"/>
<glyph glyph-name="asciicircum" d="M611 287h-91l-156 339l-157 -339h-94l204 419h91z" unicode="^"/>
<glyph glyph-name="underscore" horiz-adv-x="500" unicode="_" d="M510 -214h-520v75h520v-75z"/>
<glyph glyph-name="grave" horiz-adv-x="271" unicode="`" d="M201 521h-48l-83 144h89z"/>
<glyph glyph-name="a" horiz-adv-x="500" unicode="a" d="M347 230q-145 -23 -169 -34q-58 -23 -58 -72q0 -29 22.5 -49.5t66.5 -20.5q20 0 40.5 5t44 18.5t38.5 43.5t15 72v37zM346 282v16q0 19 -1 31t-6.5 32t-15.5 32.5t-31 22t-51 9.5q-49 0 -75.5 -24t-26.5 -68v-7l-83 5q0 11 2.5 25.5t13.5 38.5t29 43t53.5 33.5t82.5 14.5 q71 0 118 -28q46 -26 58.5 -62.5t12.5 -108.5v-166q0 -18 1.5 -27.5t10 -18.5t24.5 -9q6 0 24 4v-67q-27 -9 -51 -9q-33 0 -50 12q-13 10 -22 28t-10 30q-71 -77 -161 -77q-71 0 -115.5 37.5t-44.5 97.5q0 63 51 102q59 44 191 53z"/>
<glyph glyph-name="b" horiz-adv-x="562" unicode="b" d="M143 234q0 -72 36 -126.5t114 -54.5q58 0 102 44t44 146q0 80 -42 125t-104 45q-59 0 -104.5 -42.5t-45.5 -136.5zM65 706h80v-300q54 80 162 80q94 0 155.5 -67.5t61.5 -182.5q0 -110 -56.5 -180.5t-161.5 -70.5q-103 0 -161 76v-61h-80v706z"/>
<glyph glyph-name="c" horiz-adv-x="521" unicode="c" d="M408 178l86 -8q-35 -185 -222 -185q-109 0 -171 68.5t-62 178.5q0 111 59.5 182.5t169.5 71.5q97 0 151.5 -48.5t65.5 -109.5l-88 -8q-9 52 -42.5 80t-85.5 28q-61 0 -101.5 -45.5t-40.5 -145.5q0 -86 38 -138t109 -52q118 0 134 131z"/>
<glyph glyph-name="d" horiz-adv-x="562" unicode="d" d="M125 234q0 -73 34.5 -125.5t112.5 -52.5q61 0 104 43.5t43 142.5q0 74 -39.5 122.5t-105.5 48.5q-75 0 -112 -52t-37 -127zM497 0h-80v60q-64 -75 -161 -75q-101 0 -159 70t-58 182q0 65 20 115.5t52.5 78.5t69 41.5t74.5 13.5q57 0 101 -25t61 -52v297h80v-706z"/>
<glyph glyph-name="e" horiz-adv-x="521" unicode="e" d="M127 279h269q0 60 -38 102.5t-97 42.5q-60 0 -94 -41.5t-40 -103.5zM125 221v-6q0 -65 38 -117.5t115 -52.5q55 0 84.5 33.5t39.5 76.5l81 -11q-53 -159 -213 -159q-97 0 -164 62.5t-67 192.5q0 64 21.5 113.5t56 77t73 41.5t77.5 14q88 0 152 -62.5t64 -189.5v-13h-358z "/>
<glyph glyph-name="f" horiz-adv-x="271" unicode="f" d="M167 471h89v-66h-89v-405h-78v405h-78v66h78v41q0 94 12 124q25 65 112 65q26 0 58 -6v-63q-15 5 -44 5q-60 0 -60 -76v-90z"/>
<glyph glyph-name="g" horiz-adv-x="562" unicode="g" d="M417 242q0 80 -41 126t-107 46q-64 0 -105 -47t-41 -132q0 -79 37.5 -128.5t111.5 -49.5q73 0 109 51.5t36 133.5zM497 471v-480q0 -63 -18 -107.5t-50.5 -68t-69.5 -34t-82 -10.5q-87 0 -146.5 44.5t-67.5 130.5h90q0 -54 35.5 -82t94.5 -28q72 0 101.5 35.5t29.5 106.5 v91q-61 -84 -155 -84q-93 0 -155.5 66.5t-62.5 181.5q0 45 11 86.5t34.5 80.5t68.5 62.5t105 23.5q86 0 154 -79v64h83z"/>
<glyph glyph-name="h" horiz-adv-x="521" unicode="h" d="M458 0h-81v276q0 52 -9 78q-22 62 -95 62q-70 0 -105 -59q-22 -38 -22 -123v-234h-80v706h80v-283q58 63 143 63q169 0 169 -181v-305z"/>
<glyph glyph-name="i" horiz-adv-x="208" unicode="i" d="M146 0h-77v471h77v-471zM146 614h-77v92h77v-92z"/>
<glyph glyph-name="j" horiz-adv-x="208" unicode="j" d="M143 471v-575q0 -68 -25 -95q-28 -30 -81 -30q-33 0 -60 4v71q29 -3 36 -3q22 0 36 10q11 8 13.5 20.5t2.5 44.5v553h78zM143 613h-78v93h78v-93z"/>
<glyph glyph-name="k" horiz-adv-x="458" unicode="k" d="M472 0h-100l-169 226l-57 -60v-166h-81v706h81v-435l188 200h98l-175 -186z"/>
<glyph glyph-name="l" horiz-adv-x="208" unicode="l" d="M143 0h-76v706h76v-706z"/>
<glyph glyph-name="m" horiz-adv-x="771" unicode="m" d="M707 0h-79v314q0 55 -26.5 76t-59.5 21q-35 0 -69 -22.5t-44 -55.5q-6 -18 -6 -68v-265h-78v307q0 33 -9.5 55t-24.5 31.5t-27.5 13t-25.5 3.5q-33 0 -67 -20t-45 -50q-7 -18 -7 -60v-280h-75v471h75v-64q67 79 142 79q59 0 98 -44q9 -10 29 -43l18 18q18 18 27.5 25 t29 20t40 18.5t43.5 5.5q67 0 109 -52q32 -38 32 -123v-311z"/>
<glyph glyph-name="n" horiz-adv-x="521" unicode="n" d="M455 0h-79v309q0 51 -31 76.5t-76 25.5q-52 0 -88.5 -35.5t-36.5 -96.5v-279h-80v471h80v-69q19 33 56 58.5t92 25.5q16 0 35 -3.5t49.5 -19t49.5 -42.5q29 -41 29 -123v-298z"/>
<glyph glyph-name="o" horiz-adv-x="542" unicode="o" d="M127 231q0 -20 2.5 -40.5t11.5 -47.5t24 -46.5t42 -33.5t63 -14q71 0 108.5 52t37.5 145q0 72 -33 124t-106 52q-42 0 -72.5 -18t-45 -40t-22.5 -53.5t-9 -47t-1 -32.5zM40 235q0 27 5 55.5t20.5 65t40.5 64.5t69.5 47t102.5 19q91 0 157.5 -63.5t66.5 -182.5 q0 -122 -65.5 -188.5t-165.5 -66.5q-102 0 -166.5 66t-64.5 184z"/>
<glyph glyph-name="p" horiz-adv-x="562" unicode="p" d="M143 227q0 -80 39.5 -126t108.5 -46q73 0 111.5 49t38.5 133q0 88 -43.5 131t-101.5 43q-69 0 -111 -49t-42 -135zM65 471h78v-67q25 31 69 56.5t99 25.5q83 0 147.5 -65t64.5 -187q0 -44 -11.5 -85t-35.5 -79.5t-69 -61.5t-105 -23q-48 0 -91 18t-68 52v-279h-78v695z "/>
<glyph glyph-name="q" horiz-adv-x="562" unicode="q" d="M422 219q0 30 -6 59.5t-21 61.5t-46 51.5t-75 19.5q-147 0 -147 -182q0 -92 42 -135.5t105 -43.5q13 0 26.5 1.5t37 11t40.5 26t30.5 50.5t13.5 80zM497 -225h-81v281q-58 -71 -162 -71q-94 0 -154 62t-60 180q0 69 19.5 121.5t51.5 81t68.5 42.5t75.5 14q106 0 161 -85 v70h81v-696z"/>
<glyph glyph-name="r" horiz-adv-x="313" unicode="r" d="M65 471h80v-86q17 33 44 54q48 38 117 38v-86q-15 3 -31 3q-44 0 -77.5 -23.5t-45.5 -65.5q-7 -28 -7 -87v-218h-80v471z"/>
<glyph glyph-name="s" horiz-adv-x="479" unicode="s" d="M31 152l91 13q0 -55 26 -83q33 -36 106 -36q41 0 75 17.5t34 61.5q0 20 -8 34t-25.5 22t-30 11.5t-34.5 7.5l-46 9q-93 18 -130.5 51.5t-37.5 85.5q0 71 54.5 105.5t128.5 34.5q66 0 110 -25t66 -58q19 -29 25 -72l-86 -10q-1 32 -7 44q-11 23 -42 41.5t-77 18.5 q-45 0 -69 -21.5t-24 -47.5q0 -29 27 -44.5t87 -29.5l46 -11q76 -18 116.5 -48t40.5 -89q0 -67 -56 -108t-141 -41q-194 0 -219 167z"/>
<glyph glyph-name="t" horiz-adv-x="292" unicode="t" d="M174 405v-303q0 -25 8 -36t27 -11q20 0 50 11v-66q-56 -8 -76 -8q-55 0 -73 20t-18 65v328h-76v66h76v149h82v-149h85v-66h-85z"/>
<glyph glyph-name="u" horiz-adv-x="521" unicode="u" d="M454 0h-79v72q-26 -39 -69.5 -61.5t-90.5 -22.5q-88 0 -126 62q-24 40 -24 118v303h79v-268q0 -72 11 -95q23 -45 86 -45q75 0 112 54q23 34 23 113v241h78v-471z"/>
<glyph glyph-name="v" horiz-adv-x="437" unicode="v" d="M426 471l-170 -471h-72l-172 471h83l125 -361l124 361h82z"/>
<glyph glyph-name="w" horiz-adv-x="729" unicode="w" d="M719 471l-173 -471h-70l-113 351l-115 -351h-73l-164 471h86l118 -350l116 350h70l111 -350l123 350h84z"/>
<glyph glyph-name="x" horiz-adv-x="396" unicode="x" d="M387 0h-90l-100 168l-98 -168h-90l146 239l-139 232h92l94 -162l95 162h90l-142 -232z"/>
<glyph glyph-name="y" horiz-adv-x="437" unicode="y" d="M342 471h83l-198 -557q-30 -85 -59 -116t-88 -31q-35 0 -71 10v72q24 -8 53 -8q35 0 53.5 19.5t38.5 78.5l20 58l-160 474h85l118 -374z"/>
<glyph glyph-name="z" horiz-adv-x="417" unicode="z" d="M389 0h-376v66l271 336h-245v69h344v-64l-274 -341h280v-66z"/>
<glyph glyph-name="braceleft" horiz-adv-x="281" unicode="{" d="M268 -148h-40q-60 0 -93 29t-33 108v192q0 64 -16 83t-69 24v60q52 4 68.5 23.5t16.5 82.5v192q0 71 30.5 104t106.5 33h29v-58h-16q-46 0 -57.5 -20.5t-11.5 -74.5v-178q0 -62 -16.5 -89t-65.5 -46q46 -14 64 -43t18 -91v-196q0 -44 15.5 -60.5t59.5 -16.5h10v-58z"/>
<glyph glyph-name="bar" horiz-adv-x="236" unicode="|" d="M157 -143h-80v922h80v-922z"/>
<glyph glyph-name="braceright" horiz-adv-x="281" unicode="}" d="M12 782h44q57 0 90 -30.5t33 -108.5v-201q0 -52 16.5 -71.5t67.5 -23.5v-60q-51 -6 -67.5 -23.5t-16.5 -72.5v-197q0 -72 -28 -107t-103 -35h-36v58h19q43 0 55 21.5t12 74.5v176q0 62 16.5 89.5t64.5 46.5q-43 11 -62 41t-19 87v199q0 45 -15 62t-59 17h-12v58z"/>
<glyph glyph-name="asciitilde" d="M119 226l-45 61q38 54 74.5 77.5t83.5 23.5q41 0 133 -41l45 -20q58 -25 79 -25q55 0 117 73l45 -60q-86 -100 -158 -100q-47 0 -127 38l-35 17q-65 31 -104 31q-29 0 -47.5 -13t-54.5 -55z" unicode="~"/>
<glyph glyph-name="uni00A0" horiz-adv-x="271" unicode=" "/>
<glyph glyph-name="exclamdown" horiz-adv-x="271" unicode="¡" d="M156 0h-79v288l24 271h31l24 -282v-277zM156 616h-79v90h79v-90z"/>
<glyph glyph-name="cent" horiz-adv-x="500" unicode="¢" d="M231 54v365q-118 -33 -118 -182q0 -41 8.5 -75.5t36.5 -66.5t73 -41zM396 180l88 -8q-11 -53 -34.5 -91t-52.5 -56.5t-54.5 -27t-51.5 -9.5v-103h-60v103q-95 9 -149 80.5t-54 168.5q0 93 52.5 161.5t151.5 82.5v96h59v-95q25 -4 44.5 -10t48 -21.5t52 -47.5t38.5 -79 l-90 -8q-8 78 -93 101v-364q99 17 105 127z"/>
<glyph glyph-name="sterling" horiz-adv-x="667" unicode="£" d="M227 77q-42 17 -70 17q-32 0 -32 -24q0 -9 8.5 -16.5t23.5 -7.5q35 0 70 31zM560 178l93 -6q-3 -32 -12.5 -61.5t-28 -58.5t-51.5 -46.5t-76 -17.5q-19 0 -38.5 3t-33 6t-34 10.5t-28 11t-28.5 13.5t-24 11q-67 -58 -141 -58q-43 0 -77.5 24t-34.5 68q0 39 30 63t79 24 q47 0 100 -18q2 8 2 17q0 24 -13 58.5t-31 59.5h-177v65h131q-61 99 -61 168q0 96 79.5 153t182.5 57q65 0 115 -22t77.5 -57.5t41 -72.5t13.5 -73l-105 -10q1 10 1 19q0 21 -6.5 43t-22 46.5t-47 39.5t-74.5 15q-63 0 -105 -35t-42 -94q0 -26 8 -52t15.5 -40t27.5 -44 t26 -41h209v-65h-173q2 -5 6.5 -19t6 -19t4 -15t3.5 -19.5t1 -20.5q0 -33 -11 -76q1 0 11.5 -6t17 -9l19.5 -9t23.5 -9t25 -5.5t27.5 -2.5q46 0 72 30.5t27 76.5z"/>
<glyph glyph-name="currency" horiz-adv-x="663" unicode="¤" d="M508 338q0 77 -50 128.5t-126 51.5q-75 0 -126 -51t-51 -127q0 -77 51.5 -128t128.5 -51q73 0 123 51t50 126zM618 569l-75 -75q51 -76 51 -155q0 -82 -52 -156l75 -76l-56 -55l-75 76q-45 -30 -77.5 -41t-77.5 -11q-46 0 -79.5 11.5t-75.5 40.5l-76 -74l-55 55l76 74 q-52 73 -52 157q0 81 52 155l-74 74l55 55l74 -74q72 52 156 52q90 0 155 -52l75 75z"/>
<glyph glyph-name="yen" horiz-adv-x="625" unicode="¥" d="M611 677l-171 -247h112v-72h-159l-38 -52h197v-72h-195v-234h-94v234h-194v72h194l-32 51h-162v71h113l-168 249h112l185 -287l189 287h111z"/>
<glyph glyph-name="brokenbar" horiz-adv-x="252" unicode="¦" d="M167 -137h-82v401h82v-401zM167 383h-82v402h82v-402z"/>
<glyph glyph-name="section" horiz-adv-x="625" unicode="§" d="M275 456l-64 26q-32 -11 -57.5 -40.5t-25.5 -60.5q0 -40 38 -73q16 -14 52.5 -33.5t66 -33t76 -34t54.5 -24.5q35 13 61 41.5t26 63.5q0 19 -7.5 36t-24 31.5t-31.5 26t-41 23.5t-41.5 18.5t-44 17.5t-37.5 15zM540 698l-40 -71q-41 24 -66 36t-63.5 23.5t-75.5 11.5 q-24 0 -48 -6t-45 -22.5t-21 -41.5q0 -22 15.5 -38.5t28.5 -22t40 -15.5q116 -42 172 -69q71 -34 111.5 -76.5t40.5 -109.5q0 -48 -25.5 -90.5t-68.5 -66.5q50 -45 50 -100q0 -58 -54 -110t-151 -52q-101 0 -261 81l40 74q48 -34 108 -55t116 -21q40 0 71.5 17.5t31.5 56.5 q0 12 -4.5 22t-9.5 16.5t-17.5 14t-18 10t-22 9.5t-20.5 9q-3 1 -51.5 22t-69 31t-59 30t-63 38.5t-39.5 37.5q-35 43 -35 100q0 46 26.5 87.5t68.5 65.5q-42 42 -42 89q0 73 61 115.5t141 42.5q100 0 248 -73z"/>
<glyph glyph-name="dieresis" horiz-adv-x="271" unicode="¨" d="M80 541h-87v103h87v-103zM278 541h-89v103h89v-103z"/>
<glyph glyph-name="copyright" horiz-adv-x="840" unicode="©" d="M552 290l68 -14q-45 -157 -197 -157q-94 0 -151.5 62.5t-57.5 163.5q0 106 61 173.5t158 67.5q71 0 115 -33t68 -105l-67 -19q-21 52 -46.5 72t-70.5 20q-66 0 -105 -46.5t-39 -125.5q0 -75 37 -119t99 -44q50 0 80.5 25t47.5 79zM740 346q0 140 -92 234.5t-228 94.5 q-133 0 -226.5 -94.5t-93.5 -228.5t93 -227.5t227 -93.5q130 0 225 93.5t95 221.5zM776 360q0 -155 -102 -259t-255 -104q-148 0 -251.5 104t-103.5 252q0 149 104 252.5t253 103.5q146 0 250.5 -103t104.5 -246z"/>
<glyph glyph-name="ordfeminine" horiz-adv-x="313" unicode="ª" d="M211 543v17l-21 -3q-58 -8 -80 -20.5t-22 -36.5q0 -20 14.5 -29t34.5 -9q28 0 51 18.5t23 62.5zM298 475v-46q-15 -6 -29 -6q-39 0 -55 37q-37 -41 -92 -41q-38 0 -65 20t-27 59q0 28 12.5 47t39 29t55.5 14.5t74 7.5v11q0 34 -11 52t-45 18q-57 0 -57 -53v-6l-55 4 q12 96 111 96q47 0 77 -24t30 -75v-109q0 -40 22 -40q8 0 15 5z"/>
<glyph glyph-name="guillemotleft" horiz-adv-x="396" unicode="«" d="M177 137l-135 113v85l135 117v-91l-78 -68l78 -67v-89zM334 141l-134 113v83l134 116v-89l-80 -71l80 -66v-86z"/>
<glyph glyph-name="logicalnot" d="M636 6h-89v255h-477v80h566v-335z" unicode="¬"/>
<glyph glyph-name="uni00AD" horiz-adv-x="370" unicode="­" d="M325 262h-280v76h280v-76z"/>
<glyph glyph-name="registered" horiz-adv-x="840" unicode="®" d="M351 517v-139h57q48 0 70 16.5t22 53.5t-23 53t-76 16h-50zM281 578h130q83 0 121 -31t38 -98q0 -100 -96 -126l102 -195h-77l-95 189h-54v-189h-69v450zM740 346q0 140 -92 234.5t-228 94.5q-133 0 -226 -94.5t-93 -228.5t93 -227.5t226 -93.5q130 0 225 93.5t95 221.5z M776 360q0 -155 -102 -259t-255 -104q-148 0 -251.5 104t-103.5 252q0 149 104 252.5t253 103.5q146 0 250.5 -103t104.5 -246z"/>
<glyph glyph-name="macron" horiz-adv-x="271" unicode="¯" d="M278 541h-285v68h285v-68z"/>
<glyph glyph-name="degree" horiz-adv-x="354" unicode="°" d="M256 596q0 33 -23 56t-56 23t-56 -23t-23 -56q0 -32 23.5 -55.5t55.5 -23.5q33 0 56 23t23 56zM338 594q0 -67 -47 -114.5t-114 -47.5t-114 47.5t-47 114.5t47 114t114 47q68 0 114.5 -46.5t46.5 -114.5z"/>
<glyph glyph-name="plusminus" d="M630 0h-536v79h536v-79zM631 355h-225v-219h-88v219h-224v78h224v217h88v-217h225v-78z" unicode="±"/>
<glyph glyph-name="twosuperior" horiz-adv-x="375" unicode="²" d="M341 233h-297v61l10 6q51 31 105.5 76.5t81.5 87.5q29 44 29 82q0 37 -24 58.5t-61 21.5q-39 0 -58.5 -24.5t-19.5 -62.5q0 -16 8 -52h-65q-6 26 -6 53q0 66 40.5 104.5t106.5 38.5q62 0 103.5 -37.5t41.5 -100.5q0 -123 -204 -256h209v-56z"/>
<glyph glyph-name="threesuperior" horiz-adv-x="375" unicode="³" d="M21 376h67q0 -94 101 -94q49 0 70.5 21.5t21.5 54.5q0 71 -85 71h-43v59h34q10 0 20 1.5t26 7t26.5 20.5t10.5 37q0 35 -25.5 53.5t-58.5 18.5q-86 0 -86 -99v-5h-65v12q0 21 6 43.5t20.5 48t46.5 41.5t77 16q61 0 106.5 -33.5t45.5 -96.5q0 -69 -72 -91q86 -17 86 -105 q0 -52 -38.5 -92.5t-119.5 -40.5q-49 0 -84.5 14t-53.5 37.5t-26 48.5t-8 52z"/>
<glyph glyph-name="acute" horiz-adv-x="271" unicode="´" d="M199 666l-86 -144h-41l41 144h86z"/>
<glyph glyph-name="mu" horiz-adv-x="564" unicode="µ" d="M86 470h80v-236q0 -102 22 -134q29 -44 86 -44q68 0 98 68q17 38 17 130v216h80v-347q0 -40 7 -54t26 -14q12 0 28 7v-64q-28 -7 -43 -7q-41 0 -61.5 18.5t-26.5 61.5q-23 -44 -51.5 -63t-74.5 -19q-68 0 -109 59q4 -235 4 -264h-82v686z"/>
<glyph glyph-name="paragraph" horiz-adv-x="642" unicode="¶" d="M525 652h-33v-819h-57v819h-146v-819h-57v490q-72 8 -114 58t-42 128q0 90 55.5 143.5t157.5 53.5h236v-54z"/>
<glyph glyph-name="periodcentered" horiz-adv-x="200" unicode="·" d="M151 228h-102v124h102v-124z"/>
<glyph glyph-name="cedilla" horiz-adv-x="271" unicode="¸" d="M141 16l29 -7l-29 -52l24 -13q19 -10 28.5 -27.5t9.5 -33.5q0 -40 -36.5 -63t-85.5 -23h-5v23q3 -1 10 -1q17 0 29.5 10t12.5 27q0 9 -3.5 16t-11.5 12t-14 8t-17 7t-14 5z"/>
<glyph glyph-name="onesuperior" horiz-adv-x="375" unicode="¹" d="M233 233h-67v323h-86v45q45 3 70 18.5t33 60.5h50v-447z"/>
<glyph glyph-name="ordmasculine" horiz-adv-x="333" unicode="º" d="M250 567q0 41 -20.5 72.5t-63.5 31.5q-36 0 -59.5 -26t-23.5 -80q0 -40 19 -72t65 -32q37 0 60 25.5t23 80.5zM307 565q0 -65 -38 -106.5t-103 -41.5q-63 0 -101.5 41.5t-38.5 102.5q0 78 43 116.5t99 38.5q65 0 102 -44.5t37 -106.5z"/>
<glyph glyph-name="guillemotright" horiz-adv-x="396" unicode="»" d="M196 250l-134 -116v90l80 70l-80 67v85l134 -113v-83zM353 253l-135 -117v90l79 69l-79 66v89l135 -113v-84z"/>
<glyph glyph-name="onequarter" horiz-adv-x="875" unicode="¼" d="M233 233h-67v323h-86v45q45 3 70 18.5t33 60.5h50v-447zM728 356l-139 -191h137zM620 656l-317 -685l-55 26l318 685zM853 109h-65v-109h-63v109h-203v58l214 283h53v-285h64v-56z"/>
<glyph glyph-name="onehalf" horiz-adv-x="875" unicode="½" d="M233 233h-67v323h-86v45q45 3 70 18.5t33 60.5h50v-447zM596 656l-317 -685l-55 26l318 685zM841 0h-297v61l11 6q61 33 110 78.5t72 78.5q33 48 33 90q0 27 -19 53.5t-64 26.5q-39 0 -59.5 -24.5t-20.5 -63.5q0 -16 8 -51h-65q-6 26 -6 52q0 66 40 104.5t107 38.5 q62 0 103 -37t41 -101q0 -124 -203 -255h209v-57z"/>
<glyph glyph-name="threequarters" horiz-adv-x="875" unicode="¾" d="M21 376h67q0 -94 101 -94q49 0 70.5 21.5t21.5 54.5q0 71 -85 71h-43v59h34q10 0 20 1.5t26 7t26.5 20.5t10.5 37q0 35 -25.5 53.5t-58.5 18.5q-86 0 -86 -99v-5h-65v12q0 21 6 43.5t20.5 48t46.5 41.5t77 16q61 0 106.5 -33.5t45.5 -96.5q0 -69 -72 -91q86 -17 86 -105 q0 -52 -38.5 -92.5t-119.5 -40.5q-49 0 -84.5 14t-53.5 37.5t-26 48.5t-8 52zM728 356l-139 -191h137zM663 656l-317 -685l-55 26l318 685zM853 109h-65v-109h-63v109h-203v58l214 283h53v-285h64v-56z"/>
<glyph glyph-name="questiondown" horiz-adv-x="562" unicode="¿" d="M222 706h89v-97h-89v97zM306 556v-236h-31q-69 0 -112 -30t-43 -91q0 -60 44 -95t106 -35q73 0 104 45.5t31 104.5v16h87v-18q0 -92 -61 -157.5t-164 -65.5q-94 0 -162 60.5t-68 155.5q0 86 54 137.5t136 56.5v152h79z"/>
<glyph glyph-name="Agrave" horiz-adv-x="646" unicode="À" d="M364 771h-59l-87 124h99zM430 295l-103 295l-108 -295h211zM634 0h-99l-77 216h-269l-79 -216h-100l269 706h98z"/>
<glyph glyph-name="Aacute" horiz-adv-x="646" unicode="Á" d="M427 895l-87 -124h-60l48 124h99zM430 295l-103 295l-108 -295h211zM634 0h-99l-77 216h-269l-79 -216h-100l269 706h98z"/>
<glyph glyph-name="Acircumflex" horiz-adv-x="646" unicode="Â" d="M461 771h-77l-62 74l-59 -74h-75l101 124h65zM430 295l-103 295l-108 -295h211zM634 0h-99l-77 216h-269l-79 -216h-100l269 706h98z"/>
<glyph glyph-name="Atilde" horiz-adv-x="646" unicode="Ã" d="M417 882h47q-14 -101 -78 -101q-24 0 -67 17.5t-58 17.5q-22 0 -30 -30h-48q4 34 14.5 56t25 30.5t23.5 10.5t21 2q23 0 61.5 -16.5t59.5 -16.5q13 0 18.5 6.5t10.5 23.5zM430 295l-103 295l-108 -295h211zM634 0h-99l-77 216h-269l-79 -216h-100l269 706h98z"/>
<glyph glyph-name="Adieresis" horiz-adv-x="646" unicode="Ä" d="M271 781h-87v102h87v-102zM468 781h-88v102h88v-102zM430 295l-103 295l-108 -295h211zM634 0h-99l-77 216h-269l-79 -216h-100l269 706h98z"/>
<glyph glyph-name="Aring" horiz-adv-x="646" unicode="Å" d="M378 849q0 21 -15 35.5t-36 14.5t-35.5 -15t-14.5 -36t15 -35.5t36 -14.5q20 0 35 15t15 36zM423 848q0 -39 -28.5 -67t-67.5 -28q-40 0 -67.5 28t-27.5 68q0 39 28 66.5t68 27.5q39 0 67 -27.5t28 -67.5zM430 295l-103 295l-108 -295h211zM634 0h-99l-77 216h-269 l-79 -216h-100l269 706h98z"/>
<glyph glyph-name="AE" horiz-adv-x="1042" unicode="Æ" d="M514 313v302l-197 -302h197zM1014 0h-500v232h-252l-154 -232h-110l483 706h521v-83h-395v-231h319v-79h-319v-231h407v-82z"/>
<glyph glyph-name="Ccedilla" horiz-adv-x="764" unicode="Ç" d="M640 268l102 -12q-21 -107 -111 -188.5t-210 -82.5l-16 -28q1 -1 11 -6t17 -10t15.5 -13t13.5 -19.5t5 -25.5q0 -38 -34 -62t-93 -24v23q2 -1 7 -1q22 0 33.5 11t11.5 25q0 19 -14 28.5t-46 20.5l52 79q-143 1 -239 99.5t-96 272.5q0 166 96 267.5t262 101.5 q135 0 214 -62.5t107 -153.5l-95 -20q-24 72 -81.5 116.5t-145.5 44.5q-46 0 -88.5 -15t-80.5 -47t-61 -92t-23 -140q0 -55 14 -105.5t42.5 -94t79 -69.5t116.5 -26q93 0 156 55t79 153z"/>
<glyph glyph-name="Egrave" horiz-adv-x="604" unicode="È" d="M354 771h-59l-87 124h99zM577 0h-498v706h486v-83h-396v-218h344v-82h-344v-241h408v-82z"/>
<glyph glyph-name="Eacute" horiz-adv-x="604" unicode="É" d="M417 895l-87 -124h-60l48 124h99zM577 0h-498v706h486v-83h-396v-218h344v-82h-344v-241h408v-82z"/>
<glyph glyph-name="Ecircumflex" horiz-adv-x="604" unicode="Ê" d="M456 771h-77l-62 74l-59 -74h-75l101 124h65zM577 0h-498v706h486v-83h-396v-218h344v-82h-344v-241h408v-82z"/>
<glyph glyph-name="Edieresis" horiz-adv-x="604" unicode="Ë" d="M263 781h-87v102h87v-102zM460 781h-88v102h88v-102zM577 0h-498v706h486v-83h-396v-218h344v-82h-344v-241h408v-82z"/>
<glyph glyph-name="Igrave" horiz-adv-x="229" unicode="Ì" d="M156 771h-59l-87 124h99zM162 0h-95v706h95v-706z"/>
<glyph glyph-name="Iacute" horiz-adv-x="229" unicode="Í" d="M220 895l-87 -124h-60l48 124h99zM162 0h-95v706h95v-706z"/>
<glyph glyph-name="Icircumflex" horiz-adv-x="229" unicode="Î" d="M253 771h-77l-62 74l-59 -74h-75l101 124h65zM162 0h-95v706h95v-706z"/>
<glyph glyph-name="Idieresis" horiz-adv-x="229" unicode="Ï" d="M60 781h-87v102h87v-102zM257 781h-88v102h88v-102zM162 0h-95v706h95v-706z"/>
<glyph glyph-name="Eth" horiz-adv-x="708" unicode="Ð" d="M175 623v-222h168v-60h-168v-259h125q90 0 132 17q61 25 95.5 88.5t34.5 161.5q0 223 -153 264q-39 10 -108 10h-126zM78 706h248q88 0 133 -15q92 -32 145.5 -118t53.5 -227q0 -17 -0.5 -32.5t-5.5 -47.5t-13 -58.5t-25 -59.5t-40.5 -58.5t-61 -47.5t-83.5 -33 q-42 -9 -107 -9h-244v341h-65v60h65v305z"/>
<glyph glyph-name="Ntilde" horiz-adv-x="708" unicode="Ñ" d="M448 882h47q-14 -101 -78 -101q-24 0 -67 17.5t-58 17.5q-22 0 -30 -30h-48q4 34 14.5 56t25 30.5t23.5 10.5t21 2q23 0 61.5 -16.5t59.5 -16.5q13 0 18.5 6.5t10.5 23.5zM630 0h-85l-387 574q9 -560 9 -574h-89v706h89l382 -566q-4 544 -4 566h85v-706z"/>
<glyph glyph-name="Ograve" horiz-adv-x="812" unicode="Ò" d="M448 771h-59l-87 124h99zM153 353q0 -137 68.5 -217t187.5 -80q111 0 181 76.5t70 226.5q0 56 -13.5 105t-41.5 91.5t-79 67.5t-119 25q-67 0 -118 -25t-79.5 -68t-42.5 -93.5t-14 -108.5zM762 359q0 -54 -11.5 -105.5t-38.5 -101.5t-67.5 -87t-102.5 -60t-138 -23 q-70 0 -132.5 23t-112.5 67.5t-79 117t-29 164.5q0 93 30 166t80.5 116.5t113 65.5t132.5 22q160 0 257.5 -101.5t97.5 -263.5z"/>
<glyph glyph-name="Oacute" horiz-adv-x="812" unicode="Ó" d="M511 895l-87 -124h-60l48 124h99zM153 353q0 -137 68.5 -217t187.5 -80q111 0 181 76.5t70 226.5q0 56 -13.5 105t-41.5 91.5t-79 67.5t-119 25q-67 0 -118 -25t-79.5 -68t-42.5 -93.5t-14 -108.5zM762 359q0 -54 -11.5 -105.5t-38.5 -101.5t-67.5 -87t-102.5 -60 t-138 -23q-70 0 -132.5 23t-112.5 67.5t-79 117t-29 164.5q0 93 30 166t80.5 116.5t113 65.5t132.5 22q160 0 257.5 -101.5t97.5 -263.5z"/>
<glyph glyph-name="Ocircumflex" horiz-adv-x="812" unicode="Ô" d="M544 771h-77l-62 74l-59 -74h-75l101 124h65zM153 353q0 -137 68.5 -217t187.5 -80q111 0 181 76.5t70 226.5q0 56 -13.5 105t-41.5 91.5t-79 67.5t-119 25q-67 0 -118 -25t-79.5 -68t-42.5 -93.5t-14 -108.5zM762 359q0 -54 -11.5 -105.5t-38.5 -101.5t-67.5 -87 t-102.5 -60t-138 -23q-70 0 -132.5 23t-112.5 67.5t-79 117t-29 164.5q0 93 30 166t80.5 116.5t113 65.5t132.5 22q160 0 257.5 -101.5t97.5 -263.5z"/>
<glyph glyph-name="Otilde" horiz-adv-x="812" unicode="Õ" d="M500 882h47q-14 -101 -78 -101q-24 0 -67 17.5t-58 17.5q-22 0 -30 -30h-48q4 34 14.5 56t25 30.5t23.5 10.5t21 2q23 0 61.5 -16.5t59.5 -16.5q13 0 18.5 6.5t10.5 23.5zM153 353q0 -137 68.5 -217t187.5 -80q111 0 181 76.5t70 226.5q0 56 -13.5 105t-41.5 91.5 t-79 67.5t-119 25q-67 0 -118 -25t-79.5 -68t-42.5 -93.5t-14 -108.5zM762 359q0 -54 -11.5 -105.5t-38.5 -101.5t-67.5 -87t-102.5 -60t-138 -23q-70 0 -132.5 23t-112.5 67.5t-79 117t-29 164.5q0 93 30 166t80.5 116.5t113 65.5t132.5 22q160 0 257.5 -101.5t97.5 -263.5 z"/>
<glyph glyph-name="Odieresis" horiz-adv-x="812" unicode="Ö" d="M356 781h-87v102h87v-102zM553 781h-88v102h88v-102zM153 353q0 -137 68.5 -217t187.5 -80q111 0 181 76.5t70 226.5q0 56 -13.5 105t-41.5 91.5t-79 67.5t-119 25q-67 0 -118 -25t-79.5 -68t-42.5 -93.5t-14 -108.5zM762 359q0 -54 -11.5 -105.5t-38.5 -101.5t-67.5 -87 t-102.5 -60t-138 -23q-70 0 -132.5 23t-112.5 67.5t-79 117t-29 164.5q0 93 30 166t80.5 116.5t113 65.5t132.5 22q160 0 257.5 -101.5t97.5 -263.5z"/>
<glyph glyph-name="multiply" d="M576 146l-61 -62l-163 159l-158 -160l-56 55l158 160l-164 161l62 62l163 -160l157 160l56 -55l-157 -160z" unicode="×"/>
<glyph glyph-name="Oslash" horiz-adv-x="812" unicode="Ø" d="M621 512l-397 -381q76 -75 182 -75q66 0 117 26.5t79.5 70t42.5 91.5t14 97q0 93 -38 171zM186 193l394 378q-70 78 -179 78q-121 0 -184 -85.5t-63 -213.5q0 -82 32 -157zM715 699l48 -51l-70 -68q70 -102 70 -225q0 -42 -10 -88t-36 -98t-65 -92.5t-105 -67.5t-148 -27 q-72 0 -126 21t-112 68l-65 -62l-49 50l69 66q-66 114 -66 228q0 64 19.5 126t59.5 118.5t111.5 91.5t163.5 35q80 0 130.5 -21.5t111.5 -68.5z"/>
<glyph glyph-name="Ugrave" horiz-adv-x="688" unicode="Ù" d="M385 771h-59l-87 124h99zM76 706h94v-467q0 -79 40.5 -128t128.5 -49q93 0 135 53t42 137v454h95v-473q0 -105 -70 -178t-203 -73q-126 0 -194 68t-68 173v483z"/>
<glyph glyph-name="Uacute" horiz-adv-x="688" unicode="Ú" d="M449 895l-87 -124h-60l48 124h99zM76 706h94v-467q0 -79 40.5 -128t128.5 -49q93 0 135 53t42 137v454h95v-473q0 -105 -70 -178t-203 -73q-126 0 -194 68t-68 173v483z"/>
<glyph glyph-name="Ucircumflex" horiz-adv-x="688" unicode="Û" d="M482 771h-77l-62 74l-59 -74h-75l101 124h65zM76 706h94v-467q0 -79 40.5 -128t128.5 -49q93 0 135 53t42 137v454h95v-473q0 -105 -70 -178t-203 -73q-126 0 -194 68t-68 173v483z"/>
<glyph glyph-name="Udieresis" horiz-adv-x="688" unicode="Ü" d="M288 781h-87v102h87v-102zM485 781h-88v102h88v-102zM76 706h94v-467q0 -79 40.5 -128t128.5 -49q93 0 135 53t42 137v454h95v-473q0 -105 -70 -178t-203 -73q-126 0 -194 68t-68 173v483z"/>
<glyph glyph-name="Yacute" horiz-adv-x="625" unicode="Ý" d="M417 895l-87 -124h-60l48 124h99zM611 706l-254 -383v-323h-95v323l-248 383h111l186 -299l188 299h112z"/>
<glyph glyph-name="Thorn" horiz-adv-x="625" unicode="Þ" d="M167 495v-242h221q37 0 65 10t49 42q19 29 19 73q0 117 -131 117h-223zM76 706h91v-129h249q100 0 149 -60t49 -141q0 -84 -51.5 -145t-157.5 -61h-238v-170h-91v706z"/>
<glyph glyph-name="germandbls" horiz-adv-x="542" unicode="ß" d="M143 0h-79v506q0 103 33 149q49 69 162 69q79 0 128 -35q63 -45 63 -126q0 -13 -3 -28t-11 -37t-27.5 -42t-48.5 -31q34 -5 60.5 -20t41.5 -36t22.5 -37t11.5 -31q7 -29 7 -69q0 -157 -97 -213q-52 -30 -120 -30q-42 0 -94 15v84q63 -21 99 -21q67 0 101 46q30 41 30 111 q0 64 -34 104q-27 31 -68 43t-120 12v79q14 -2 41 -2q65 0 97 28.5t32 71.5t-31 66.5t-75 23.5q-33 0 -57 -9t-36 -22t-18.5 -33.5t-8 -35.5t-1.5 -37v-513z"/>
<glyph glyph-name="agrave" horiz-adv-x="500" unicode="à" d="M280 521h-48l-83 144h89zM347 230q-145 -23 -169 -34q-58 -23 -58 -72q0 -29 22.5 -49.5t66.5 -20.5q20 0 40.5 5t44 18.5t38.5 43.5t15 72v37zM346 282v16q0 19 -1 31t-6.5 32t-15.5 32.5t-31 22t-51 9.5q-49 0 -75.5 -24t-26.5 -68v-7l-83 5q0 11 2.5 25.5t13.5 38.5 t29 43t53.5 33.5t82.5 14.5q71 0 118 -28q46 -26 58.5 -62.5t12.5 -108.5v-166q0 -18 1.5 -27.5t10 -18.5t24.5 -9q6 0 24 4v-67q-27 -9 -51 -9q-33 0 -50 12q-13 10 -22 28t-10 30q-71 -77 -161 -77q-71 0 -115.5 37.5t-44.5 97.5q0 63 51 102q59 44 191 53z"/>
<glyph glyph-name="aacute" horiz-adv-x="500" unicode="á" d="M344 666l-86 -144h-41l41 144h86zM347 230q-145 -23 -169 -34q-58 -23 -58 -72q0 -29 22.5 -49.5t66.5 -20.5q20 0 40.5 5t44 18.5t38.5 43.5t15 72v37zM346 282v16q0 19 -1 31t-6.5 32t-15.5 32.5t-31 22t-51 9.5q-49 0 -75.5 -24t-26.5 -68v-7l-83 5q0 11 2.5 25.5 t13.5 38.5t29 43t53.5 33.5t82.5 14.5q71 0 118 -28q46 -26 58.5 -62.5t12.5 -108.5v-166q0 -18 1.5 -27.5t10 -18.5t24.5 -9q6 0 24 4v-67q-27 -9 -51 -9q-33 0 -50 12q-13 10 -22 28t-10 30q-71 -77 -161 -77q-71 0 -115.5 37.5t-44.5 97.5q0 63 51 102q59 44 191 53z"/>
<glyph glyph-name="acircumflex" horiz-adv-x="500" unicode="â" d="M375 523h-75l-61 95l-59 -95h-70l94 151h67zM347 230q-145 -23 -169 -34q-58 -23 -58 -72q0 -29 22.5 -49.5t66.5 -20.5q20 0 40.5 5t44 18.5t38.5 43.5t15 72v37zM346 282v16q0 19 -1 31t-6.5 32t-15.5 32.5t-31 22t-51 9.5q-49 0 -75.5 -24t-26.5 -68v-7l-83 5 q0 11 2.5 25.5t13.5 38.5t29 43t53.5 33.5t82.5 14.5q71 0 118 -28q46 -26 58.5 -62.5t12.5 -108.5v-166q0 -18 1.5 -27.5t10 -18.5t24.5 -9q6 0 24 4v-67q-27 -9 -51 -9q-33 0 -50 12q-13 10 -22 28t-10 30q-71 -77 -161 -77q-71 0 -115.5 37.5t-44.5 97.5q0 63 51 102 q59 44 191 53z"/>
<glyph glyph-name="atilde" horiz-adv-x="500" unicode="ã" d="M339 635h50q-3 -27 -8.5 -46t-23.5 -36.5t-46 -17.5q-22 0 -64.5 17t-56.5 17q-16 0 -23.5 -11t-7.5 -19h-49q12 99 82 99q23 0 64 -16.5t54 -16.5q29 0 29 30zM347 230q-145 -23 -169 -34q-58 -23 -58 -72q0 -29 22.5 -49.5t66.5 -20.5q20 0 40.5 5t44 18.5t38.5 43.5 t15 72v37zM346 282v16q0 19 -1 31t-6.5 32t-15.5 32.5t-31 22t-51 9.5q-49 0 -75.5 -24t-26.5 -68v-7l-83 5q0 11 2.5 25.5t13.5 38.5t29 43t53.5 33.5t82.5 14.5q71 0 118 -28q46 -26 58.5 -62.5t12.5 -108.5v-166q0 -18 1.5 -27.5t10 -18.5t24.5 -9q6 0 24 4v-67 q-27 -9 -51 -9q-33 0 -50 12q-13 10 -22 28t-10 30q-71 -77 -161 -77q-71 0 -115.5 37.5t-44.5 97.5q0 63 51 102q59 44 191 53z"/>
<glyph glyph-name="adieresis" horiz-adv-x="500" unicode="ä" d="M192 541h-87v103h87v-103zM390 541h-89v103h89v-103zM347 230q-145 -23 -169 -34q-58 -23 -58 -72q0 -29 22.5 -49.5t66.5 -20.5q20 0 40.5 5t44 18.5t38.5 43.5t15 72v37zM346 282v16q0 19 -1 31t-6.5 32t-15.5 32.5t-31 22t-51 9.5q-49 0 -75.5 -24t-26.5 -68v-7l-83 5 q0 11 2.5 25.5t13.5 38.5t29 43t53.5 33.5t82.5 14.5q71 0 118 -28q46 -26 58.5 -62.5t12.5 -108.5v-166q0 -18 1.5 -27.5t10 -18.5t24.5 -9q6 0 24 4v-67q-27 -9 -51 -9q-33 0 -50 12q-13 10 -22 28t-10 30q-71 -77 -161 -77q-71 0 -115.5 37.5t-44.5 97.5q0 63 51 102 q59 44 191 53z"/>
<glyph glyph-name="aring" horiz-adv-x="500" unicode="å" d="M298 609q0 21 -15 36t-37 15t-36.5 -15t-14.5 -36t15 -36.5t36 -15.5q22 0 37 15.5t15 36.5zM341 608q0 -40 -27.5 -67.5t-67.5 -27.5q-39 0 -66.5 28t-27.5 67t27.5 67t66.5 28q42 0 68.5 -29.5t26.5 -65.5zM347 230q-145 -23 -169 -34q-58 -23 -58 -72 q0 -29 22.5 -49.5t66.5 -20.5q20 0 40.5 5t44 18.5t38.5 43.5t15 72v37zM346 282v16q0 19 -1 31t-6.5 32t-15.5 32.5t-31 22t-51 9.5q-49 0 -75.5 -24t-26.5 -68v-7l-83 5q0 11 2.5 25.5t13.5 38.5t29 43t53.5 33.5t82.5 14.5q71 0 118 -28q46 -26 58.5 -62.5t12.5 -108.5 v-166q0 -18 1.5 -27.5t10 -18.5t24.5 -9q6 0 24 4v-67q-27 -9 -51 -9q-33 0 -50 12q-13 10 -22 28t-10 30q-71 -77 -161 -77q-71 0 -115.5 37.5t-44.5 97.5q0 63 51 102q59 44 191 53z"/>
<glyph glyph-name="ae" horiz-adv-x="812" unicode="æ" d="M357 214h-63q-78 0 -128 -24t-50 -69q0 -27 23.5 -50t70.5 -23q69 0 108 49t39 107v10zM436 272h258q-3 62 -36 101q-39 47 -96 47q-62 0 -99 -56q-27 -40 -27 -92zM779 214h-342q0 -73 34 -117q36 -47 101 -47q44 0 75.5 28t39.5 72l84 -13q-14 -54 -55 -93 q-62 -59 -154 -59q-121 0 -177 99q-77 -99 -191 -99q-67 0 -114 35t-47 98q0 44 25 78.5t66 52.5q54 23 160 23h73v19q0 55 -31.5 94.5t-83.5 39.5q-40 0 -69 -24.5t-32 -70.5l-84 6q5 41 20 68q18 32 58.5 57t104.5 25q111 0 159 -84q58 84 162 84q98 0 160 -76 q58 -73 58 -191v-5z"/>
<glyph glyph-name="ccedilla" horiz-adv-x="521" unicode="ç" d="M408 178l86 -8q-35 -178 -201 -183l-18 -30q1 -1 11 -5.5t17 -9.5t16 -13t14 -20t5 -26q0 -38 -34 -62t-93 -24v23q2 -1 7 -1q22 0 33.5 11t11.5 25q0 12 -7.5 21t-14 13t-22 9.5t-16.5 5.5l52 82q-101 4 -158.5 72t-57.5 174q0 111 59.5 182.5t169.5 71.5 q97 0 151.5 -48.5t65.5 -109.5l-88 -8q-9 52 -42.5 80t-85.5 28q-61 0 -101.5 -45.5t-40.5 -145.5q0 -86 38 -138t109 -52q118 0 134 131z"/>
<glyph glyph-name="egrave" horiz-adv-x="521" unicode="è" d="M303 521h-48l-83 144h89zM127 279h269q0 60 -38 102.5t-97 42.5q-60 0 -94 -41.5t-40 -103.5zM125 221v-6q0 -65 38 -117.5t115 -52.5q55 0 84.5 33.5t39.5 76.5l81 -11q-53 -159 -213 -159q-97 0 -164 62.5t-67 192.5q0 64 21.5 113.5t56 77t73 41.5t77.5 14 q88 0 152 -62.5t64 -189.5v-13h-358z"/>
<glyph glyph-name="eacute" horiz-adv-x="521" unicode="é" d="M355 666l-86 -144h-41l41 144h86zM127 279h269q0 60 -38 102.5t-97 42.5q-60 0 -94 -41.5t-40 -103.5zM125 221v-6q0 -65 38 -117.5t115 -52.5q55 0 84.5 33.5t39.5 76.5l81 -11q-53 -159 -213 -159q-97 0 -164 62.5t-67 192.5q0 64 21.5 113.5t56 77t73 41.5t77.5 14 q88 0 152 -62.5t64 -189.5v-13h-358z"/>
<glyph glyph-name="ecircumflex" horiz-adv-x="521" unicode="ê" d="M396 523h-75l-61 95l-59 -95h-70l94 151h67zM127 279h269q0 60 -38 102.5t-97 42.5q-60 0 -94 -41.5t-40 -103.5zM125 221v-6q0 -65 38 -117.5t115 -52.5q55 0 84.5 33.5t39.5 76.5l81 -11q-53 -159 -213 -159q-97 0 -164 62.5t-67 192.5q0 64 21.5 113.5t56 77t73 41.5 t77.5 14q88 0 152 -62.5t64 -189.5v-13h-358z"/>
<glyph glyph-name="edieresis" horiz-adv-x="521" unicode="ë" d="M217 541h-87v103h87v-103zM415 541h-89v103h89v-103zM127 279h269q0 60 -38 102.5t-97 42.5q-60 0 -94 -41.5t-40 -103.5zM125 221v-6q0 -65 38 -117.5t115 -52.5q55 0 84.5 33.5t39.5 76.5l81 -11q-53 -159 -213 -159q-97 0 -164 62.5t-67 192.5q0 64 21.5 113.5t56 77 t73 41.5t77.5 14q88 0 152 -62.5t64 -189.5v-13h-358z"/>
<glyph glyph-name="igrave" horiz-adv-x="208" unicode="ì" d="M147 521h-48l-83 144h89zM144 0h-77v471h77v-471z"/>
<glyph glyph-name="iacute" horiz-adv-x="208" unicode="í" d="M196 666l-86 -144h-41l41 144h86zM144 0h-77v471h77v-471z"/>
<glyph glyph-name="icircumflex" horiz-adv-x="208" unicode="î" d="M240 523h-75l-61 95l-59 -95h-70l94 151h67zM144 0h-77v471h77v-471z"/>
<glyph glyph-name="idieresis" horiz-adv-x="208" unicode="ï" d="M50 541h-87v103h87v-103zM248 541h-89v103h89v-103zM144 0h-77v471h77v-471z"/>
<glyph glyph-name="eth" horiz-adv-x="542" unicode="ð" d="M127 231q0 -76 35.5 -129t109.5 -53q64 0 104 47t40 147q0 92 -39 135.5t-100 43.5q-43 0 -74 -17.5t-46.5 -47t-22.5 -60.5t-7 -66zM461 664l19 -47l-74 -24q96 -153 96 -345q0 -45 -11 -87t-35 -83.5t-72 -67t-114 -25.5q-60 0 -105 21.5t-68 50t-37 67t-17 63.5t-3 48 q0 68 21 119.5t56 78.5t72.5 40t77.5 13q79 0 134 -57q-20 88 -60 143l-178 -58l-18 45l165 55q-13 17 -71 75l62 29q21 -19 75 -83z"/>
<glyph glyph-name="ntilde" horiz-adv-x="521" unicode="ñ" d="M349 635h50q-3 -27 -8.5 -46t-23.5 -36.5t-46 -17.5q-22 0 -64.5 17t-56.5 17q-16 0 -23.5 -11t-7.5 -19h-49q12 99 82 99q23 0 64 -16.5t54 -16.5q29 0 29 30zM455 0h-79v309q0 51 -31 76.5t-76 25.5q-52 0 -88.5 -35.5t-36.5 -96.5v-279h-80v471h80v-69q19 33 56 58.5 t92 25.5q16 0 35 -3.5t49.5 -19t49.5 -42.5q29 -41 29 -123v-298z"/>
<glyph glyph-name="ograve" horiz-adv-x="542" unicode="ò" d="M306 521h-48l-83 144h89zM127 231q0 -20 2.5 -40.5t11.5 -47.5t24 -46.5t42 -33.5t63 -14q71 0 108.5 52t37.5 145q0 72 -33 124t-106 52q-42 0 -72.5 -18t-45 -40t-22.5 -53.5t-9 -47t-1 -32.5zM40 235q0 27 5 55.5t20.5 65t40.5 64.5t69.5 47t102.5 19 q91 0 157.5 -63.5t66.5 -182.5q0 -122 -65.5 -188.5t-165.5 -66.5q-102 0 -166.5 66t-64.5 184z"/>
<glyph glyph-name="oacute" horiz-adv-x="542" unicode="ó" d="M370 666l-86 -144h-41l41 144h86zM127 231q0 -20 2.5 -40.5t11.5 -47.5t24 -46.5t42 -33.5t63 -14q71 0 108.5 52t37.5 145q0 72 -33 124t-106 52q-42 0 -72.5 -18t-45 -40t-22.5 -53.5t-9 -47t-1 -32.5zM40 235q0 27 5 55.5t20.5 65t40.5 64.5t69.5 47t102.5 19 q91 0 157.5 -63.5t66.5 -182.5q0 -122 -65.5 -188.5t-165.5 -66.5q-102 0 -166.5 66t-64.5 184z"/>
<glyph glyph-name="ocircumflex" horiz-adv-x="542" unicode="ô" d="M407 523h-75l-61 95l-59 -95h-70l94 151h67zM127 231q0 -20 2.5 -40.5t11.5 -47.5t24 -46.5t42 -33.5t63 -14q71 0 108.5 52t37.5 145q0 72 -33 124t-106 52q-42 0 -72.5 -18t-45 -40t-22.5 -53.5t-9 -47t-1 -32.5zM40 235q0 27 5 55.5t20.5 65t40.5 64.5t69.5 47 t102.5 19q91 0 157.5 -63.5t66.5 -182.5q0 -122 -65.5 -188.5t-165.5 -66.5q-102 0 -166.5 66t-64.5 184z"/>
<glyph glyph-name="otilde" horiz-adv-x="542" unicode="õ" d="M361 635h50q-3 -27 -8.5 -46t-23.5 -36.5t-46 -17.5q-22 0 -64.5 17t-56.5 17q-16 0 -23.5 -11t-7.5 -19h-49q12 99 82 99q23 0 64 -16.5t54 -16.5q29 0 29 30zM127 231q0 -20 2.5 -40.5t11.5 -47.5t24 -46.5t42 -33.5t63 -14q71 0 108.5 52t37.5 145q0 72 -33 124 t-106 52q-42 0 -72.5 -18t-45 -40t-22.5 -53.5t-9 -47t-1 -32.5zM40 235q0 27 5 55.5t20.5 65t40.5 64.5t69.5 47t102.5 19q91 0 157.5 -63.5t66.5 -182.5q0 -122 -65.5 -188.5t-165.5 -66.5q-102 0 -166.5 66t-64.5 184z"/>
<glyph glyph-name="odieresis" horiz-adv-x="542" unicode="ö" d="M220 541h-87v103h87v-103zM418 541h-89v103h89v-103zM127 231q0 -20 2.5 -40.5t11.5 -47.5t24 -46.5t42 -33.5t63 -14q71 0 108.5 52t37.5 145q0 72 -33 124t-106 52q-42 0 -72.5 -18t-45 -40t-22.5 -53.5t-9 -47t-1 -32.5zM40 235q0 27 5 55.5t20.5 65t40.5 64.5 t69.5 47t102.5 19q91 0 157.5 -63.5t66.5 -182.5q0 -122 -65.5 -188.5t-165.5 -66.5q-102 0 -166.5 66t-64.5 184z"/>
<glyph glyph-name="divide" d="M407 82h-89v110h89v-110zM645 260h-566v81h566v-81zM407 409h-89v110h89v-110z" unicode="÷"/>
<glyph glyph-name="oslash" horiz-adv-x="542" unicode="ø" d="M401 328l-232 -225q36 -54 104 -54q63 0 105.5 48t42.5 133q0 59 -20 98zM142 148l231 224q-47 50 -104 50q-60 0 -102 -49t-42 -131q0 -51 17 -94zM471 468l35 -36l-46 -46q43 -67 43 -152q0 -51 -15 -95q-8 -23 -21.5 -45t-38.5 -49t-66 -43.5t-92 -16.5q-96 0 -157 64 l-40 -40l-35 36l43 42q-40 65 -40 146q0 60 20 109q27 66 84 105t128 39q85 0 154 -61z"/>
<glyph glyph-name="ugrave" horiz-adv-x="521" unicode="ù" d="M295 521h-48l-83 144h89zM454 0h-79v72q-26 -39 -69.5 -61.5t-90.5 -22.5q-88 0 -126 62q-24 40 -24 118v303h79v-268q0 -72 11 -95q23 -45 86 -45q75 0 112 54q23 34 23 113v241h78v-471z"/>
<glyph glyph-name="uacute" horiz-adv-x="521" unicode="ú" d="M360 666l-86 -144h-41l41 144h86zM454 0h-79v72q-26 -39 -69.5 -61.5t-90.5 -22.5q-88 0 -126 62q-24 40 -24 118v303h79v-268q0 -72 11 -95q23 -45 86 -45q75 0 112 54q23 34 23 113v241h78v-471z"/>
<glyph glyph-name="ucircumflex" horiz-adv-x="521" unicode="û" d="M396 523h-75l-61 95l-59 -95h-70l94 151h67zM454 0h-79v72q-26 -39 -69.5 -61.5t-90.5 -22.5q-88 0 -126 62q-24 40 -24 118v303h79v-268q0 -72 11 -95q23 -45 86 -45q75 0 112 54q23 34 23 113v241h78v-471z"/>
<glyph glyph-name="udieresis" horiz-adv-x="521" unicode="ü" d="M203 541h-87v103h87v-103zM401 541h-89v103h89v-103zM454 0h-79v72q-26 -39 -69.5 -61.5t-90.5 -22.5q-88 0 -126 62q-24 40 -24 118v303h79v-268q0 -72 11 -95q23 -45 86 -45q75 0 112 54q23 34 23 113v241h78v-471z"/>
<glyph glyph-name="yacute" horiz-adv-x="437" unicode="ý" d="M323 666l-86 -144h-41l41 144h86zM342 471h83l-198 -557q-30 -85 -59 -116t-88 -31q-35 0 -71 10v72q24 -8 53 -8q35 0 53.5 19.5t38.5 78.5l20 58l-160 474h85l118 -374z"/>
<glyph glyph-name="thorn" horiz-adv-x="562" unicode="þ" d="M143 225q0 -72 37.5 -121t111.5 -49q71 0 110 47.5t39 133.5q0 72 -36 123.5t-109 51.5q-66 0 -109.5 -47t-43.5 -139zM65 706h78v-303q70 83 169 83q34 0 68.5 -13.5t67.5 -41t54 -78t21 -116.5q0 -106 -56.5 -179t-163.5 -73q-105 0 -160 70v-279h-78v930z"/>
<glyph glyph-name="OE" horiz-adv-x="1146" unicode="Œ" d="M618 361q0 86 -22.5 146.5t-59.5 90t-72 41.5t-73 12q-106 0 -173.5 -81t-67.5 -218q0 -120 63 -206t175 -86q115 0 179 92q51 75 51 209zM1119 0h-501v82q-92 -100 -232 -100q-65 0 -124.5 24.5t-107 70t-76 118t-28.5 161.5q0 170 98 269t242 99q146 0 228 -92v74h490 v-84h-400v-219h323v-82h-323v-239h411v-82z"/>
<glyph glyph-name="oe" horiz-adv-x="875" unicode="œ" d="M403 233q0 85 -36.5 135.5t-101.5 50.5q-57 0 -97.5 -47t-40.5 -141q0 -83 38.5 -131t99.5 -48q65 0 101.5 51.5t36.5 129.5zM483 274h267q-4 44 -20 75.5t-38 46t-40.5 20.5t-35.5 6q-61 0 -94.5 -44.5t-38.5 -103.5zM838 214h-355q0 -63 34 -109q43 -56 112 -56 q30 0 54 12t37.5 31t20 32.5t10.5 27.5l81 -11q-8 -22 -21 -45t-37 -50t-63.5 -44t-87.5 -17q-57 0 -104 25t-77 69q-62 -94 -174 -94q-93 0 -159.5 63.5t-66.5 187.5q0 90 40 151q65 99 189 99q104 0 171 -87q63 87 172 87q108 0 169 -81q55 -74 55 -191z"/>
<glyph glyph-name="Scaron" horiz-adv-x="667" unicode="Š" d="M468 895l-101 -124h-66l-105 124h76l62 -77l59 77h75zM37 226l101 13q0 -10 1 -19t5.5 -29t12 -36t23 -35.5t36 -32.5t53 -22t72.5 -9q26 0 53 6t56.5 20t48 43.5t18.5 71.5q0 54 -34 79t-100 38l-64 13q-126 25 -187 70.5t-61 130.5q0 82 67 138q70 58 183 58 q126 0 195 -53q43 -32 61.5 -69.5t28.5 -94.5l-95 -6q0 15 -3.5 31.5t-15 38.5t-30 39t-53.5 29t-80 12q-38 0 -72 -9t-61.5 -35t-27.5 -67q0 -47 35.5 -70.5t105.5 -40.5l129 -31q20 -5 32.5 -8.5t44 -19t51 -34.5t36 -54t16.5 -79q0 -87 -59 -145q-78 -76 -223 -76 q-117 0 -193 49q-93 60 -106 195z"/>
<glyph glyph-name="scaron" horiz-adv-x="479" unicode="š" d="M366 673l-96 -151h-67l-102 151h74l61 -96l59 96h71zM31 152l91 13q0 -55 26 -83q33 -36 106 -36q41 0 75 17.5t34 61.5q0 20 -8 34t-25.5 22t-30 11.5t-34.5 7.5l-46 9q-93 18 -130.5 51.5t-37.5 85.5q0 71 54.5 105.5t128.5 34.5q66 0 110 -25t66 -58q19 -29 25 -72 l-86 -10q-1 32 -7 44q-11 23 -42 41.5t-77 18.5q-45 0 -69 -21.5t-24 -47.5q0 -29 27 -44.5t87 -29.5l46 -11q76 -18 116.5 -48t40.5 -89q0 -67 -56 -108t-141 -41q-194 0 -219 167z"/>
<glyph glyph-name="Ydieresis" horiz-adv-x="625" unicode="Ÿ" d="M258 781h-87v102h87v-102zM455 781h-88v102h88v-102zM611 706l-254 -383v-323h-95v323l-248 383h111l186 -299l188 299h112z"/>
<glyph glyph-name="circumflex" horiz-adv-x="271" unicode="ˆ" d="M268 523h-75l-61 95l-59 -95h-70l94 151h67z"/>
<glyph glyph-name="tilde" horiz-adv-x="271" unicode="˜" d="M225 635h50q-3 -27 -8.5 -46t-23.5 -36.5t-46 -17.5q-22 0 -64.5 17t-56.5 17q-16 0 -23.5 -11t-7.5 -19h-49q12 99 82 99q23 0 64 -16.5t54 -16.5q29 0 29 30z"/>
<glyph glyph-name="uni0394" horiz-adv-x="640" unicode="Δ" d="M510 82l-191 510l-189 -510h380zM644 0h-648l277 706h97z"/>
<glyph glyph-name="uni03BC" horiz-adv-x="564" unicode="μ" d="M86 470h80v-236q0 -102 22 -134q29 -44 86 -44q68 0 98 68q17 38 17 130v216h80v-347q0 -40 7 -54t26 -14q12 0 28 7v-64q-28 -7 -43 -7q-41 0 -61.5 18.5t-26.5 61.5q-23 -44 -51.5 -63t-74.5 -19q-68 0 -109 59q4 -235 4 -264h-82v686z"/>
<glyph glyph-name="pi" horiz-adv-x="560" unicode="π" d="M527 0h-34q-64 0 -89.5 26t-25.5 80v296h-201v-402h-79v402h-54v69h468v-69h-54v-266q0 -43 10.5 -56t47.5 -13h11v-67z"/>
<glyph glyph-name="endash" horiz-adv-x="600" unicode="–" d="M555 262h-510v76h510v-76z"/>
<glyph glyph-name="emdash" horiz-adv-x="895" unicode="—" d="M850 262h-805v76h805v-76z"/>
<glyph glyph-name="quoteleft" horiz-adv-x="229" unicode="‘" d="M162 440h-99v51q0 64 8.5 106t33.5 109h47q-26 -76 -33 -157h43v-109z"/>
<glyph glyph-name="quotesinglbase" horiz-adv-x="229" unicode="‚" d="M63 109h99v-60q0 -113 -41 -205h-47q33 95 33 156h-44v109z"/>
<glyph glyph-name="quotedblleft" horiz-adv-x="375" unicode="“" d="M162 440h-99v57q0 113 42 209h47q-33 -91 -33 -157h43v-109zM311 440h-99v57q0 113 42 209h46q-30 -70 -32 -157h43v-109z"/>
<glyph glyph-name="quotedblright" horiz-adv-x="375" unicode="”" d="M63 706h99v-61q0 -113 -41 -205h-47q33 95 33 156h-44v110zM212 706h99v-67q0 -105 -42 -199h-46q24 70 32 156h-43v110z"/>
<glyph glyph-name="dagger" horiz-adv-x="458" unicode="†" d="M441 421h-170v-421h-80v421h-171v79h171v206h80v-206h170v-79z"/>
<glyph glyph-name="daggerdbl" horiz-adv-x="458" unicode="‡" d="M441 181h-170v-181h-80v181h-172v79h172v161h-171v79h171v206h80v-206h170v-79h-170v-161h170v-79z"/>
<glyph glyph-name="ellipsis" horiz-adv-x="1000" unicode="…" d="M213 0h-94v93h94v-93zM547 0h-95v93h95v-93zM881 0h-95v93h95v-93z"/>
<glyph glyph-name="perthousand" horiz-adv-x="1250" unicode="‰" d="M1160 217q0 55 -10.5 93.5t-28 54.5t-32 22t-29.5 6q-48 0 -72 -47t-24 -121q0 -22 2 -42t10 -55.5t30 -57t56 -21.5q44 0 71 40t27 128zM898 219q0 54 14 103.5t53 88.5t96 39q68 0 116 -61t48 -171q0 -36 -7 -72t-24 -72.5t-51 -59.5t-81 -23q-76 0 -120 63.5 t-44 164.5zM784 217q0 55 -10.5 93.5t-28 54.5t-32 22t-29.5 6q-48 0 -72 -47t-24 -121q0 -22 2 -42t10 -55.5t30 -57t56 -21.5q44 0 71 40t27 128zM522 219q0 54 14 103.5t53 88.5t96 39q68 0 116 -61t48 -171q0 -36 -7 -72t-24 -72.5t-51 -59.5t-81 -23q-76 0 -120 63.5 t-44 164.5zM288 450q0 55 -10.5 93.5t-28 54.5t-32 22t-29.5 6q-48 0 -72 -47t-24 -121q0 -22 2 -42t10 -55.5t30 -57t56 -21.5q44 0 71 40t27 128zM26 452q0 54 14 103.5t53 88.5t96 39q68 0 116 -61t48 -171q0 -36 -7 -72t-24 -72.5t-51 -59.5t-81 -23q-76 0 -120 63.5 t-44 164.5zM620 656l-317 -685l-55 26l318 685z"/>
<glyph glyph-name="guilsinglleft" horiz-adv-x="250" unicode="‹" d="M182 141l-134 113v83l134 116v-89l-80 -71l80 -66v-86z"/>
<glyph glyph-name="guilsinglright" horiz-adv-x="250" unicode="›" d="M202 250l-134 -116v90l80 70l-80 67v85l134 -113v-83z"/>
<glyph glyph-name="fraction" horiz-adv-x="125" unicode="⁄" d="M249 656l-317 -685l-55 26l318 685z"/>
<glyph glyph-name="Euro" horiz-adv-x="700" unicode="€" d="M678 649l-32 -91q-71 91 -194 91q-202 0 -245 -209h399l-22 -62h-384v-20q0 -6 0.5 -16.5t0.5 -12.5h366l-22 -62h-337q18 -99 81.5 -152.5t163.5 -53.5q66 0 125.5 25.5t98.5 75.5v-106q-93 -74 -236 -74q-139 0 -228 74t-111 211h-79l23 62h50q0 33 2 49h-75l23 62h59 q26 137 112 210.5t225 73.5q76 0 131.5 -16t104.5 -59z"/>
<glyph glyph-name="trademark" horiz-adv-x="694" unicode="™" d="M273 657h-95v-283h-59v283h-96v49h250v-49zM621 374h-54l2 261l-78 -261h-54l-75 257q1 -223 1 -257h-56v332h78l82 -265l79 265h75v-332z"/>
<glyph glyph-name="partialdiff" horiz-adv-x="543" unicode="∂" d="M379 301q-58 54 -122 54q-58 0 -92.5 -42t-34.5 -113q0 -64 31.5 -101t84.5 -37q129 0 133 239zM149 626l-11 74q58 21 119 21q112 0 164.5 -84t52.5 -264q0 -189 -54.5 -286.5t-175.5 -97.5q-90 0 -146 58.5t-56 152.5q0 102 58 165.5t152 63.5q74 0 133 -43v12 q0 246 -144 246q-33 0 -92 -18z"/>
<glyph glyph-name="product" horiz-adv-x="705" unicode="∏" d="M636 -122h-89v745h-388v-745h-91v828h568v-828z"/>
<glyph glyph-name="summation" horiz-adv-x="593" unicode="∑" d="M569 623l-428 1l281 -320l-288 -343h434v-83h-539v78l279 345l-279 325v80h540v-83z"/>
<glyph glyph-name="minus" d="M645 260h-566v81h566v-81z" unicode="−"/>
<glyph glyph-name="radical" horiz-adv-x="725" unicode="√" d="M648 706l-264 -891h-87l-135 294l-68 -31l-32 72l149 67l124 -285l222 774h91z"/>
<glyph glyph-name="infinity" d="M315 297q-67 112 -126 112q-35 0 -58 -30.5t-23 -78.5t23 -79.5t58 -31.5q28 0 54 22t72 86zM409 300q36 -59 65 -85.5t62 -26.5q35 0 58 30.5t23 77.5q0 49 -22.5 80.5t-56.5 31.5q-28 0 -58 -25t-71 -83zM365 363q46 66 86.5 95t85.5 29q67 0 111.5 -52t44.5 -132 q0 -82 -47 -137t-117 -55q-51 0 -87 26t-85 96q-50 -70 -89 -95.5t-83 -25.5q-67 0 -110.5 52t-43.5 132q0 81 46.5 136t114.5 55q49 0 90 -29t83 -95z" unicode="∞"/>
<glyph glyph-name="approxequal" d="M607 277l44 -61q-46 -53 -83.5 -74t-81.5 -21q-45 0 -120 36l-35 17q-59 29 -104 29q-32 0 -54.5 -16t-54.5 -58l-44 60q38 53 74 75.5t84 22.5q45 0 133 -39l45 -20q55 -24 79 -24q60 0 118 73zM607 472l44 -61q-45 -52 -83 -73.5t-82 -21.5q-46 0 -120 36l-35 17 q-61 29 -104 29q-32 0 -54.5 -16t-54.5 -58l-44 60q38 53 74 75.5t83 22.5q28 0 53 -7t81 -32l45 -20q54 -24 79 -24q31 0 57.5 16t60.5 57z" unicode="≈"/>
<glyph glyph-name="notequal" d="M625 163h-290l-83 -169h-76l82 169h-159v77h198l52 109h-250v79h290l78 158h76l-78 -158h160v-79h-200l-52 -109h252v-77z" unicode="≠"/>
<glyph glyph-name="lessequal" d="M594 0h-466v79h466v-79zM594 120l-466 226v90l466 219v-88l-385 -177l385 -179v-91z" unicode="≤"/>
<glyph glyph-name="greaterequal" d="M596 0h-466v79h466v-79zM596 339l-466 -219v88l385 176l-385 179v92l466 -226v-90z" unicode="≥"/>
<glyph glyph-name="lozenge" d="M498 355l-133 273l-136 -274l131 -275zM585 353l-181 -353h-87l-178 353l182 353h88z" unicode="◊"/>
</font>
</defs>
</svg>
