<?xml version="1.0" encoding="UTF-8" standalone="no"?>
<!DOCTYPE svg  PUBLIC '-//W3C//DTD SVG 1.1//EN'  'http://www.w3.org/Graphics/SVG/1.1/DTD/svg11.dtd'>
<svg xmlns="http://www.w3.org/2000/svg">
<defs>
<font id="AkzidenzGroteskStd-Light" horiz-adv-x="521">
<font-face underline-position="-50" font-weight="300" descent="-200" panose-1="2 0 5 6 4 0 0 2 0 3" units-per-em="1000" unicode-range="U+0020-25CA" bbox="-134 -256 1219 906" x-height="477" underline-thickness="50" font-family="AkzidenzGroteskStd" ascent="800" cap-height="706"/>
<missing-glyph horiz-adv-x="1000"/>
<glyph glyph-name=".notdef" horiz-adv-x="1000"/>
<glyph glyph-name=".null" horiz-adv-x="0"/>
<glyph glyph-name="nonmarkingreturn" horiz-adv-x="333"/>
<glyph glyph-name="space" horiz-adv-x="258" unicode=" "/>
<glyph glyph-name="exclam" horiz-adv-x="208" unicode="!" d="M162 0h-76v116h76v-116zM92 712h64v-405l-9 -131h-47l-8 131v405z"/>
<glyph glyph-name="quotedbl" horiz-adv-x="357" unicode='&quot;' d="M134 743l-26 -291h-30l-27 291h83zM306 743l-26 -291h-30l-27 291h83z"/>
<glyph glyph-name="numbersign" horiz-adv-x="667" unicode="#" d="M390 410h-100l-14 -97h101zM624 410h-175l-13 -97h168v-54h-175l-35 -259h-62l38 259h-101l-38 -259h-58l36 259h-167v54h175l13 97h-167v57h174l32 241h63l-34 -241h100l31 241h60l-33 -241h168v-57z"/>
<glyph glyph-name="dollar" horiz-adv-x="604" unicode="$" d="M323 327v-267q47 0 81 15.5t50 39t23 44t7 38.5q0 53 -41 81t-120 49zM265 414v231q-73 -4 -102 -38.5t-29 -73.5q0 -84 131 -119zM323 -92h-58v92q-172 18 -239 178l71 7q50 -106 168 -123v284q-197 53 -197 182q0 43 16.5 76.5t39 51.5t52.5 30t50 15.5t39 4.5v62h58 v-62q158 -14 197 -163l-67 -7q-21 56 -57.5 80t-72.5 27v-247q43 -12 71 -21.5t61 -26t52 -35t32 -47t13 -63.5q0 -17 -4 -35.5t-13.5 -43t-31 -48.5t-52.5 -42q-58 -32 -128 -34v-92z"/>
<glyph glyph-name="percent" horiz-adv-x="875" unicode="%" d="M581 219q0 -22 2.5 -44t11.5 -58t32.5 -58t59.5 -22q32 0 54.5 18.5t32.5 50t14 58.5t4 57q0 84 -28.5 134t-75.5 50q-56 0 -81.5 -53t-25.5 -133zM530 223q0 94 39 160t119 66q48 0 81 -24.5t48 -64t20.5 -74.5t5.5 -71q0 -99 -41.5 -161t-115.5 -62q-44 0 -76 21.5 t-48.5 57.5t-24 74t-7.5 78zM82 484q0 -22 2.5 -44t11.5 -58t32.5 -58t59.5 -22q32 0 54.5 18.5t32.5 50t14 58.5t4 57q0 84 -28.5 134t-75.5 50q-56 0 -81.5 -53t-25.5 -133zM31 488q0 94 39 160t119 66q48 0 81 -24.5t48 -64t20.5 -74.5t5.5 -71q0 -99 -41.5 -161 t-115.5 -62q-44 0 -76 21.5t-48.5 57.5t-24 74t-7.5 78zM638 730l-353 -769l-40 18l351 770z"/>
<glyph glyph-name="ampersand" horiz-adv-x="646" unicode="&amp;" d="M435 128q-36 49 -96.5 140t-73.5 110q-44 -28 -70 -49t-48.5 -58t-22.5 -80q0 -69 48.5 -105t102.5 -36q96 0 160 78zM284 462q45 21 76 53.5t31 75.5q0 24 -17 48t-58 24q-25 0 -42 -9t-24.5 -23t-10.5 -26t-3 -24q0 -9 1.5 -18t4.5 -18.5t6 -16.5t8.5 -18t8.5 -16 t10 -17t9 -15zM494 316h63q-3 -45 -11 -79t-15.5 -51.5t-23.5 -48.5q41 -51 62 -68t51 -17v-61q-47 0 -80.5 23.5t-70.5 68.5q-71 -91 -194 -91q-82 0 -140 42q-80 60 -80 154q0 45 16 83.5t47 69.5t54.5 49t59.5 40q-57 75 -57 151q0 62 38.5 100t101.5 38q60 0 99 -32.5 t39 -91.5q0 -102 -137 -186q15 -23 44.5 -67.5t36.5 -54.5q46 -68 72 -99q23 62 25 128z"/>
<glyph glyph-name="quotesingle" horiz-adv-x="185" unicode="&apos;" d="M134 743l-26 -291h-30l-27 291h83z"/>
<glyph glyph-name="parenleft" horiz-adv-x="308" unicode="(" d="M283 797l24 -33q-191 -157 -191 -435q0 -127 49 -253.5t146 -200.5l-25 -37q-118 90 -180.5 215t-62.5 272q0 143 62.5 270.5t177.5 201.5z"/>
<glyph glyph-name="parenright" horiz-adv-x="313" unicode=")" d="M8 764l25 37q118 -91 180 -215.5t62 -270.5q0 -144 -63.5 -272t-178.5 -201l-24 32q99 81 145.5 188t46.5 249q0 135 -48.5 255t-144.5 198z"/>
<glyph glyph-name="asterisk" horiz-adv-x="357" unicode="*" d="M324 595l-110 -39l67 -91l-37 -27l-68 90l-61 -90l-38 27l62 92l-106 30l14 43l106 -28v109h48v-111l108 36z"/>
<glyph glyph-name="plus" horiz-adv-x="724" unicode="+" d="M630 263h-238v-238h-60v238h-238v60h238v237h60v-237h238v-60z"/>
<glyph glyph-name="comma" horiz-adv-x="167" unicode="," d="M44 116h79v-98q0 -61 -8.5 -97t-37.5 -79l-33 23q23 37 30.5 64t7.5 71h-38v116z"/>
<glyph glyph-name="hyphen" horiz-adv-x="341" unicode="-" d="M303 264h-265v60h265v-60z"/>
<glyph glyph-name="period" horiz-adv-x="167" unicode="." d="M123 0h-79v116h79v-116z"/>
<glyph glyph-name="slash" horiz-adv-x="479" unicode="/" d="M469 706l-383 -706h-76l385 706h74z"/>
<glyph glyph-name="zero" horiz-adv-x="583" unicode="0" d="M111 355q0 -60 8.5 -111.5t27.5 -99t56 -74.5t89 -27q93 0 137 84.5t44 219.5q0 138 -44.5 228t-136.5 90q-45 0 -79 -24t-53 -58t-30.5 -79t-15 -80.5t-3.5 -68.5zM44 359q0 41 5.5 84t22.5 94.5t43 90.5t72 65.5t106 26.5q49 0 89 -17.5t65 -44t43.5 -64.5t28 -71 t14.5 -73t6 -61.5t1 -43.5q0 -24 -3 -53t-11 -73t-26 -82t-44 -73.5t-69 -56t-97 -20.5q-119 0 -182.5 102.5t-63.5 269.5z"/>
<glyph glyph-name="one" horiz-adv-x="583" unicode="1" d="M350 0h-61v573q-15 -13 -48 -20.5t-63 -7.5h-17v54q14 0 30 2.5t41 10t41 28t16 51.5v15h61v-706z"/>
<glyph glyph-name="two" horiz-adv-x="583" unicode="2" d="M60 0v55q84 51 172 118.5t141 122.5q91 95 91 203q0 75 -47 121.5t-128 46.5q-71 0 -121.5 -43.5t-50.5 -115.5q0 -63 49 -120l-82 10q-25 62 -25 116q0 88 59.5 147t171.5 59q34 0 67 -7t64.5 -24t55.5 -42.5t38.5 -64.5t14.5 -87q0 -79 -48 -155q-39 -63 -119.5 -132.5 t-132 -103.5t-78.5 -49h354v-55h-446z"/>
<glyph glyph-name="three" horiz-adv-x="583" unicode="3" d="M174 339v55h100q172 0 172 132q0 69 -47 105t-109 36q-74 0 -112.5 -38t-48.5 -81q-3 -12 -3 -38l-70 19q46 191 234 191q95 0 156 -50q63 -51 63 -146q0 -104 -80 -138q-24 -10 -74 -17q46 -2 80 -18q35 -16 62 -53.5t27 -100.5q0 -101 -68 -155.5t-168 -54.5 q-80 0 -131 30t-76 69q-31 49 -38 116l67 22q0 -94 48.5 -137t130.5 -43q49 0 84.5 14.5t52.5 38.5t24 47t7 48q0 77 -49 116q-19 14 -44 21.5t-42.5 8.5t-49.5 1h-98z"/>
<glyph glyph-name="four" horiz-adv-x="583" unicode="4" d="M371 232v375l-246 -375h246zM542 177h-110v-177h-61v177h-315v51l310 478h66v-474h110v-55z"/>
<glyph glyph-name="five" horiz-adv-x="583" unicode="5" d="M472 706v-59h-315l-14 -243q18 36 56.5 60.5t100.5 24.5q97 0 160.5 -67t63.5 -180q0 -110 -63 -183t-174 -73q-98 0 -159.5 51.5t-74.5 148.5l65 19q1 -71 44.5 -117t122.5 -46q85 0 129 54.5t44 143.5q0 82 -42 139t-125 57q-55 0 -97.5 -35.5t-55.5 -99.5l-51 6 q11 374 12 399h373z"/>
<glyph glyph-name="six" horiz-adv-x="583" unicode="6" d="M124 249q0 -23 4.5 -48t17.5 -54t32.5 -52t52.5 -38t74 -15q51 0 87.5 20t53 52t23.5 59.5t7 54.5q0 91 -45.5 141t-122.5 50q-70 0 -127 -45.5t-57 -124.5zM535 564l-66 -23q-2 21 -8.5 39.5t-21 39t-44 32.5t-70.5 12q-47 0 -82.5 -17t-56.5 -43t-35 -66.5t-20 -77 t-10 -84.5q68 97 192 97q87 0 147 -48q82 -66 82 -197q0 -106 -63.5 -173.5t-175.5 -67.5q-246 0 -246 344q0 202 76 299q70 90 190 90q89 0 140.5 -44t71.5 -112z"/>
<glyph glyph-name="seven" horiz-adv-x="583" unicode="7" d="M511 706v-59q-64 -87 -106 -163q-40 -73 -68 -147t-42.5 -143t-20 -105.5t-10.5 -88.5h-67q16 254 154 490q34 59 103 157h-334v-158h-57v217h448z"/>
<glyph glyph-name="eight" horiz-adv-x="583" unicode="8" d="M112 197q0 -36 15.5 -69t58 -58.5t106.5 -25.5q85 0 132.5 42.5t47.5 111.5q0 62 -49 105t-131 43q-73 0 -126.5 -38.5t-53.5 -110.5zM135 531q0 -59 47.5 -94.5t112.5 -35.5q24 0 49 5.5t51 19t42.5 41.5t16.5 66q0 52 -37.5 92t-122.5 40q-84 0 -121.5 -42t-37.5 -92z M396 376q50 -13 96 -60.5t46 -122.5q0 -90 -67.5 -148t-177.5 -58q-122 0 -185 63t-63 147q0 59 36.5 108.5t108.5 70.5q-44 16 -81 55.5t-37 102.5q0 78 58 132t164 54q97 0 160.5 -49t63.5 -134q0 -64 -34 -105.5t-88 -55.5z"/>
<glyph glyph-name="nine" horiz-adv-x="583" unicode="9" d="M107 476q0 -78 39.5 -132t130.5 -54q82 0 131.5 48.5t49.5 113.5q0 88 -47.5 152t-136.5 64q-79 0 -123 -52t-44 -140zM50 143l69 25q13 -126 144 -126q50 0 86.5 18.5t56.5 45t33 70.5t17 79t7 88q-25 -49 -75 -79t-121 -30q-96 0 -161.5 65t-65.5 176q0 108 64 176.5 t171 68.5q252 0 252 -347q0 -386 -267 -386q-162 0 -210 156z"/>
<glyph glyph-name="colon" horiz-adv-x="208" unicode=":" d="M165 0h-79v116h79v-116zM165 352h-79v116h79v-116z"/>
<glyph glyph-name="semicolon" horiz-adv-x="208" unicode=";" d="M86 116h79v-115q0 -51 -9.5 -84t-37.5 -75l-32 23q23 37 30.5 64t7.5 71h-38v116zM165 352h-79v116h79v-116z"/>
<glyph glyph-name="less" horiz-adv-x="724" unicode="&lt;" d="M580 20l-466 236v68l466 239v-64l-409 -208l409 -206v-65z"/>
<glyph glyph-name="equal" horiz-adv-x="724" unicode="=" d="M625 173h-526v58h526v-58zM625 349h-526v59h526v-59z"/>
<glyph glyph-name="greater" horiz-adv-x="724" unicode="&gt;" d="M610 257l-465 -240v65l409 208l-409 206v64l465 -236v-67z"/>
<glyph glyph-name="question" horiz-adv-x="479" unicode="?" d="M284 0h-78v116h78v-116zM213 169v35q0 37 8 62t35 53q11 11 45.5 43.5t49.5 49.5t31 49t16 64q0 11 -4 27.5t-15.5 43.5t-42.5 45t-76 18q-63 0 -97.5 -39t-34.5 -96q0 -51 25 -97l-75 22q-11 51 -11 81q0 50 17 87t40 55.5t53.5 29.5t49 13.5t35.5 2.5q94 0 147 -58 t53 -141q0 -58 -31 -107q-8 -13 -20.5 -27.5t-22.5 -24t-28 -26.5t-24 -23q-40 -39 -50.5 -59t-10.5 -47v-36h-62z"/>
<glyph glyph-name="at" horiz-adv-x="896" unicode="@" d="M548 352q0 45 -24 77.5t-68 32.5q-46 0 -81 -41t-50.5 -91t-15.5 -94q0 -46 22 -77.5t65 -31.5q47 0 83.5 39.5t52.5 89.5t16 96zM585 492h59l-32 -146q-1 -5 -9.5 -41t-11 -49t-6 -39.5t-3.5 -47.5q0 -19 9.5 -34t27.5 -15q24 0 56 30q49 44 77.5 122t28.5 151 q0 115 -69.5 180t-185.5 65q-113 0 -208.5 -61t-149.5 -161t-54 -212q0 -146 95 -229.5t243 -83.5q93 0 181.5 38.5t156.5 106.5l27 -32q-171 -158 -365 -158q-164 0 -273.5 97.5t-109.5 259.5q0 126 60.5 236t167 176.5t233.5 66.5q134 0 215.5 -77t81.5 -211 q0 -140 -73 -246t-155 -106q-80 0 -80 93q-63 -92 -151 -92q-64 0 -95.5 46t-31.5 113q0 63 24 126.5t73.5 110t111.5 46.5q84 0 119 -95z"/>
<glyph glyph-name="A" horiz-adv-x="646" unicode="A" d="M461 267l-136 361l-138 -361h274zM635 0h-73l-81 213h-316l-81 -213h-74l288 706h56z"/>
<glyph glyph-name="B" horiz-adv-x="667" unicode="B" d="M148 61h251q74 0 117 34.5t43 101.5q0 84 -71 126q-44 26 -144 26h-196v-288zM148 646v-239h229q82 0 119 34t37 90q0 41 -21 69q-16 21 -43.5 32t-47 12.5t-54.5 1.5h-219zM81 706h317q119 0 171 -71q34 -46 34 -105q0 -51 -32 -96t-95 -54q72 -14 111 -61t39 -120 q0 -122 -96 -172q-51 -27 -158 -27h-291v706z"/>
<glyph glyph-name="C" horiz-adv-x="667" unicode="C" d="M625 541l-68 -34q-15 68 -63 113t-141 45q-50 0 -89 -15.5t-63.5 -43t-41.5 -59t-25 -68.5t-11 -65.5t-3 -56.5q0 -315 246 -315q74 0 123 40.5t68 109.5l63 -38q-43 -89 -104.5 -130.5t-157.5 -41.5q-72 0 -127.5 23.5t-89 59.5t-54.5 86.5t-29 98t-8 99.5q0 49 7 95.5 t27.5 99t52.5 91t87.5 64t126.5 25.5q61 0 108 -14.5t78.5 -42t51 -57t36.5 -69.5z"/>
<glyph glyph-name="D" horiz-adv-x="688" unicode="D" d="M149 645v-585h106q142 0 188 22q65 30 96 108t31 163q0 31 -6 67.5t-20 80t-44 79.5t-72 51q-39 14 -155 14h-124zM81 706h219q44 0 70 -2t59 -9t60.5 -23.5t53.5 -43.5q95 -100 95 -273q0 -170 -93 -272q-41 -45 -91 -64q-33 -13 -70.5 -16t-118.5 -3h-184v706z"/>
<glyph glyph-name="E" horiz-adv-x="604" unicode="E" d="M567 0h-486v706h461v-61h-394v-252h357v-62h-357v-269h419v-62z"/>
<glyph glyph-name="F" horiz-adv-x="562" unicode="F" d="M543 647h-397v-239h356v-58h-356v-350h-65v706h462v-59z"/>
<glyph glyph-name="G" horiz-adv-x="708" unicode="G" d="M304 369h318v-369h-58v118q-28 -71 -85 -103.5t-128 -32.5q-78 0 -138 31t-94.5 84t-51.5 116t-17 135q0 52 9 101.5t32 100t58 88.5t91 62t127 24q51 0 93 -13.5t67.5 -31t47.5 -45.5t31.5 -45.5t20.5 -43.5l-63 -34q-18 68 -64.5 112.5t-126.5 44.5q-108 0 -180 -81 t-72 -236q0 -149 63 -229t170 -80q20 0 38.5 2.5t52.5 17t58 40.5t42.5 79.5t18.5 126.5h-260v61z"/>
<glyph glyph-name="H" horiz-adv-x="729" unicode="H" d="M648 0h-67v331h-434v-331h-66v706h66v-315h434v315h67v-706z"/>
<glyph glyph-name="I" horiz-adv-x="229" unicode="I" d="M148 0h-67v706h67v-706z"/>
<glyph glyph-name="J" horiz-adv-x="500" unicode="J" d="M353 706h66v-490q0 -54 -8 -92.5t-28 -72t-60.5 -50.5t-100.5 -17q-154 0 -195 117q-4 13 -7.5 29.5t-4.5 27.5t-1.5 23t-0.5 13l71 16q-1 -11 -1 -33q0 -66 32 -98q37 -36 113 -36q72 0 103 48q22 35 22 132v483z"/>
<glyph glyph-name="K" horiz-adv-x="667" unicode="K" d="M649 0h-82l-264 382l-154 -155v-227h-68v706h68v-394l384 394h92l-276 -280z"/>
<glyph glyph-name="L" horiz-adv-x="562" unicode="L" d="M539 0h-458v706h68v-644h390v-62z"/>
<glyph glyph-name="M" horiz-adv-x="792" unicode="M" d="M711 0h-66l5 600l-230 -600h-46l-235 600q8 -588 8 -600h-66v706h79l239 -599l229 599h83v-706z"/>
<glyph glyph-name="N" horiz-adv-x="708" unicode="N" d="M627 0h-66l-414 610v-610h-66v706h66l419 -604q-5 589 -5 604h66v-706z"/>
<glyph glyph-name="O" horiz-adv-x="708" unicode="O" d="M121 353q0 -27 3.5 -55t11.5 -65.5t25 -69.5t41.5 -60t63 -44.5t87.5 -16.5q52 0 94 20.5t67.5 53t42.5 76t23.5 86t6.5 86.5q0 36 -6 73.5t-22.5 79.5t-41 74t-66.5 53.5t-95 21.5q-63 0 -110 -28t-73.5 -75t-39 -100t-12.5 -110zM50 355q0 44 7 89t28 97t53.5 91.5 t89 65.5t128.5 26q141 0 221.5 -96t80.5 -266q0 -71 -16.5 -136t-51 -121t-95 -89.5t-139.5 -33.5q-69 0 -124 24.5t-88 62.5t-55 89t-30.5 99.5t-8.5 97.5z"/>
<glyph glyph-name="P" horiz-adv-x="625" unicode="P" d="M145 650v-273h247q156 0 156 137q0 47 -20 80q-22 36 -56 46t-88 10h-239zM81 706h283q92 0 133 -11.5t70 -44.5q46 -53 46 -137q0 -75 -40 -128q-34 -44 -86 -55.5t-155 -11.5h-187v-318h-64v706z"/>
<glyph glyph-name="Q" horiz-adv-x="708" unicode="Q" d="M592 349q0 36 -4.5 72.5t-19.5 82.5t-39.5 80.5t-68 58t-101.5 23.5q-66 0 -115.5 -30.5t-75 -80t-37 -101.5t-11.5 -106q0 -33 4.5 -67.5t19.5 -80t39.5 -79.5t69 -58t103.5 -24q110 0 173 84t63 226zM695 29l-42 -45l-89 82q-84 -84 -208 -84q-67 0 -121 23t-88 60 t-56.5 86t-31.5 97t-9 98q0 165 83 271.5t229 106.5q65 0 117 -23t85 -59.5t55.5 -85t31.5 -97t9 -98.5q0 -140 -60 -244z"/>
<glyph glyph-name="R" horiz-adv-x="646" unicode="R" d="M149 646v-275h211q175 0 175 136q0 45 -21 79q-22 37 -58 48.5t-89 11.5h-218zM81 706h274q144 0 201 -69q45 -54 45 -133q0 -90 -60 -140.5t-149 -50.5l229 -313h-84l-223 313h-165v-313h-68v706z"/>
<glyph glyph-name="S" horiz-adv-x="604" unicode="S" d="M561 569l-62 -33q-12 38 -29 61q-50 72 -154 72q-84 0 -125 -37.5t-41 -88.5q0 -32 12.5 -55.5t38.5 -38.5t45.5 -22t53.5 -16l68 -18q102 -27 154.5 -74t52.5 -126q0 -98 -87 -161q-72 -50 -176 -50q-222 0 -263 196l67 35q2 -50 16 -79q18 -39 62.5 -66t117.5 -27 q93 0 144 43t51 107q0 57 -36 89t-114 52l-81 21q-30 8 -51.5 15t-50 22.5t-46 34t-30.5 49t-13 67.5q0 79 59 131t174 52q186 0 243 -155z"/>
<glyph glyph-name="T" horiz-adv-x="542" unicode="T" d="M527 647h-223v-647h-67v647h-222v59h512v-59z"/>
<glyph glyph-name="U" horiz-adv-x="688" unicode="U" d="M608 706v-443q0 -281 -264 -281q-28 0 -54.5 3.5t-67.5 19t-70 42t-50.5 79t-21.5 123.5v457h66v-475q0 -56 19 -95.5t50.5 -58t63 -26t66.5 -7.5q97 0 146.5 48.5t49.5 155.5v458h67z"/>
<glyph glyph-name="V" horiz-adv-x="604" unicode="V" d="M594 706l-265 -706h-60l-259 706h74l217 -614l222 614h71z"/>
<glyph glyph-name="W" horiz-adv-x="875" unicode="W" d="M864 706l-201 -706h-54l-169 571l-168 -571h-53l-209 706h72l166 -586l168 586h46l174 -586l161 586h67z"/>
<glyph glyph-name="X" horiz-adv-x="667" unicode="X" d="M646 0h-83l-228 338l-237 -338h-77l268 380l-231 326h85l192 -285l196 285h81l-232 -326z"/>
<glyph glyph-name="Y" horiz-adv-x="625" unicode="Y" d="M615 706l-276 -414v-292h-66v292l-263 414h79l218 -351l227 351h81z"/>
<glyph glyph-name="Z" horiz-adv-x="583" unicode="Z" d="M554 660l-430 -600h424v-60h-519v44l435 602h-409v60h499v-46z"/>
<glyph glyph-name="bracketleft" horiz-adv-x="271" unicode="[" d="M244 -144h-170v923h170v-51h-109v-822h109v-50z"/>
<glyph glyph-name="backslash" horiz-adv-x="479" unicode="\" d="M469 0h-74l-385 706h76z"/>
<glyph glyph-name="bracketright" horiz-adv-x="271" unicode="]" d="M196 -143h-170v50h109v823h-109v50h170v-923z"/>
<glyph glyph-name="asciicircum" horiz-adv-x="724" unicode="^" d="M596 289h-64l-170 360l-170 -360h-64l199 417h68z"/>
<glyph glyph-name="underscore" horiz-adv-x="500" unicode="_" d="M510 -206h-520v59h520v-59z"/>
<glyph glyph-name="grave" horiz-adv-x="271" unicode="`" d="M248 558h-53l-172 140h112z"/>
<glyph glyph-name="a" horiz-adv-x="500" unicode="a" d="M364 216v36l-30 -8q-147 -39 -172 -49q-54 -23 -59 -61q-1 -6 -1 -13q0 -30 24 -54.5t72 -24.5q46 0 91 25t62 65q13 29 13 84zM492 0h-12q-61 0 -88.5 19t-27.5 68q-10 -34 -54.5 -65.5t-114.5 -31.5q-72 0 -111 37.5t-39 92.5q0 67 55 101.5t184 63.5l80 18v37 q0 41 -25.5 69t-85.5 28q-71 0 -100 -27.5t-29 -87.5l-65 11q9 74 57.5 115t129.5 41q175 0 175 -144v-209q0 -53 10 -71t51 -18h10v-47z"/>
<glyph glyph-name="b" d="M132 240q0 -34 5.5 -64t19.5 -62.5t44 -52t73 -19.5q67 0 103.5 48.5t36.5 138.5q0 89 -36 147t-109 58q-67 0 -102 -50t-35 -144zM75 706h57v-310q15 34 52 62.5t94 28.5q51 0 91 -23t62.5 -61t34 -82t11.5 -90q0 -40 -9 -78.5t-29.5 -77.5t-61 -62.5t-96.5 -23.5 q-108 0 -149 96v-85h-57v706z" unicode="b"/>
<glyph glyph-name="c" horiz-adv-x="479" unicode="c" d="M394 120l60 -14q-56 -118 -191 -118q-100 0 -159.5 68t-59.5 179q0 116 63.5 185t165.5 69q136 0 181 -120l-55 -13q-15 39 -50 59.5t-79 20.5q-78 0 -120 -57t-42 -141q0 -86 39.5 -142t117.5 -56q86 0 129 80z"/>
<glyph glyph-name="d" d="M108 239q0 -99 40.5 -146.5t101.5 -47.5q62 0 100.5 46t38.5 139v26q0 56 -14 94t-37 54.5t-43 22.5t-42 6q-67 0 -106 -52.5t-39 -141.5zM446 0h-58v86q-16 -46 -56.5 -71.5t-90.5 -25.5q-88 0 -142.5 71t-54.5 179t56.5 178t149.5 70q48 0 86.5 -23t51.5 -63v305h58 v-706z" unicode="d"/>
<glyph glyph-name="e" d="M110 287h301q-5 44 -21 75t-39 46t-44.5 21.5t-43.5 6.5q-69 0 -108 -45t-45 -104zM109 238v-14q0 -30 7 -59t23.5 -58t50 -47t79.5 -18q104 0 155 100l55 -16q-62 -138 -207 -138q-55 0 -98 19t-66.5 46.5t-38.5 64t-20 66.5t-5 59q0 116 65 181t155 65q97 0 156 -72 t59 -170v-9h-370z" unicode="e"/>
<glyph glyph-name="f" horiz-adv-x="313" unicode="f" d="M295 427h-108v-427h-59v427h-105v50h105v132q0 21 2.5 36t12 34.5t32.5 30t59 10.5q22 0 61 -7v-58q-36 13 -57 13q-51 0 -51 -66v-125h108v-50z"/>
<glyph glyph-name="g" horiz-adv-x="542" unicode="g" d="M104 243q0 -90 38 -145t114 -55q82 0 116.5 52.5t34.5 150.5q0 190 -148 190q-70 0 -112.5 -50t-42.5 -143zM409 477h57v-507q0 -34 -4 -61t-17.5 -57t-35.5 -50t-61.5 -33t-93.5 -13q-105 0 -154 50.5t-52 119.5l62 11q3 -21 6.5 -34.5t13.5 -33.5t25 -32t42.5 -21 t64.5 -9q85 0 116 44.5t31 144.5v96q-2 -11 -10.5 -26t-25.5 -33t-49 -30.5t-73 -12.5q-94 0 -150.5 68.5t-56.5 182.5q0 124 60 185t148 61q56 0 100.5 -27t56.5 -71v88z"/>
<glyph glyph-name="h" d="M445 0h-58v302q0 131 -112 131q-84 0 -120 -67q-13 -26 -16.5 -58t-3.5 -102v-206h-60v706h60v-305q42 86 148 86q87 0 131 -59q19 -26 25 -59t6 -100v-269z" unicode="h"/>
<glyph glyph-name="i" horiz-adv-x="208" unicode="i" d="M133 0h-58v477h58v-477zM133 589h-58v91h58v-91z"/>
<glyph glyph-name="j" horiz-adv-x="208" unicode="j" d="M75 477h58v-586q0 -79 -16 -107q-22 -40 -79 -40q-47 0 -86 20v56l10 -6q34 -18 69 -18q30 0 37 17t7 67v597zM133 589h-58v91h58v-91z"/>
<glyph glyph-name="k" horiz-adv-x="500" unicode="k" d="M489 0h-72l-182 247l-102 -97v-150h-58v706h58v-480l268 251h74l-199 -190z"/>
<glyph glyph-name="l" horiz-adv-x="208" unicode="l" d="M134 0h-60v706h60v-706z"/>
<glyph glyph-name="m" horiz-adv-x="771" unicode="m" d="M696 0h-59v299q0 49 -6 75t-27 42q-22 17 -59 17q-76 0 -112 -77q-13 -27 -16 -58t-3 -99v-199h-58v265q0 99 -15 127q-23 41 -77 41q-71 0 -106 -64q-16 -30 -20 -65t-4 -112v-192h-59v477h59v-99q8 52 49.5 80.5t92.5 28.5t80.5 -22.5t40.5 -49.5q8 -19 10 -47 q8 30 19 48q38 71 130 71q53 0 86 -24q36 -25 45 -68t9 -136v-259z"/>
<glyph glyph-name="n" d="M446 0h-59v248q0 102 -11 130q-22 56 -99 56q-71 0 -107 -45.5t-36 -115.5v-273h-59v477h59v-85q2 7 6 15t15.5 23.5t26.5 27t42 20.5t60 9q60 0 95 -25t50 -57q17 -36 17 -134v-271z" unicode="n"/>
<glyph glyph-name="o" d="M414 241q0 104 -44.5 151t-108.5 47q-69 0 -111.5 -52t-42.5 -154t44 -147.5t108 -45.5t109.5 48t45.5 153zM477 241q0 -124 -65.5 -188.5t-153.5 -64.5q-94 0 -154 66t-60 179t58.5 184.5t159.5 71.5q104 0 158.5 -73.5t56.5 -174.5z" unicode="o"/>
<glyph glyph-name="p" d="M133 245v-24q0 -104 52 -147q33 -28 83 -28q52 0 86.5 31.5t48 74.5t13.5 93q0 48 -13.5 88.5t-48.5 70t-87 29.5q-41 0 -69 -18.5t-41.5 -49t-18.5 -59.5t-5 -61zM75 477h58v-78q15 35 49.5 61.5t94.5 26.5q49 0 87 -20t58.5 -48t33.5 -64.5t17 -64.5t4 -53t-4.5 -54 t-18.5 -64.5t-35 -63.5t-58 -47t-84 -19q-57 0 -93.5 27t-50.5 64v-333h-58v730z" unicode="p"/>
<glyph glyph-name="q" horiz-adv-x="500" unicode="q" d="M389 238q0 124 -56 168q-35 27 -81 27q-75 0 -111 -57t-36 -132q0 -82 38.5 -141t110.5 -59q43 0 75 25q58 46 60 169zM445 -253h-57v335q-13 -30 -33.5 -50.5t-44 -29t-39 -11t-29.5 -2.5q-82 0 -140 67.5t-58 185.5q0 117 56.5 181t143.5 64q48 0 88.5 -22t55.5 -64v76 h57v-730z"/>
<glyph glyph-name="r" horiz-adv-x="313" unicode="r" d="M75 477h59v-76q37 83 131 83q24 0 41 -2v-53q-18 3 -38 3q-134 0 -134 -171v-261h-59v477z"/>
<glyph glyph-name="s" horiz-adv-x="458" unicode="s" d="M34 116l58 20q8 -34 41 -64t92 -30q63 0 92.5 28t29.5 65q0 32 -23 53t-80 33l-56 12q-124 27 -124 119q0 60 41 97q44 40 130 40q73 0 117 -31q40 -28 52 -77l-56 -15q-8 38 -41 54.5t-75 16.5q-64 0 -87 -24.5t-23 -55.5q0 -20 9 -34.5t26.5 -22.5t30.5 -12t34 -8 l50 -10q132 -27 132 -139q0 -52 -44 -97.5t-134 -45.5q-138 0 -192 128z"/>
<glyph glyph-name="t" horiz-adv-x="292" unicode="t" d="M172 427v-326q0 -58 39 -58q24 0 66 30v-60q-29 -22 -79 -22q-61 0 -76 43q-7 20 -7 78v315h-100v50h100v203h57v-203h105v-50h-105z"/>
<glyph glyph-name="u" d="M446 0h-59v86q-43 -97 -152 -97q-51 0 -91.5 26.5t-55.5 74.5q-13 43 -13 153v234h60v-247q0 -85 8 -116q19 -70 99 -70q74 0 113 53q32 44 32 139v241h59v-477z" unicode="u"/>
<glyph glyph-name="v" horiz-adv-x="417" unicode="v" d="M348 477h58l-183 -477h-48l-165 477h59l132 -388z"/>
<glyph glyph-name="w" horiz-adv-x="688" unicode="w" d="M667 477l-151 -477h-49l-118 393l-117 -393h-50l-161 477h57l128 -385l117 385h50l118 -385l119 385h57z"/>
<glyph glyph-name="x" horiz-adv-x="458" unicode="x" d="M436 0h-67l-140 203l-145 -203h-63l175 248l-161 229h69l125 -182l129 182h63l-160 -229z"/>
<glyph glyph-name="y" horiz-adv-x="437" unicode="y" d="M367 477h60l-225 -570q-18 -47 -26.5 -66.5t-24 -43t-33.5 -31.5t-44 -8q-36 0 -63 19v60q33 -23 62 -23q24 0 35.5 15t28.5 57l44 114l-165 477h57l139 -406z"/>
<glyph glyph-name="z" horiz-adv-x="396" unicode="z" d="M376 0h-348v37l258 389h-236v51h319v-35l-258 -389h265v-53z"/>
<glyph glyph-name="braceleft" horiz-adv-x="268" unicode="{" d="M255 -148h-12q-74 0 -106.5 31t-32.5 108v195q0 64 -15 82t-70 24v51q52 6 68.5 24t16.5 80v190q0 33 3.5 55t15 45t37.5 34.5t67 11.5h28v-49h-21q-25 0 -39.5 -6t-20.5 -21t-7.5 -27.5t-1.5 -37.5v-190q0 -62 -16 -89t-65 -46q46 -14 63.5 -43t17.5 -91v-185 q0 -62 14.5 -79.5t63.5 -17.5h12v-49z"/>
<glyph glyph-name="bar" horiz-adv-x="229" unicode="|" d="M144 -143h-61v921h61v-921z"/>
<glyph glyph-name="braceright" horiz-adv-x="268" unicode="}" d="M12 783h12q75 0 107.5 -31t32.5 -108v-195q0 -64 15 -82t69 -24v-51q-52 -6 -68 -24t-16 -80v-190q0 -25 -2 -44t-10 -39t-21 -33t-36 -21.5t-55 -8.5h-28v49h21q25 0 39.5 6t20.5 21t7.5 27.5t1.5 37.5v190q0 62 16 89t65 46q-46 14 -63.5 43t-17.5 91v185 q0 62 -14.5 79.5t-63.5 17.5h-12v49z"/>
<glyph glyph-name="asciitilde" horiz-adv-x="724" unicode="~" d="M610 359l40 -41q-43 -54 -81.5 -76.5t-83.5 -22.5t-119 37l-36 18q-60 30 -104 30q-28 0 -47 -14t-64 -65l-40 41q38 54 74.5 77.5t82.5 23.5q29 0 52.5 -7.5t85.5 -34.5l41 -18q57 -25 79 -25q30 0 56.5 16.5t63.5 60.5z"/>
<glyph glyph-name="uni00A0" horiz-adv-x="258" unicode=" "/>
<glyph glyph-name="exclamdown" horiz-adv-x="208" unicode="¡" d="M117 0h-65v405l9 131h47l9 -131v-405zM122 596h-75v116h75v-116z"/>
<glyph glyph-name="cent" horiz-adv-x="479" unicode="¢" d="M240 42v391q-72 -16 -102 -71.5t-30 -124.5q0 -20 2.5 -42.5t18.5 -62t43 -61.5q22 -18 68 -29zM454 369l-55 -14q-24 67 -109 80v-393q29 5 51 19t31.5 26.5t21.5 32.5l60 -13q-16 -42 -57 -77t-107 -41v-102h-50v102q-68 7 -113.5 46t-64 90.5t-18.5 111.5t18 108 t47.5 77t62.5 45t68 20v93h50v-92q13 0 31 -4t45 -14.5t51 -36.5t37 -64z"/>
<glyph glyph-name="sterling" horiz-adv-x="604" unicode="£" d="M229 74q-40 25 -89 25q-46 0 -46 -26q0 -29 48 -29q54 0 87 30zM499 188l66 -7q0 -3 -1.5 -24.5t-3.5 -33.5t-7 -34t-14 -35.5t-22.5 -28t-35.5 -21.5t-50 -7q-17 0 -32.5 2.5t-34.5 9.5t-26.5 10t-32 16t-28.5 15q-54 -55 -129 -55q-55 0 -80.5 24t-25.5 56 q0 29 24 52.5t74 23.5q60 0 110 -28q19 42 19 73q0 46 -40 86h-132v52h93q-54 48 -86.5 93.5t-32.5 98.5q0 76 63.5 128t159.5 52q91 0 155.5 -47.5t72.5 -141.5l-66 -13q-2 38 -12 61q-15 32 -53 56.5t-99 24.5q-60 0 -106 -31t-46 -88q0 -29 15.5 -57.5t35 -48t46.5 -46 t40 -41.5h152v-52h-121q27 -42 27 -90q0 -50 -26 -88q93 -48 127 -48q36 0 49.5 31.5t13.5 100.5z"/>
<glyph glyph-name="currency" horiz-adv-x="667" unicode="¤" d="M527 339q0 85 -55 141.5t-138 56.5q-82 0 -138.5 -57t-56.5 -140q0 -85 56.5 -141.5t141.5 -56.5q81 0 135.5 56.5t54.5 140.5zM610 569l-74 -74q54 -70 54 -156q0 -82 -55 -157l74 -75l-46 -45l-74 75q-71 -54 -157 -54q-46 0 -79.5 11.5t-75.5 42.5l-75 -73l-45 45 l75 73q-55 76 -55 159q0 82 55 155l-73 73l45 45l73 -72q74 54 156 54q95 0 157 -54l74 73z"/>
<glyph glyph-name="yen" horiz-adv-x="625" unicode="¥" d="M615 706l-205 -307h157v-56h-194l-34 -53h228v-56h-228v-234h-66v234h-215v56h215l-32 53h-183v56h147l-195 307h79l218 -348l227 348h81z"/>
<glyph glyph-name="brokenbar" horiz-adv-x="229" unicode="¦" d="M145 -143h-61v396h61v-396zM145 383h-61v395h61v-395z"/>
<glyph glyph-name="section" d="M442 697l-46 -45q-41 35 -74 52.5t-74 17.5q-38 0 -62.5 -20.5t-24.5 -58.5q0 -32 32 -56t78.5 -42t92.5 -39.5t78 -59.5t32 -90q0 -104 -104 -157q41 -23 61 -51.5t20 -72.5q0 -74 -55.5 -115.5t-131.5 -41.5q-130 0 -225 98l47 46q35 -36 84.5 -58.5t98.5 -22.5 q46 0 80.5 24t34.5 68q0 13 -4 24t-12.5 20.5t-16 16.5t-22 14t-22 11t-24 10.5t-20.5 8.5q-123 54 -168 96t-45 101q0 53 32 95.5t83 59.5q-70 47 -70 113q0 54 42 97t115 43q92 0 190 -86zM216 499q-42 -18 -71.5 -50t-29.5 -72q0 -28 22 -53q18 -20 83 -52.5t102 -44.5 q33 18 60.5 53.5t27.5 69.5q0 38 -27 66q-33 35 -167 83z" unicode="§"/>
<glyph glyph-name="dieresis" horiz-adv-x="271" unicode="¨" d="M80 582h-61v92h61v-92zM252 582h-61v92h61v-92z"/>
<glyph glyph-name="copyright" horiz-adv-x="833" unicode="©" d="M740 352q0 137 -93 231t-229 94t-230.5 -94.5t-94.5 -230.5q0 -134 94.5 -228.5t229.5 -94.5q134 0 228.5 94.5t94.5 228.5zM773 358q0 -152 -103 -256.5t-253 -104.5t-253 103t-103 253q0 151 103 253.5t254 102.5q147 0 251 -103t104 -248zM553 282l53 -6 q-17 -76 -65 -116.5t-121 -40.5q-90 0 -144 62t-54 164q0 107 57.5 174t149.5 67q137 0 173 -138l-54 -12q-16 53 -45 76.5t-79 23.5q-68 0 -106 -49t-38 -137q0 -85 38 -132.5t106 -47.5q104 0 129 112z"/>
<glyph glyph-name="ordfeminine" horiz-adv-x="313" unicode="ª" d="M221 559l-89 -25q-60 -16 -60 -48q0 -18 13 -31t40 -13q37 0 66.5 25t29.5 64v28zM309 406h-10q-71 0 -76 41q-29 -47 -100 -47q-50 0 -73.5 26t-23.5 57q0 21 10 38t22 27t39 19.5t42.5 13.5t50.5 12l31 7v11q0 62 -65 62q-25 0 -41 -6t-22 -18.5t-7.5 -22t-1.5 -25.5 l-50 9q6 54 39 79t81 25t79.5 -21t31.5 -65v-125q0 -25 1 -34.5t8 -16.5t23 -7h12v-39z"/>
<glyph glyph-name="guillemotleft" horiz-adv-x="375" unicode="«" d="M204 168l-48 -31l-118 172l118 185l48 -30l-100 -155zM339 168l-47 -31l-119 172l119 185l47 -30l-99 -155z"/>
<glyph glyph-name="logicalnot" horiz-adv-x="724" unicode="¬" d="M637 0h-61v263h-505v60h566v-323z"/>
<glyph glyph-name="uni00AD" horiz-adv-x="341" unicode="­" d="M303 264h-265v60h265v-60z"/>
<glyph glyph-name="registered" horiz-adv-x="833" unicode="®" d="M740 352q0 137 -93 231t-229 94t-230.5 -94.5t-94.5 -230.5q0 -134 94.5 -228.5t229.5 -94.5q134 0 228.5 94.5t94.5 228.5zM773 358q0 -152 -103 -256.5t-253 -104.5t-253 103t-103 253q0 151 103 253.5t254 102.5q147 0 251 -103t104 -248zM339 529v-156h78q47 0 67 18 t20 61q0 44 -20.5 60.5t-73.5 16.5h-71zM564 128h-59l-92 198h-74v-198h-54v450h133q140 0 140 -126q0 -102 -89 -120z"/>
<glyph glyph-name="macron" horiz-adv-x="271" unicode="¯" d="M272 582h-273v62h273v-62z"/>
<glyph glyph-name="degree" horiz-adv-x="354" unicode="°" d="M263 601q0 36 -25 61.5t-61 25.5t-61.5 -25.5t-25.5 -61.5t25.5 -61.5t61.5 -25.5t61 25.5t25 61.5zM324 601q0 -61 -43 -104t-104 -43t-104 43t-43 104t43 104t104 43q60 0 103.5 -43.5t43.5 -103.5z"/>
<glyph glyph-name="plusminus" horiz-adv-x="724" unicode="±" d="M630 0h-536v60h536v-60zM630 348h-238v-229h-60v229h-238v60h238v228h60v-228h238v-60z"/>
<glyph glyph-name="twosuperior" horiz-adv-x="375" unicode="²" d="M324 309v-44h-283v42q159 99 214 173q32 45 32 94q0 46 -28 72t-72 26q-53 0 -77 -30t-24 -63q0 -9 2 -18.5t5 -16t8 -14.5t7.5 -11.5t8 -10.5t6.5 -8l-66 8q-17 45 -17 74q0 64 43 98t104 34q66 0 108.5 -38t42.5 -104q0 -39 -19 -77.5t-54.5 -73t-66.5 -58.5t-76 -54 h202z"/>
<glyph glyph-name="threesuperior" horiz-adv-x="375" unicode="³" d="M110 473v44h57q22 0 36.5 2t33.5 8t29 22t10 41q0 40 -25.5 61.5t-64.5 21.5q-50 0 -72.5 -29.5t-22.5 -58.5v-9l-54 14q6 24 14 41.5t24 39t44 33t67 11.5q60 0 100 -31.5t40 -93.5q0 -72 -68 -93q32 -7 54.5 -34.5t22.5 -70.5q0 -28 -11.5 -56.5t-47 -53t-88.5 -24.5 q-111 0 -146 88q-10 23 -12 52l52 17v-11q0 -32 11 -54t29 -31t33 -12.5t30 -3.5q52 0 75 25.5t23 58.5q0 86 -90 86h-83z"/>
<glyph glyph-name="acute" horiz-adv-x="271" unicode="´" d="M247 698l-170 -140h-53l112 140h111z"/>
<glyph glyph-name="mu" horiz-adv-x="536" unicode="µ" d="M389 471h61v-357q0 -44 6.5 -58.5t26.5 -14.5q12 0 27 7v-50q-20 -6 -37 -6q-40 0 -59 19t-21 62q-25 -45 -56.5 -65t-78.5 -20q-73 0 -117 59q4 -244 4 -263h-64v687h61v-246q0 -98 23 -133q14 -22 39.5 -35t53.5 -13q74 0 111 72q20 39 20 128v227z"/>
<glyph glyph-name="paragraph" horiz-adv-x="643" unicode="¶" d="M518 662h-33v-829h-46v829h-157v-829h-46v498q-72 9 -114.5 57.5t-42.5 124.5q0 88 56.5 140.5t161.5 52.5h221v-44z"/>
<glyph glyph-name="periodcentered" horiz-adv-x="187" unicode="·" d="M134 236h-81v108h81v-108z"/>
<glyph glyph-name="cedilla" horiz-adv-x="271" unicode="¸" d="M107 0h24l-24 -47q12 3 29 3q30 -1 49.5 -17.5t19.5 -46.5q0 -39 -30.5 -60.5t-71.5 -21.5q-19 0 -37 3v27q22 -2 32 -2q28 0 42 11.5t14 28.5q0 14 -12.5 25.5t-37.5 11.5q-18 0 -38 -10v25z"/>
<glyph glyph-name="onesuperior" horiz-adv-x="375" unicode="¹" d="M228 265h-48v345q-26 -13 -67 -13h-11v44q42 0 60 14t18 43v8h48v-441z"/>
<glyph glyph-name="ordmasculine" horiz-adv-x="333" unicode="º" d="M255 554q0 119 -87 119q-41 0 -65.5 -30t-24.5 -90q0 -58 25 -85t63 -27t63.5 28t25.5 85zM304 558q0 -69 -38 -114t-101 -45q-67 0 -101.5 46t-34.5 109q0 65 34.5 112.5t103.5 47.5q67 0 102 -47t35 -109z"/>
<glyph glyph-name="guillemotright" horiz-adv-x="375" unicode="»" d="M36 463l47 31l119 -172l-119 -185l-47 30l99 155zM171 463l48 31l118 -172l-118 -185l-48 30l99 155z"/>
<glyph glyph-name="onequarter" horiz-adv-x="875" unicode="¼" d="M731 152v206l-135 -206h135zM228 265h-48v345q-26 -13 -67 -13h-11v44q42 0 60 14t18 43v8h48v-441zM638 730l-353 -769l-40 18l351 770zM845 108h-66v-108h-48v108h-192v38l191 296h49v-290h66v-44z"/>
<glyph glyph-name="onehalf" horiz-adv-x="875" unicode="½" d="M228 265h-48v345q-26 -13 -67 -13h-11v44q42 0 60 14t18 43v8h48v-441zM614 730l-353 -769l-40 18l352 770zM824 44v-44h-283v42q73 46 132.5 94.5t81.5 78.5q32 45 32 94q0 45 -27.5 71.5t-72.5 26.5q-53 0 -77 -30.5t-24 -60.5q0 -10 2 -19.5t5 -16t8 -15t7.5 -12.5 t8.5 -10.5t6 -7.5l-66 8q-17 45 -17 74q0 65 43 98.5t104 33.5q67 0 109 -38t42 -104q0 -63 -50 -124.5t-166 -138.5h202z"/>
<glyph glyph-name="threequarters" horiz-adv-x="875" unicode="¾" d="M110 473v44h57q22 0 36.5 2t33.5 8t29 22t10 41q0 40 -25.5 61.5t-64.5 21.5q-50 0 -72.5 -29.5t-22.5 -58.5v-9l-54 14q6 24 14 41.5t24 39t44 33t67 11.5q60 0 100 -31.5t40 -93.5q0 -72 -68 -93q32 -7 54.5 -34.5t22.5 -70.5q0 -28 -11.5 -56.5t-47 -53t-88.5 -24.5 q-111 0 -146 88q-10 23 -12 52l52 17v-11q0 -32 11 -54t29 -31t33 -12.5t30 -3.5q52 0 75 25.5t23 58.5q0 86 -90 86h-83zM731 152v206l-135 -206h135zM673 730l-353 -769l-40 18l352 770zM845 108h-66v-108h-48v108h-192v38l191 296h49v-290h66v-44z"/>
<glyph glyph-name="questiondown" horiz-adv-x="479" unicode="¿" d="M195 706h78v-116h-78v116zM266 537v-35q0 -37 -8 -62t-35 -53q-11 -11 -45.5 -43.5t-49.5 -49.5t-31 -49t-16 -64q0 -11 4 -27.5t15.5 -43.5t42.5 -45t76 -18q63 0 97.5 39t34.5 96q0 51 -25 97l75 -22q12 -56 12 -81q0 -50 -17.5 -87t-40.5 -55.5t-53.5 -29.5t-49 -13.5 t-35.5 -2.5q-94 0 -147 58t-53 138q0 61 31 110q8 13 21 27.5t22 24t28 27t24 22.5q42 41 51.5 57.5t9.5 48.5v36h62z"/>
<glyph glyph-name="Agrave" horiz-adv-x="646" unicode="À" d="M388 770h-58l-147 125h106zM461 267l-136 361l-138 -361h274zM635 0h-73l-81 213h-316l-81 -213h-74l288 706h56z"/>
<glyph glyph-name="Aacute" horiz-adv-x="646" unicode="Á" d="M463 895l-147 -125h-57l99 125h105zM461 267l-136 361l-138 -361h274zM635 0h-73l-81 213h-316l-81 -213h-74l288 706h56z"/>
<glyph glyph-name="Acircumflex" horiz-adv-x="646" unicode="Â" d="M451 772h-49l-78 56l-77 -56h-47l105 123h42zM461 267l-136 361l-138 -361h274zM635 0h-73l-81 213h-316l-81 -213h-74l288 706h56z"/>
<glyph glyph-name="Atilde" horiz-adv-x="646" unicode="Ã" d="M442 886l39 -19q-15 -34 -23 -49t-25.5 -29.5t-41.5 -14.5q-25 0 -74 25.5t-61 25.5q-13 0 -22 -8.5t-13 -16.5t-11 -26l-42 13q4 12 8.5 24t16 33t29.5 33.5t39 12.5q26 0 71.5 -26.5t59.5 -26.5q13 0 23 8.5t14.5 16.5t12.5 24zM461 267l-136 361l-138 -361h274zM635 0 h-73l-81 213h-316l-81 -213h-74l288 706h56z"/>
<glyph glyph-name="Adieresis" horiz-adv-x="646" unicode="Ä" d="M251 784h-67v97h67v-97zM470 784h-67v97h67v-97zM461 267l-136 361l-138 -361h274zM635 0h-73l-81 213h-316l-81 -213h-74l288 706h56z"/>
<glyph glyph-name="Aring" horiz-adv-x="646" unicode="Å" d="M286 827q0 -17 12.5 -29.5t29.5 -12.5t29.5 12.5t12.5 29.5t-12.5 29.5t-29.5 12.5t-29.5 -12.5t-12.5 -29.5zM249 827q0 33 23 56t56 23t56 -23t23 -56t-23 -56t-56 -23t-56 23t-23 56zM461 267l-136 361l-138 -361h274zM635 0h-73l-81 213h-316l-81 -213h-74l288 706 h56z"/>
<glyph glyph-name="AE" horiz-adv-x="1000" unicode="Æ" d="M474 267v365l-226 -365h226zM970 0h-496v204h-266l-129 -204h-79l452 706h499v-61h-411v-254h370v-62h-370v-269h430v-60z"/>
<glyph glyph-name="Ccedilla" horiz-adv-x="667" unicode="Ç" d="M625 541l-68 -34q-15 68 -63 113t-141 45q-50 0 -89 -15.5t-63.5 -43t-41.5 -59t-25 -68.5t-11 -65.5t-3 -56.5q0 -315 246 -315q74 0 123 40.5t68 109.5l63 -38q-43 -88 -103 -129.5t-154 -42.5l-15 -29q24 3 30 3q29 0 48.5 -17t19.5 -47q0 -40 -30 -61t-69 -21 q-21 0 -39 3v27q16 -2 34 -2q25 1 39 12t14 28q0 15 -13 26t-36 11q-21 0 -38 -10v25l30 52q-67 4 -119 29t-83 61t-51 85t-27.5 95.5t-7.5 96.5q0 49 7 95.5t27.5 99t52.5 91t87.5 64t126.5 25.5q61 0 108 -14.5t78.5 -42t51 -57t36.5 -69.5z"/>
<glyph glyph-name="Egrave" horiz-adv-x="604" unicode="È" d="M567 0h-486v706h461v-61h-394v-252h357v-62h-357v-269h419v-62zM364 770h-58l-147 125h106z"/>
<glyph glyph-name="Eacute" horiz-adv-x="604" unicode="É" d="M567 0h-486v706h461v-61h-394v-252h357v-62h-357v-269h419v-62zM462 895l-147 -125h-57l99 125h105z"/>
<glyph glyph-name="Ecircumflex" horiz-adv-x="604" unicode="Ê" d="M567 0h-486v706h461v-61h-394v-252h357v-62h-357v-269h419v-62zM430 772h-49l-78 56l-77 -56h-47l105 123h42z"/>
<glyph glyph-name="Edieresis" horiz-adv-x="604" unicode="Ë" d="M567 0h-486v706h461v-61h-394v-252h357v-62h-357v-269h419v-62zM227 784h-67v97h67v-97zM446 784h-67v97h67v-97z"/>
<glyph glyph-name="Igrave" horiz-adv-x="229" unicode="Ì" d="M174 770h-58l-147 125h106zM148 0h-67v706h67v-706z"/>
<glyph glyph-name="Iacute" horiz-adv-x="229" unicode="Í" d="M258 895l-147 -125h-57l99 125h105zM148 0h-67v706h67v-706z"/>
<glyph glyph-name="Icircumflex" horiz-adv-x="229" unicode="Î" d="M243 772h-49l-78 56l-77 -56h-47l105 123h42zM148 0h-67v706h67v-706z"/>
<glyph glyph-name="Idieresis" horiz-adv-x="229" unicode="Ï" d="M39 784h-67v97h67v-97zM258 784h-67v97h67v-97zM148 0h-67v706h67v-706z"/>
<glyph glyph-name="Eth" horiz-adv-x="688" unicode="Ð" d="M149 645v-239h221v-54h-221v-292h135q116 0 160 22q54 27 90 100t36 169q0 35 -6 71.5t-19.5 78.5t-42.5 76.5t-69 51.5q-18 8 -42.5 11.5t-46.5 4t-71 0.5h-124zM0 352v54h81v300h189q141 0 193 -21q76 -32 125.5 -119.5t49.5 -209.5q0 -128 -52.5 -218t-132.5 -119 q-51 -19 -181 -19h-191v352h-81z"/>
<glyph glyph-name="Ntilde" horiz-adv-x="708" unicode="Ñ" d="M474 886l39 -19q-15 -34 -23 -49t-25.5 -29.5t-41.5 -14.5q-25 0 -74 25.5t-61 25.5q-13 0 -22 -8.5t-13 -16.5t-11 -26l-42 13q4 12 8.5 24t16 33t29.5 33.5t39 12.5q26 0 71.5 -26.5t59.5 -26.5q13 0 23 8.5t14.5 16.5t12.5 24zM627 0h-66l-414 610v-610h-66v706h66 l419 -604q-5 589 -5 604h66v-706z"/>
<glyph glyph-name="Ograve" horiz-adv-x="708" unicode="Ò" d="M413 770h-58l-147 125h106zM121 353q0 -27 3.5 -55t11.5 -65.5t25 -69.5t41.5 -60t63 -44.5t87.5 -16.5q52 0 94 20.5t67.5 53t42.5 76t23.5 86t6.5 86.5q0 36 -6 73.5t-22.5 79.5t-41 74t-66.5 53.5t-95 21.5q-63 0 -110 -28t-73.5 -75t-39 -100t-12.5 -110zM50 355 q0 44 7 89t28 97t53.5 91.5t89 65.5t128.5 26q141 0 221.5 -96t80.5 -266q0 -71 -16.5 -136t-51 -121t-95 -89.5t-139.5 -33.5q-69 0 -124 24.5t-88 62.5t-55 89t-30.5 99.5t-8.5 97.5z"/>
<glyph glyph-name="Oacute" horiz-adv-x="708" unicode="Ó" d="M495 895l-147 -125h-57l99 125h105zM121 353q0 -27 3.5 -55t11.5 -65.5t25 -69.5t41.5 -60t63 -44.5t87.5 -16.5q52 0 94 20.5t67.5 53t42.5 76t23.5 86t6.5 86.5q0 36 -6 73.5t-22.5 79.5t-41 74t-66.5 53.5t-95 21.5q-63 0 -110 -28t-73.5 -75t-39 -100t-12.5 -110z M50 355q0 44 7 89t28 97t53.5 91.5t89 65.5t128.5 26q141 0 221.5 -96t80.5 -266q0 -71 -16.5 -136t-51 -121t-95 -89.5t-139.5 -33.5q-69 0 -124 24.5t-88 62.5t-55 89t-30.5 99.5t-8.5 97.5z"/>
<glyph glyph-name="Ocircumflex" horiz-adv-x="708" unicode="Ô" d="M482 772h-49l-78 56l-77 -56h-47l105 123h42zM121 353q0 -27 3.5 -55t11.5 -65.5t25 -69.5t41.5 -60t63 -44.5t87.5 -16.5q52 0 94 20.5t67.5 53t42.5 76t23.5 86t6.5 86.5q0 36 -6 73.5t-22.5 79.5t-41 74t-66.5 53.5t-95 21.5q-63 0 -110 -28t-73.5 -75t-39 -100 t-12.5 -110zM50 355q0 44 7 89t28 97t53.5 91.5t89 65.5t128.5 26q141 0 221.5 -96t80.5 -266q0 -71 -16.5 -136t-51 -121t-95 -89.5t-139.5 -33.5q-69 0 -124 24.5t-88 62.5t-55 89t-30.5 99.5t-8.5 97.5z"/>
<glyph glyph-name="Otilde" horiz-adv-x="708" unicode="Õ" d="M474 886l39 -19q-15 -34 -23 -49t-25.5 -29.5t-41.5 -14.5q-25 0 -74 25.5t-61 25.5q-13 0 -22 -8.5t-13 -16.5t-11 -26l-42 13q4 12 8.5 24t16 33t29.5 33.5t39 12.5q26 0 71.5 -26.5t59.5 -26.5q13 0 23 8.5t14.5 16.5t12.5 24zM121 353q0 -27 3.5 -55t11.5 -65.5 t25 -69.5t41.5 -60t63 -44.5t87.5 -16.5q52 0 94 20.5t67.5 53t42.5 76t23.5 86t6.5 86.5q0 36 -6 73.5t-22.5 79.5t-41 74t-66.5 53.5t-95 21.5q-63 0 -110 -28t-73.5 -75t-39 -100t-12.5 -110zM50 355q0 44 7 89t28 97t53.5 91.5t89 65.5t128.5 26q141 0 221.5 -96 t80.5 -266q0 -71 -16.5 -136t-51 -121t-95 -89.5t-139.5 -33.5q-69 0 -124 24.5t-88 62.5t-55 89t-30.5 99.5t-8.5 97.5z"/>
<glyph glyph-name="Odieresis" horiz-adv-x="708" unicode="Ö" d="M280 784h-67v97h67v-97zM499 784h-67v97h67v-97zM121 353q0 -27 3.5 -55t11.5 -65.5t25 -69.5t41.5 -60t63 -44.5t87.5 -16.5q52 0 94 20.5t67.5 53t42.5 76t23.5 86t6.5 86.5q0 36 -6 73.5t-22.5 79.5t-41 74t-66.5 53.5t-95 21.5q-63 0 -110 -28t-73.5 -75t-39 -100 t-12.5 -110zM50 355q0 44 7 89t28 97t53.5 91.5t89 65.5t128.5 26q141 0 221.5 -96t80.5 -266q0 -71 -16.5 -136t-51 -121t-95 -89.5t-139.5 -33.5q-69 0 -124 24.5t-88 62.5t-55 89t-30.5 99.5t-8.5 97.5z"/>
<glyph glyph-name="multiply" horiz-adv-x="724" unicode="×" d="M572 124l-43 -43l-168 169l-169 -168l-42 42l168 168l-168 168l43 43l168 -168l168 168l42 -43l-168 -168z"/>
<glyph glyph-name="Oslash" horiz-adv-x="708" unicode="Ø" d="M550 542l-354 -430q54 -71 160 -71q95 0 156 63q77 83 77 242q0 119 -39 196zM167 153l354 433q-52 78 -159 78q-101 0 -160 -63q-81 -85 -81 -247q0 -115 46 -201zM627 714l39 -31l-67 -82q62 -106 62 -240q0 -19 -0.5 -36.5t-7 -58.5t-17.5 -75.5t-35 -75t-57 -68.5 q-75 -65 -191 -65q-121 0 -199 78l-59 -70l-37 31l64 78q-72 109 -72 257q0 58 10.5 110.5t34.5 100t59 82t87.5 55t117.5 20.5q132 0 208 -84z"/>
<glyph glyph-name="Ugrave" horiz-adv-x="688" unicode="Ù" d="M398 770h-58l-147 125h106zM608 706v-443q0 -281 -264 -281q-28 0 -54.5 3.5t-67.5 19t-70 42t-50.5 79t-21.5 123.5v457h66v-475q0 -56 19 -95.5t50.5 -58t63 -26t66.5 -7.5q97 0 146.5 48.5t49.5 155.5v458h67z"/>
<glyph glyph-name="Uacute" horiz-adv-x="688" unicode="Ú" d="M492 895l-147 -125h-57l99 125h105zM608 706v-443q0 -281 -264 -281q-28 0 -54.5 3.5t-67.5 19t-70 42t-50.5 79t-21.5 123.5v457h66v-475q0 -56 19 -95.5t50.5 -58t63 -26t66.5 -7.5q97 0 146.5 48.5t49.5 155.5v458h67z"/>
<glyph glyph-name="Ucircumflex" horiz-adv-x="688" unicode="Û" d="M472 772h-49l-78 56l-77 -56h-47l105 123h42zM608 706v-443q0 -281 -264 -281q-28 0 -54.5 3.5t-67.5 19t-70 42t-50.5 79t-21.5 123.5v457h66v-475q0 -56 19 -95.5t50.5 -58t63 -26t66.5 -7.5q97 0 146.5 48.5t49.5 155.5v458h67z"/>
<glyph glyph-name="Udieresis" horiz-adv-x="688" unicode="Ü" d="M269 784h-67v97h67v-97zM488 784h-67v97h67v-97zM608 706v-443q0 -281 -264 -281q-28 0 -54.5 3.5t-67.5 19t-70 42t-50.5 79t-21.5 123.5v457h66v-475q0 -56 19 -95.5t50.5 -58t63 -26t66.5 -7.5q97 0 146.5 48.5t49.5 155.5v458h67z"/>
<glyph glyph-name="Yacute" horiz-adv-x="625" unicode="Ý" d="M462 895l-147 -125h-57l99 125h105zM615 706l-276 -414v-292h-66v292l-263 414h79l218 -351l227 351h81z"/>
<glyph glyph-name="Thorn" horiz-adv-x="625" unicode="Þ" d="M145 268h232q39 0 65 4.5t52.5 18t40 43.5t13.5 77q0 54 -29 88q-23 26 -54.5 34t-87.5 8h-232v-273zM81 706h64v-109h207q93 0 140.5 -11t80.5 -52q40 -50 40 -129t-38 -127q-33 -42 -80 -55.5t-116 -13.5h-234v-209h-64v706z"/>
<glyph glyph-name="germandbls" horiz-adv-x="500" unicode="ß" d="M131 0h-57v492q0 84 15 127q19 52 62.5 78.5t100.5 26.5q46 0 80.5 -17t52.5 -44.5t26 -55t8 -54.5q0 -74 -48 -116q-30 -26 -70 -32q81 -10 120 -74t39 -147q0 -75 -33 -127q-45 -72 -129 -72q-54 0 -108 31v68l6 -4q7 -5 14 -9.5t18.5 -10.5t22 -10.5t23.5 -7.5t24 -3 q49 0 76 45q22 37 22 101q0 82 -43.5 133.5t-144.5 51.5h-31v57h13q78 0 117 25q49 34 49 103q0 45 -27.5 78.5t-79.5 33.5q-33 0 -57 -13t-35.5 -29t-17.5 -44t-7 -45t-1 -44v-492z"/>
<glyph glyph-name="agrave" horiz-adv-x="500" unicode="à" d="M316 558h-53l-172 140h112zM364 216v36l-30 -8q-147 -39 -172 -49q-54 -23 -59 -61q-1 -6 -1 -13q0 -30 24 -54.5t72 -24.5q46 0 91 25t62 65q13 29 13 84zM492 0h-12q-61 0 -88.5 19t-27.5 68q-10 -34 -54.5 -65.5t-114.5 -31.5q-72 0 -111 37.5t-39 92.5q0 67 55 101.5 t184 63.5l80 18v37q0 41 -25.5 69t-85.5 28q-71 0 -100 -27.5t-29 -87.5l-65 11q9 74 57.5 115t129.5 41q175 0 175 -144v-209q0 -53 10 -71t51 -18h10v-47z"/>
<glyph glyph-name="aacute" horiz-adv-x="500" unicode="á" d="M420 698l-170 -140h-53l112 140h111zM364 216v36l-30 -8q-147 -39 -172 -49q-54 -23 -59 -61q-1 -6 -1 -13q0 -30 24 -54.5t72 -24.5q46 0 91 25t62 65q13 29 13 84zM492 0h-12q-61 0 -88.5 19t-27.5 68q-10 -34 -54.5 -65.5t-114.5 -31.5q-72 0 -111 37.5t-39 92.5 q0 67 55 101.5t184 63.5l80 18v37q0 41 -25.5 69t-85.5 28q-71 0 -100 -27.5t-29 -87.5l-65 11q9 74 57.5 115t129.5 41q175 0 175 -144v-209q0 -53 10 -71t51 -18h10v-47z"/>
<glyph glyph-name="acircumflex" horiz-adv-x="500" unicode="â" d="M399 558h-51l-98 65l-89 -65h-51l128 138h26zM364 216v36l-30 -8q-147 -39 -172 -49q-54 -23 -59 -61q-1 -6 -1 -13q0 -30 24 -54.5t72 -24.5q46 0 91 25t62 65q13 29 13 84zM492 0h-12q-61 0 -88.5 19t-27.5 68q-10 -34 -54.5 -65.5t-114.5 -31.5q-72 0 -111 37.5 t-39 92.5q0 67 55 101.5t184 63.5l80 18v37q0 41 -25.5 69t-85.5 28q-71 0 -100 -27.5t-29 -87.5l-65 11q9 74 57.5 115t129.5 41q175 0 175 -144v-209q0 -53 10 -71t51 -18h10v-47z"/>
<glyph glyph-name="atilde" horiz-adv-x="500" unicode="ã" d="M355 675l41 -10q-15 -50 -34 -70t-53 -20q-26 0 -85 32q-29 16 -40 16q-23 0 -41 -44l-41 11q30 88 86 88q30 0 75 -28q29 -18 47 -18q13 0 23 8.5t13.5 15t8.5 19.5zM364 216v36l-30 -8q-147 -39 -172 -49q-54 -23 -59 -61q-1 -6 -1 -13q0 -30 24 -54.5t72 -24.5 q46 0 91 25t62 65q13 29 13 84zM492 0h-12q-61 0 -88.5 19t-27.5 68q-10 -34 -54.5 -65.5t-114.5 -31.5q-72 0 -111 37.5t-39 92.5q0 67 55 101.5t184 63.5l80 18v37q0 41 -25.5 69t-85.5 28q-71 0 -100 -27.5t-29 -87.5l-65 11q9 74 57.5 115t129.5 41q175 0 175 -144v-209 q0 -53 10 -71t51 -18h10v-47z"/>
<glyph glyph-name="adieresis" horiz-adv-x="500" unicode="ä" d="M183 582h-61v92h61v-92zM355 582h-61v92h61v-92zM364 216v36l-30 -8q-147 -39 -172 -49q-54 -23 -59 -61q-1 -6 -1 -13q0 -30 24 -54.5t72 -24.5q46 0 91 25t62 65q13 29 13 84zM492 0h-12q-61 0 -88.5 19t-27.5 68q-10 -34 -54.5 -65.5t-114.5 -31.5q-72 0 -111 37.5 t-39 92.5q0 67 55 101.5t184 63.5l80 18v37q0 41 -25.5 69t-85.5 28q-71 0 -100 -27.5t-29 -87.5l-65 11q9 74 57.5 115t129.5 41q175 0 175 -144v-209q0 -53 10 -71t51 -18h10v-47z"/>
<glyph glyph-name="aring" horiz-adv-x="500" unicode="å" d="M198 631q0 -17 12.5 -29.5t29.5 -12.5t29.5 12.5t12.5 29.5t-12.5 29.5t-29.5 12.5t-29.5 -12.5t-12.5 -29.5zM162 631q0 33 23 56t56 23t56 -23t23 -56t-23 -56t-56 -23t-56 23t-23 56zM364 216v36l-30 -8q-147 -39 -172 -49q-54 -23 -59 -61q-1 -6 -1 -13 q0 -30 24 -54.5t72 -24.5q46 0 91 25t62 65q13 29 13 84zM492 0h-12q-61 0 -88.5 19t-27.5 68q-10 -34 -54.5 -65.5t-114.5 -31.5q-72 0 -111 37.5t-39 92.5q0 67 55 101.5t184 63.5l80 18v37q0 41 -25.5 69t-85.5 28q-71 0 -100 -27.5t-29 -87.5l-65 11q9 74 57.5 115 t129.5 41q175 0 175 -144v-209q0 -53 10 -71t51 -18h10v-47z"/>
<glyph glyph-name="ae" horiz-adv-x="833" unicode="æ" d="M365 212v39q-40 -9 -116 -30t-101 -32q-52 -23 -52 -67q0 -32 21 -55t72 -23q66 0 108.5 28.5t55.5 58.5q12 26 12 81zM424 286h298q-13 150 -145 150q-22 0 -44 -6t-46.5 -20.5t-41.5 -46.5t-21 -77zM738 148l54 -11q-28 -73 -86 -114q-51 -35 -126 -35q-109 0 -166 72 q-14 17 -25 44q-14 -28 -31 -47q-60 -67 -167 -67q-65 0 -109 30.5t-44 97.5q0 63 53 100q38 27 203 68l71 18v49q0 39 -24.5 60t-86.5 21q-67 0 -99 -23q-36 -25 -36 -89l-66 9q20 158 201 158q123 0 161 -79q49 79 162 79q99 0 156 -66q55 -64 59 -181v-5h-368 q0 -1 -0.5 -8.5t-0.5 -13.5q0 -108 71 -150q42 -25 90 -25q99 0 154 108z"/>
<glyph glyph-name="ccedilla" horiz-adv-x="479" unicode="ç" d="M394 120l60 -14q-54 -113 -181 -118l-18 -35q12 3 29 3q30 0 49.5 -17.5t19.5 -46.5q0 -39 -30.5 -60.5t-71.5 -21.5q-1 0 -37 3v27q22 -2 32 -2q28 0 42 11.5t14 28.5q0 14 -12.5 25.5t-37.5 11.5q-18 0 -38 -10v25l34 58q-93 5 -148.5 72.5t-55.5 174.5q0 116 63.5 185 t165.5 69q136 0 181 -120l-55 -13q-15 39 -50 59.5t-79 20.5q-78 0 -120 -57t-42 -141q0 -86 39.5 -142t117.5 -56q86 0 129 80z"/>
<glyph glyph-name="egrave" d="M314 558h-53l-172 140h112zM110 287h301q-5 44 -21 75t-39 46t-44.5 21.5t-43.5 6.5q-69 0 -108 -45t-45 -104zM109 238v-14q0 -30 7 -59t23.5 -58t50 -47t79.5 -18q104 0 155 100l55 -16q-62 -138 -207 -138q-55 0 -98 19t-66.5 46.5t-38.5 64t-20 66.5t-5 59 q0 116 65 181t155 65q97 0 156 -72t59 -170v-9h-370z" unicode="è"/>
<glyph glyph-name="eacute" d="M428 698l-170 -140h-53l112 140h111zM110 287h301q-5 44 -21 75t-39 46t-44.5 21.5t-43.5 6.5q-69 0 -108 -45t-45 -104zM109 238v-14q0 -30 7 -59t23.5 -58t50 -47t79.5 -18q104 0 155 100l55 -16q-62 -138 -207 -138q-55 0 -98 19t-66.5 46.5t-38.5 64t-20 66.5t-5 59 q0 116 65 181t155 65q97 0 156 -72t59 -170v-9h-370z" unicode="é"/>
<glyph glyph-name="ecircumflex" d="M409 558h-51l-98 65l-89 -65h-51l128 138h26zM110 287h301q-5 44 -21 75t-39 46t-44.5 21.5t-43.5 6.5q-69 0 -108 -45t-45 -104zM109 238v-14q0 -30 7 -59t23.5 -58t50 -47t79.5 -18q104 0 155 100l55 -16q-62 -138 -207 -138q-55 0 -98 19t-66.5 46.5t-38.5 64 t-20 66.5t-5 59q0 116 65 181t155 65q97 0 156 -72t59 -170v-9h-370z" unicode="ê"/>
<glyph glyph-name="edieresis" d="M206 582h-61v92h61v-92zM378 582h-61v92h61v-92zM110 287h301q-5 44 -21 75t-39 46t-44.5 21.5t-43.5 6.5q-69 0 -108 -45t-45 -104zM109 238v-14q0 -30 7 -59t23.5 -58t50 -47t79.5 -18q104 0 155 100l55 -16q-62 -138 -207 -138q-55 0 -98 19t-66.5 46.5t-38.5 64 t-20 66.5t-5 59q0 116 65 181t155 65q97 0 156 -72t59 -170v-9h-370z" unicode="ë"/>
<glyph glyph-name="igrave" horiz-adv-x="208" unicode="ì" d="M157 558h-53l-172 140h112zM133 0h-58v477h58v-477z"/>
<glyph glyph-name="iacute" horiz-adv-x="208" unicode="í" d="M275 698l-170 -140h-53l112 140h111zM133 0h-58v477h58v-477z"/>
<glyph glyph-name="icircumflex" horiz-adv-x="208" unicode="î" d="M253 558h-51l-98 65l-89 -65h-51l128 138h26zM133 0h-58v477h58v-477z"/>
<glyph glyph-name="idieresis" horiz-adv-x="208" unicode="ï" d="M49 582h-61v92h61v-92zM221 582h-61v92h61v-92zM133 0h-58v477h58v-477z"/>
<glyph glyph-name="eth" d="M107 235q0 -99 43 -145.5t107 -46.5q66 0 111.5 48.5t45.5 150.5q0 100 -42 150t-109 50q-77 0 -116.5 -55t-39.5 -152zM464 616l-81 -26q94 -168 94 -321q0 -72 -13 -119t-48 -89q-58 -70 -159 -70q-103 0 -158 71.5t-55 170.5q0 123 62 191t154 68q51 0 82.5 -19.5 t57.5 -53.5q-20 83 -67 156l-159 -51l-16 37l152 48q-27 36 -77 86l43 26q48 -51 82 -96l91 29z" unicode="ð"/>
<glyph glyph-name="ntilde" d="M366 675l41 -10q-15 -50 -34 -70t-53 -20q-26 0 -85 32q-29 16 -40 16q-23 0 -41 -44l-41 11q30 88 86 88q29 0 75 -28q29 -18 47 -18q13 0 23 8.5t13.5 15t8.5 19.5zM446 0h-59v248q0 102 -11 130q-22 56 -99 56q-71 0 -107 -45.5t-36 -115.5v-273h-59v477h59v-85 q2 7 6 15t15.5 23.5t26.5 27t42 20.5t60 9q60 0 95 -25t50 -57q17 -36 17 -134v-271z" unicode="ñ"/>
<glyph glyph-name="ograve" d="M313 558h-53l-172 140h112zM414 241q0 104 -44.5 151t-108.5 47q-69 0 -111.5 -52t-42.5 -154t44 -147.5t108 -45.5t109.5 48t45.5 153zM477 241q0 -124 -65.5 -188.5t-153.5 -64.5q-94 0 -154 66t-60 179t58.5 184.5t159.5 71.5q104 0 158.5 -73.5t56.5 -174.5z" unicode="ò"/>
<glyph glyph-name="oacute" d="M431 698l-170 -140h-53l112 140h111zM414 241q0 104 -44.5 151t-108.5 47q-69 0 -111.5 -52t-42.5 -154t44 -147.5t108 -45.5t109.5 48t45.5 153zM477 241q0 -124 -65.5 -188.5t-153.5 -64.5q-94 0 -154 66t-60 179t58.5 184.5t159.5 71.5q104 0 158.5 -73.5t56.5 -174.5 z" unicode="ó"/>
<glyph glyph-name="ocircumflex" d="M409 558h-51l-98 65l-89 -65h-51l128 138h26zM414 241q0 104 -44.5 151t-108.5 47q-69 0 -111.5 -52t-42.5 -154t44 -147.5t108 -45.5t109.5 48t45.5 153zM477 241q0 -124 -65.5 -188.5t-153.5 -64.5q-94 0 -154 66t-60 179t58.5 184.5t159.5 71.5q104 0 158.5 -73.5 t56.5 -174.5z" unicode="ô"/>
<glyph glyph-name="otilde" d="M366 675l41 -10q-15 -50 -34 -70t-53 -20q-26 0 -85 32q-29 16 -40 16q-23 0 -41 -44l-41 11q30 88 86 88q29 0 75 -28q29 -18 47 -18q13 0 23 8.5t13.5 15t8.5 19.5zM414 241q0 104 -44.5 151t-108.5 47q-69 0 -111.5 -52t-42.5 -154t44 -147.5t108 -45.5t109.5 48 t45.5 153zM477 241q0 -124 -65.5 -188.5t-153.5 -64.5q-94 0 -154 66t-60 179t58.5 184.5t159.5 71.5q104 0 158.5 -73.5t56.5 -174.5z" unicode="õ"/>
<glyph glyph-name="odieresis" d="M205 582h-61v92h61v-92zM377 582h-61v92h61v-92zM414 241q0 104 -44.5 151t-108.5 47q-69 0 -111.5 -52t-42.5 -154t44 -147.5t108 -45.5t109.5 48t45.5 153zM477 241q0 -124 -65.5 -188.5t-153.5 -64.5q-94 0 -154 66t-60 179t58.5 184.5t159.5 71.5q104 0 158.5 -73.5 t56.5 -174.5z" unicode="ö"/>
<glyph glyph-name="divide" horiz-adv-x="724" unicode="÷" d="M397 95h-68v94h68v-94zM645 262h-566v60h566v-60zM397 396h-68v94h68v-94z"/>
<glyph glyph-name="oslash" d="M149 89l187 329q-33 20 -73 20q-78 0 -118.5 -62t-40.5 -141t45 -146zM371 391l-189 -331q35 -20 75 -20q71 0 113 48q46 52 46 150q0 91 -45 153zM384 504l39 -23l-26 -45q16 -13 31 -32.5t32 -65t17 -98.5q0 -60 -19 -111q-8 -21 -20 -40.5t-34.5 -44.5t-60 -40.5 t-83.5 -15.5q-68 0 -103 26l-21 -36l-37 22l21 38q-76 81 -76 199q0 103 58 177.5t159 74.5q55 0 100 -26z" unicode="ø"/>
<glyph glyph-name="ugrave" d="M313 558h-53l-172 140h112zM446 0h-59v86q-43 -97 -152 -97q-51 0 -91.5 26.5t-55.5 74.5q-13 43 -13 153v234h60v-247q0 -85 8 -116q19 -70 99 -70q74 0 113 53q32 44 32 139v241h59v-477z" unicode="ù"/>
<glyph glyph-name="uacute" d="M431 698l-170 -140h-53l112 140h111zM446 0h-59v86q-43 -97 -152 -97q-51 0 -91.5 26.5t-55.5 74.5q-13 43 -13 153v234h60v-247q0 -85 8 -116q19 -70 99 -70q74 0 113 53q32 44 32 139v241h59v-477z" unicode="ú"/>
<glyph glyph-name="ucircumflex" d="M409 558h-51l-98 65l-89 -65h-51l128 138h26zM446 0h-59v86q-43 -97 -152 -97q-51 0 -91.5 26.5t-55.5 74.5q-13 43 -13 153v234h60v-247q0 -85 8 -116q19 -70 99 -70q74 0 113 53q32 44 32 139v241h59v-477z" unicode="û"/>
<glyph glyph-name="udieresis" d="M205 582h-61v92h61v-92zM377 582h-61v92h61v-92zM446 0h-59v86q-43 -97 -152 -97q-51 0 -91.5 26.5t-55.5 74.5q-13 43 -13 153v234h60v-247q0 -85 8 -116q19 -70 99 -70q74 0 113 53q32 44 32 139v241h59v-477z" unicode="ü"/>
<glyph glyph-name="yacute" horiz-adv-x="437" unicode="ý" d="M389 698l-170 -140h-53l112 140h111zM367 477h60l-225 -570q-18 -47 -26.5 -66.5t-24 -43t-33.5 -31.5t-44 -8q-36 0 -63 19v60q33 -23 62 -23q24 0 35.5 15t28.5 57l44 114l-165 477h57l139 -406z"/>
<glyph glyph-name="thorn" d="M133 245v-30q0 -77 35.5 -123.5t98.5 -46.5q34 0 60.5 13.5t43 34t27 48t14.5 52.5t4 50q0 95 -42.5 142.5t-105.5 47.5q-42 0 -70.5 -18.5t-41.5 -49.5t-18 -59.5t-5 -60.5zM75 -253v959h58v-307q40 88 144 88q58 0 100 -27t62.5 -69.5t29 -80.5t8.5 -72 q0 -58 -18.5 -112.5t-65 -95.5t-113.5 -41q-56 0 -96 27t-51 64v-333h-58z" unicode="þ"/>
<glyph glyph-name="OE" horiz-adv-x="1062" unicode="Œ" d="M525 60v588q-93 11 -116 11q-144 0 -218 -85q-71 -82 -71 -228q0 -189 133 -265q68 -39 161 -39q57 0 111 18zM1026 0h-491q-67 -18 -138 -18q-83 0 -148 28q-101 43 -150 135t-49 207q0 73 21 139q19 60 53.5 105t69.5 68t77.5 37t70.5 17t57 3q47 0 126 -15h476v-58 h-408v-256h370v-62h-370v-270h433v-60z"/>
<glyph glyph-name="oe" horiz-adv-x="896" unicode="œ" d="M108 241q0 -51 12 -89t29.5 -58.5t40.5 -33.5t40 -16.5t33 -3.5q82 0 119.5 57t37.5 139q0 33 -6.5 64.5t-22 64t-47.5 52.5t-77 20q-71 0 -115 -51.5t-44 -144.5zM483 288h303q-1 53 -38 100.5t-110 47.5q-65 0 -105 -41t-50 -107zM797 143l57 -15q-65 -140 -216 -140 q-130 0 -190 114q-20 -54 -71.5 -84t-115.5 -30q-97 0 -157 69t-60 178q0 40 10 80t33 81t69 67t109 26q138 0 183 -113q59 113 187 113q86 0 141 -50q78 -70 78 -201h-371q-1 -6 -1 -25q0 -67 39 -120t117 -53q15 0 31.5 3t41 12t47.5 31.5t39 56.5z"/>
<glyph glyph-name="Scaron" horiz-adv-x="604" unicode="Š" d="M427 895l-104 -123h-42l-104 123h49l77 -56l78 56h46zM561 569l-62 -33q-12 38 -29 61q-50 72 -154 72q-84 0 -125 -37.5t-41 -88.5q0 -32 12.5 -55.5t38.5 -38.5t45.5 -22t53.5 -16l68 -18q102 -27 154.5 -74t52.5 -126q0 -98 -87 -161q-72 -50 -176 -50 q-222 0 -263 196l67 35q2 -50 16 -79q18 -39 62.5 -66t117.5 -27q93 0 144 43t51 107q0 57 -36 89t-114 52l-81 21q-30 8 -51.5 15t-50 22.5t-46 34t-30.5 49t-13 67.5q0 79 59 131t174 52q186 0 243 -155z"/>
<glyph glyph-name="scaron" horiz-adv-x="458" unicode="š" d="M371 696l-127 -138h-27l-135 138h51l98 -65l90 65h50zM34 116l58 20q8 -34 41 -64t92 -30q63 0 92.5 28t29.5 65q0 32 -23 53t-80 33l-56 12q-124 27 -124 119q0 60 41 97q44 40 130 40q73 0 117 -31q40 -28 52 -77l-56 -15q-8 38 -41 54.5t-75 16.5q-64 0 -87 -24.5 t-23 -55.5q0 -20 9 -34.5t26.5 -22.5t30.5 -12t34 -8l50 -10q132 -27 132 -139q0 -52 -44 -97.5t-134 -45.5q-138 0 -192 128z"/>
<glyph glyph-name="Ydieresis" horiz-adv-x="625" unicode="Ÿ" d="M237 784h-67v97h67v-97zM456 784h-67v97h67v-97zM615 706l-276 -414v-292h-66v292l-263 414h79l218 -351l227 351h81z"/>
<glyph glyph-name="circumflex" horiz-adv-x="271" unicode="ˆ" d="M280 558h-51l-98 65l-89 -65h-51l128 138h26z"/>
<glyph glyph-name="tilde" horiz-adv-x="271" unicode="˜" d="M242 675l41 -10q-15 -50 -34 -70t-53 -20q-26 0 -85 32q-29 16 -40 16q-23 0 -41 -44l-41 11q30 88 86 88q29 0 75 -28q29 -18 47 -18q13 0 23 8.5t13.5 15t8.5 19.5z"/>
<glyph glyph-name="uni0394" horiz-adv-x="603" unicode="Δ" d="M512 62l-212 552l-211 -552h423zM608 0h-613l278 706h59z"/>
<glyph glyph-name="uni03BC" horiz-adv-x="536" unicode="μ" d="M389 471h61v-357q0 -44 6.5 -58.5t26.5 -14.5q12 0 27 7v-50q-20 -6 -37 -6q-40 0 -59 19t-21 62q-25 -45 -56.5 -65t-78.5 -20q-73 0 -117 59q4 -244 4 -263h-64v687h61v-246q0 -98 23 -133q14 -22 39.5 -35t53.5 -13q74 0 111 72q20 39 20 128v227z"/>
<glyph glyph-name="pi" horiz-adv-x="607" unicode="π" d="M542 0h-29q-33 0 -54.5 7.5t-31 22t-12.5 29t-3 35.5v320h-223v-414h-61v414h-54v57h453v-57h-55v-316q0 -51 50 -51h20v-47z"/>
<glyph glyph-name="endash" horiz-adv-x="565" unicode="–" d="M527 264h-489v60h489v-60z"/>
<glyph glyph-name="emdash" horiz-adv-x="843" unicode="—" d="M805 264h-767v60h767v-60z"/>
<glyph glyph-name="quoteleft" horiz-adv-x="167" unicode="‘" d="M122 432h-78v93q0 62 8.5 100t37.5 81l32 -22q-23 -38 -30.5 -64.5t-7.5 -70.5h38v-117z"/>
<glyph glyph-name="quotesinglbase" horiz-adv-x="167" unicode="‚" d="M44 116h79v-98q0 -61 -8.5 -97t-37.5 -79l-33 23q23 37 30.5 64t7.5 71h-38v116z"/>
<glyph glyph-name="quotedblleft" horiz-adv-x="292" unicode="“" d="M123 432h-79v93q0 62 8.5 99.5t37.5 81.5l33 -22q-39 -48 -39 -135h39v-117zM248 432h-79v111q0 51 9.5 87t36.5 76l33 -22q-23 -37 -30.5 -64t-7.5 -71h38v-117z"/>
<glyph glyph-name="quotedblright" horiz-adv-x="292" unicode="”" d="M44 706h79v-120q0 -49 -9.5 -81.5t-36.5 -72.5l-33 23q38 56 38 135h-38v116zM169 706h79v-120q0 -49 -9.5 -81.5t-36.5 -72.5l-33 23q38 56 38 135h-38v116z"/>
<glyph glyph-name="dagger" horiz-adv-x="562" unicode="†" d="M474 440h-157v-440h-68v440h-160v59h160v207h68v-207h157v-59z"/>
<glyph glyph-name="daggerdbl" horiz-adv-x="562" unicode="‡" d="M474 213h-157v-213h-68v213h-160v59h160v180h-160v59h160v195h68v-195h157v-59h-157v-180h157v-59z"/>
<glyph glyph-name="ellipsis" horiz-adv-x="1000" unicode="…" d="M207 0h-82v82h82v-82zM541 0h-83v82h83v-82zM875 0h-83v82h83v-82z"/>
<glyph glyph-name="perthousand" horiz-adv-x="1250" unicode="‰" d="M957 219q0 -22 2.5 -44t11.5 -58t32.5 -58t59.5 -22q32 0 54.5 18.5t32.5 50t14 58.5t4 57q0 84 -28.5 134t-75.5 50q-56 0 -81.5 -53t-25.5 -133zM906 223q0 94 39 160t119 66q48 0 81 -24.5t48 -64t20.5 -74.5t5.5 -71q0 -99 -41.5 -161t-115.5 -62q-44 0 -76 21.5 t-48.5 57.5t-24 74t-7.5 78zM581 219q0 -22 2.5 -44t11.5 -58t32.5 -58t59.5 -22q32 0 54.5 18.5t32.5 50t14 58.5t4 57q0 84 -28.5 134t-75.5 50q-56 0 -81.5 -53t-25.5 -133zM530 223q0 94 39 160t119 66q48 0 81 -24.5t48 -64t20.5 -74.5t5.5 -71q0 -99 -41.5 -161 t-115.5 -62q-44 0 -76 21.5t-48.5 57.5t-24 74t-7.5 78zM82 484q0 -22 2.5 -44t11.5 -58t32.5 -58t59.5 -22q32 0 54.5 18.5t32.5 50t14 58.5t4 57q0 84 -28.5 134t-75.5 50q-56 0 -81.5 -53t-25.5 -133zM31 488q0 94 39 160t119 66q48 0 81 -24.5t48 -64t20.5 -74.5 t5.5 -71q0 -99 -41.5 -161t-115.5 -62q-44 0 -76 21.5t-48.5 57.5t-24 74t-7.5 78zM638 730l-353 -769l-40 18l351 770z"/>
<glyph glyph-name="guilsinglleft" horiz-adv-x="250" unicode="‹" d="M209 168l-47 -31l-119 172l119 185l47 -30l-99 -155z"/>
<glyph glyph-name="guilsinglright" horiz-adv-x="250" unicode="›" d="M207 322l-119 -185l-47 30l99 155l-99 141l47 31z"/>
<glyph glyph-name="fraction" horiz-adv-x="125" unicode="⁄" d="M259 730l-353 -769l-40 18l352 770z"/>
<glyph glyph-name="Euro" horiz-adv-x="634" unicode="€" d="M614 620l-27 -66q-59 96 -196 96q-94 0 -149.5 -58.5t-72.5 -155.5h374l-19 -53h-360q-2 -10 -2 -29q0 -20 1 -30h338l-19 -53h-315q13 -104 73 -167.5t161 -63.5q53 0 106 21t85 59v-77q-47 -34 -92 -47.5t-105 -13.5q-129 0 -205.5 79t-92.5 210h-76l20 53h52 q0 39 2 59h-74l19 53h61q16 124 96 197.5t204 73.5q139 0 213 -87z"/>
<glyph glyph-name="trademark" horiz-adv-x="683" unicode="™" d="M268 665h-98v-291h-48v291h-100v41h246v-41zM611 374h-46l2 285l-89 -285h-42l-89 284q4 -268 4 -284h-46v332h67l86 -272l85 272h68v-332z"/>
<glyph glyph-name="partialdiff" horiz-adv-x="531" unicode="∂" d="M387 311q-62 58 -136 58q-66 0 -104.5 -46.5t-38.5 -126.5q0 -70 34.5 -110.5t93.5 -40.5q75 0 112 65t39 201zM146 646l-10 55q57 20 110 20q107 0 157.5 -84.5t50.5 -264.5q0 -190 -51 -285.5t-165 -95.5q-86 0 -139.5 57.5t-53.5 149.5q0 101 57.5 163.5t151.5 62.5 q75 0 137 -44v15q0 269 -153 269q-37 0 -92 -18z"/>
<glyph glyph-name="product" horiz-adv-x="706" unicode="∏" d="M630 -122h-67v768h-421v-768h-66v828h554v-828z"/>
<glyph glyph-name="summation" horiz-adv-x="585" unicode="∑" d="M560 -122h-530v59l295 366l-295 342v61h530v-60h-444l297 -342l-301 -364h448v-62z"/>
<glyph glyph-name="minus" horiz-adv-x="724" unicode="−" d="M645 263h-566v60h566v-60z"/>
<glyph glyph-name="radical" horiz-adv-x="725" unicode="√" d="M637 706l-268 -891h-62l-142 308l-67 -33l-25 52l126 63l135 -305l238 806h65z"/>
<glyph glyph-name="infinity" horiz-adv-x="724" unicode="∞" d="M327 289q-72 123 -143 123q-41 0 -66.5 -33.5t-25.5 -85.5q0 -54 26 -89t66 -35q30 0 60.5 25.5t82.5 94.5zM397 293q71 -125 144 -125q40 0 66 33.5t26 86.5t-25.5 88.5t-64.5 35.5q-32 0 -65.5 -27t-80.5 -92zM357 240q-85 -127 -176 -127q-65 0 -107.5 49.5 t-42.5 125.5q0 77 45.5 129t112.5 52q95 0 176 -130q51 72 91 101t85 29q65 0 108.5 -50t43.5 -125q0 -77 -47 -129.5t-115 -52.5q-51 0 -90 30t-84 98z"/>
<glyph glyph-name="approxequal" horiz-adv-x="724" unicode="≈" d="M610 266l40 -39q-44 -53 -82.5 -74.5t-82.5 -21.5q-42 0 -119 36l-36 17q-63 30 -104 30q-28 0 -45.5 -12.5t-55.5 -53.5l-10 -11l-40 40q38 52 74 75t83 23q28 0 53 -7.5t85 -33.5l41 -18q54 -24 79 -24q57 0 120 74zM610 447l40 -40q-45 -52 -83 -74t-82 -22 q-35 0 -119 37l-36 16q-67 30 -104 30q-28 0 -45.5 -12.5t-55.5 -53.5l-10 -11l-40 40q38 53 74 75.5t83 22.5q28 0 48.5 -6t89.5 -35l41 -17q60 -25 79 -25q31 0 57 16t63 59z"/>
<glyph glyph-name="notequal" horiz-adv-x="724" unicode="≠" d="M625 173h-293l-87 -179h-59l87 179h-174v58h203l56 118h-259v59h290l83 167h58l-82 -167h177v-59h-208l-57 -118h265v-58z"/>
<glyph glyph-name="lessequal" horiz-adv-x="724" unicode="≤" d="M595 0h-466v60h466v-60zM595 106l-466 231v67l466 229v-65l-409 -198l409 -200v-64z"/>
<glyph glyph-name="greaterequal" horiz-adv-x="724" unicode="≥" d="M595 0h-466v60h466v-60zM594 334l-466 -228v64l409 199l-409 199v65l466 -231v-68z"/>
<glyph glyph-name="lozenge" horiz-adv-x="724" unicode="◊" d="M507 355l-142 291l-145 -292l141 -293zM571 353l-180 -353h-63l-174 353l180 353h63z"/>
</font>
</defs>
</svg>
