<?xml version="1.0" standalone="no"?>
<!DOCTYPE svg PUBLIC "-//W3C//DTD SVG 1.1//EN" "http://www.w3.org/Graphics/SVG/1.1/DTD/svg11.dtd" >
<svg xmlns="http://www.w3.org/2000/svg" xmlns:xlink="http://www.w3.org/1999/xlink" version="1.1">
<metadata>
Created by FontForge 20170731 at Fri Mar  6 19:50:54 2015
 By Aleksey,,,
Copyright (c) 2015 by Go:ran So:derstro:m, Letters from Sweden. All rights reserved.
</metadata>
<defs>
<font id="Brace-Bold" horiz-adv-x="471" >
  <font-face 
    font-family="Brace Bold"
    font-weight="700"
    font-stretch="normal"
    units-per-em="1000"
    panose-1="0 0 8 0 0 0 0 0 0 0"
    ascent="750"
    descent="-250"
    x-height="544"
    cap-height="700"
    bbox="-225 -236 1266 953"
    underline-thickness="50"
    underline-position="-200"
    unicode-range="U+000D-FB02"
  />
<missing-glyph horiz-adv-x="604" 
d="M554 -100h-504v900h504v-900zM175 691v-682h253v682h-253z" />
    <glyph glyph-name="fi" unicode="fi" horiz-adv-x="658" 
d="M418 743h163v-140h-163v140zM29 123h45v298h-58v123h58v93q14 40 58 68t121 28q56 0 92 -13v-114q-13 1 -29 1q-56 0 -73 -26v-37h346v-421h45v-123h-259v123h45v298h-177v-298h51v-123h-265v123z" />
    <glyph glyph-name="fl" unicode="fl" horiz-adv-x="677" 
d="M319 607q-57 0 -74 -26v-37h106v-123h-106v-298h51v-123h-265v123h45v298h-60v123h60v93q14 40 58 68t122 28q59 0 95 -13v-115q-15 2 -32 2zM610 123h45v-123h-259v123h45v474h-45v123h214v-597z" />
    <glyph glyph-name="f_f" unicode="ff" horiz-adv-x="694" 
d="M640 607q-60 0 -74 -26v-37h105v-123h-105v-298h51v-123h-265v123h44v298h-153v-298h51v-123h-265v123h45v298h-58v123h58v90q14 39 58 67t121 28q62 0 96 -12v-115q-13 1 -31 1q-58 0 -75 -25v-34h153v93q14 40 58.5 68t121.5 28q59 0 95 -13v-115q-13 2 -31 2z" />
    <glyph glyph-name=".notdef" horiz-adv-x="604" 
d="M554 -100h-504v900h504v-900zM175 691v-682h253v682h-253z" />
    <glyph glyph-name=".null" horiz-adv-x="0" 
 />
    <glyph glyph-name="nonmarkingreturn" horiz-adv-x="333" 
 />
    <glyph glyph-name="CR" unicode="&#xd;" horiz-adv-x="196" 
 />
    <glyph glyph-name="space" unicode=" " horiz-adv-x="202" 
 />
    <glyph glyph-name="exclam" unicode="!" horiz-adv-x="294" 
d="M243 536l-22 -321h-148l-21 321v164h191v-164zM236 0h-177v161h177v-161z" />
    <glyph glyph-name="quotedbl" unicode="&#x22;" horiz-adv-x="409" 
d="M177 559l-21 -137h-104l-21 137v141h146v-141zM378 559l-21 -137h-104l-22 137v141h147v-141z" />
    <glyph glyph-name="numbersign" unicode="#" horiz-adv-x="564" 
d="M491 522h49v-120h-68l-15 -97h48v-120h-67l-30 -185h-132l29 185h-101l-30 -185h-131l29 185h-47v120h67l15 97h-48v120h67l29 178h132l-29 -178h101l29 178h133zM239 402l-16 -97h102l15 97h-101z" />
    <glyph glyph-name="dollar" unicode="$" horiz-adv-x="596" 
d="M367 792v-83q75 -14 121.5 -52.5t64.5 -75.5v-102h-176v64q-7 15 -28 27.5t-51 12.5q-58 0 -80 -40v-67q13 -29 66 -42l44 -10q175 -35 225 -127v-178q-20 -39 -66.5 -76.5t-119.5 -50.5v-83h-138v83q-75 13 -121 51t-65 76v108h175v-70q22 -40 80 -40q30 0 51 12.5
t28 27.5v82q-15 31 -65 42l-45 10q-174 35 -224 127v163q17 36 64 75t122 53v83h138z" />
    <glyph glyph-name="percent" unicode="%" horiz-adv-x="916" 
d="M215 710q69 0 114 -28t60 -67v-178q-15 -38 -60 -66t-114 -28t-113.5 28t-59.5 66v178q15 39 59.5 67t113.5 28zM261 0h-128l523 700h128zM216 622q-40 0 -53 -25v-142q13 -24 53 -24t51 24v142q-12 25 -51 25zM700 357q69 0 114 -28t60 -66v-178q-15 -38 -60 -66
t-114 -28t-113.5 28t-59.5 66v178q15 38 59.5 66t113.5 28zM701 270q-40 0 -53 -25v-142q13 -24 53 -24t51 24v142q-12 25 -51 25z" />
    <glyph glyph-name="ampersand" unicode="&#x26;" horiz-adv-x="721" 
d="M711 129v-129h-139l-55 51q-82 -66 -201 -66q-112 0 -181 41.5t-94 94.5v156q36 71 120 105l-70 65v145q24 45 84.5 84t155.5 39t154.5 -38.5t86.5 -84.5v-101h-170v68q-21 29 -71 29q-49 0 -70 -30v-76l194 -181v110h232v-128h-85v-119l37 -35h72zM321 112q60 0 98 30
l-156 145q-36 -7 -53 -37v-94q10 -18 42 -31t69 -13z" />
    <glyph glyph-name="quotesingle" unicode="'" horiz-adv-x="208" 
d="M177 559l-21 -137h-104l-21 137v141h146v-141z" />
    <glyph glyph-name="parenleft" unicode="(" horiz-adv-x="360" 
d="M330 579h-11q-20 0 -35 -7t-23.5 -16t-15 -25t-8.5 -27t-5 -29v-412q3 -21 5 -31t8 -28t14.5 -27t23.5 -16.5t36 -7.5h11v-121h-11q-111 0 -181 49.5t-95 119.5v530q25 70 95 119.5t181 49.5h11v-121z" />
    <glyph glyph-name="parenright" unicode=")" horiz-adv-x="360" 
d="M30 700h11q111 0 181 -49.5t95 -119.5v-530q-25 -70 -95 -119.5t-181 -49.5h-11v121h11q21 0 36 7.5t23.5 16.5t14.5 27t8 28t5 31v412q-3 18 -5 29t-8.5 27t-15 25t-23.5 16t-35 7h-11v121z" />
    <glyph glyph-name="asterisk" unicode="*" horiz-adv-x="491" 
d="M247 755q40 0 69 -16l-22 -133l120 62q25 -22 38 -62q12 -37 6 -71l-135 -21l98 -96q-14 -29 -47 -55q-33 -24 -66 -27l-62 120l-61 -120q-33 3 -66 27q-35 26 -47 55l97 96l-134 21q-6 34 6 71q14 42 37 62l119 -62l-21 133q32 16 71 16z" />
    <glyph glyph-name="plus" unicode="+" horiz-adv-x="588" 
d="M364 400h192v-133h-192v-196h-141v196h-191v133h191v195h141v-195z" />
    <glyph glyph-name="comma" unicode="," horiz-adv-x="238" 
d="M208 172v-229q-8 -26 -40.5 -53.5t-79.5 -27.5h-41v71h33q10 0 22 7.5t16 17.5v42h-88v172h178z" />
    <glyph glyph-name="hyphen" unicode="-" horiz-adv-x="366" 
d="M336 267h-306v135h306v-135z" />
    <glyph glyph-name="period" unicode="." horiz-adv-x="238" 
d="M208 0h-178v172h178v-172z" />
    <glyph glyph-name="slash" unicode="/" horiz-adv-x="429" 
d="M174 -110h-159l230 841h160z" />
    <glyph glyph-name="zero" unicode="0" horiz-adv-x="596" 
d="M298 715q98 0 164 -42t91 -92v-462q-25 -50 -91 -92t-164 -42q-99 0 -165.5 42t-89.5 92v462q23 50 89.5 92t165.5 42zM298 583q-28 0 -50 -11.5t-30 -28.5v-386q8 -17 30 -28.5t50 -11.5q27 0 49 11.5t30 28.5v386q-8 17 -30 28.5t-49 11.5z" />
    <glyph glyph-name="one" unicode="1" horiz-adv-x="447" 
d="M323 129h98v-129h-380v129h106v395l-106 -46v139l152 83h130v-571z" />
    <glyph glyph-name="two" unicode="2" horiz-adv-x="573" 
d="M278 715q99 0 164.5 -42t90.5 -92v-163q-14 -34 -43 -63t-97 -69l-79 -45q-90 -54 -102 -81v-31h185v78h139v-207h-499v192q17 39 51.5 69.5t96.5 67.5l92 52q71 43 81 75v87q-21 40 -80 40q-26 0 -47.5 -10.5t-29.5 -24.5v-92h-162v151q11 15 27.5 30t45 34.5t72 31.5
t94.5 12z" />
    <glyph glyph-name="three" unicode="3" horiz-adv-x="573" 
d="M275 715q98 0 164 -41t89 -88v-149q-23 -40 -93 -72q74 -38 98 -88v-158q-24 -49 -90 -91.5t-165 -42.5q-96 0 -157 37.5t-84 75.5v117h162v-58q8 -17 29.5 -28.5t49.5 -11.5q29 0 50 11.5t29 28.5v90q-7 21 -29 35t-50 14h-92v125h89q27 0 48.5 12.5t29.5 28.5v86
q-8 14 -29.5 24.5t-48.5 10.5t-47.5 -11t-28.5 -24v-57h-162v116q13 20 37.5 41.5t79.5 44t121 22.5z" />
    <glyph glyph-name="four" unicode="4" horiz-adv-x="604" 
d="M506 123h46v-123h-268v123h54v63h-308v127l252 387h224v-383h71v-131h-71v-63zM334 546l-150 -229h154v229h-4z" />
    <glyph glyph-name="five" unicode="5" horiz-adv-x="562" 
d="M340 443q64 0 114 -29.5t70 -74.5v-241q-25 -40 -85 -76.5t-156 -36.5q-51 0 -95 12t-72.5 31.5t-45.5 36t-28 33.5v117h162v-58q8 -17 29.5 -28.5t49.5 -11.5t49 11.5t30 28.5v124q-21 40 -78 40q-45 0 -76 -31h-162v410h476v-206h-139v65h-175v-157q50 41 132 41z" />
    <glyph glyph-name="six" unicode="6" horiz-adv-x="581" 
d="M298 715q67 0 122 -22.5t79 -44.5t40 -45v-112h-162v52q-7 16 -29 28t-50 12t-49.5 -11.5t-30.5 -28.5v-147q57 47 136 47q67 0 115.5 -30.5t69.5 -74.5v-240q-24 -38 -85 -75.5t-156 -37.5q-99 0 -165.5 42t-89.5 92v462q25 51 90.5 92.5t164.5 41.5zM295 321
q-43 0 -77 -28v-136q8 -17 30 -28.5t50 -11.5q27 0 49 11.5t30 28.5v126q-8 16 -30.5 27t-51.5 11z" />
    <glyph glyph-name="seven" unicode="7" horiz-adv-x="551" 
d="M532 574l-261 -574h-183l258 555v4h-183v-73h-139v214h508v-126z" />
    <glyph glyph-name="eight" unicode="8" horiz-adv-x="586" 
d="M293 715q51 0 95 -12t73 -32t44.5 -34.5t26.5 -29.5v-177q-28 -37 -75 -65q65 -38 91 -91v-155q-24 -50 -90 -92t-165 -42q-98 0 -164.5 42t-90.5 92v155q26 53 91 90q-46 26 -74 66v177q10 14 26.5 30t45 35t72 31t94.5 12zM293 583q-52 0 -77 -34v-95q25 -34 77 -34
q54 0 77 34v95q-23 34 -77 34zM293 307q-27 0 -49 -12t-30 -29v-109q8 -17 30 -28.5t49 -11.5q29 0 50.5 11.5t29.5 28.5v109q-8 17 -30 29t-50 12z" />
    <glyph glyph-name="nine" unicode="9" horiz-adv-x="577" 
d="M281 715q99 0 165 -42t89 -92v-462q-24 -51 -89.5 -92.5t-164.5 -41.5q-96 0 -155 36.5t-86 76.5v104h161v-45q7 -16 29.5 -28t50.5 -12q27 0 49 11.5t30 28.5v136q-52 -46 -135 -46q-68 0 -117 30.5t-68 73.5v252q23 37 84.5 74.5t156.5 37.5zM280 583q-28 0 -50 -12
t-29 -28v-136q7 -16 30 -27t52 -11q44 0 77 27v147q-8 17 -30 28.5t-50 11.5z" />
    <glyph glyph-name="colon" unicode=":" horiz-adv-x="256" 
d="M217 340h-177v172h177v-172zM217 0h-177v172h177v-172z" />
    <glyph glyph-name="semicolon" unicode=";" horiz-adv-x="256" 
d="M217 342h-177v171h177v-171zM217 172v-229q-8 -26 -40.5 -53.5t-78.5 -27.5h-42v71h33q10 0 22 7.5t17 17.5v42h-88v172h177z" />
    <glyph glyph-name="less" unicode="&#x3c;" horiz-adv-x="588" 
d="M528 400l-299 -106l299 -105v-144l-469 189v121l469 189v-144z" />
    <glyph glyph-name="equal" unicode="=" horiz-adv-x="588" 
d="M556 375h-524v134h524v-134zM556 159h-524v134h524v-134z" />
    <glyph glyph-name="greater" unicode="&#x3e;" horiz-adv-x="588" 
d="M528 355v-121l-469 -189v144l299 105l-299 106v144z" />
    <glyph glyph-name="question" unicode="?" horiz-adv-x="543" 
d="M265 715q55 0 100.5 -13t75.5 -34.5t48.5 -40.5t31.5 -41v-178q-10 -16 -86 -70l-112 -78v-44h-173v110l101 67q77 49 94 72v74q-24 38 -80 38q-55 0 -80 -38v-64h-161v133q80 107 241 107zM326 0h-178v161h178v-161z" />
    <glyph glyph-name="at" unicode="@" horiz-adv-x="935" 
d="M472 715q86 0 162 -25.5t127 -66.5t84.5 -84t48.5 -85v-348q-24 -37 -72 -56t-99 -19q-107 0 -162 67q-58 -62 -151 -62q-65 0 -110 37t-61 80v243q16 44 58.5 80t106.5 36q81 0 130 -51v38h149v-356q14 -25 52 -25q29 0 52 26v289q-13 29 -36 58.5t-60.5 60t-96 50
t-126.5 19.5q-109 0 -193.5 -50t-124.5 -142v-305q40 -91 125.5 -141.5t192.5 -50.5q98 0 177 44l49 -75q-104 -63 -226 -63q-145 0 -261.5 69.5t-165.5 190.5v357q48 119 169.5 189.5t261.5 70.5zM458 401q-25 0 -43.5 -10.5t-24.5 -21.5v-189q7 -11 25 -21.5t43 -10.5
q50 0 76 31v191q-29 31 -76 31z" />
    <glyph glyph-name="A" unicode="A" horiz-adv-x="689" 
d="M674 135v-135h-281v135h49l-19 80h-173l-20 -80h46v-135h-261v135h46l120 430h-44v135h411v-135h-45l124 -430h47zM392 348l-52 217h-4l-53 -217h109z" />
    <glyph glyph-name="B" unicode="B" horiz-adv-x="641" 
d="M32 700h360q71 0 123.5 -35.5t78.5 -83.5v-147q-8 -15 -28.5 -35t-40.5 -32q52 -28 76 -68v-179q-26 -49 -81 -84.5t-127 -35.5h-361v135h49v430h-49v135zM259 569v-153h92q48 0 72 39v73q-22 41 -74 41h-90zM259 299v-168h90q58 0 81 41v88q-23 39 -79 39h-92z" />
    <glyph glyph-name="C" unicode="C" horiz-adv-x="611" 
d="M311 715q57 0 104 -14t78 -37t50 -44t31 -44v-154h-176v106q-21 49 -87 49q-63 0 -87 -49v-356q9 -21 31.5 -34.5t55.5 -13.5q63 0 87 48v117h176v-164q-13 -24 -31.5 -45t-49.5 -44t-78 -37t-104 -14q-109 0 -176 46t-94 107v424q27 61 94 107t176 46z" />
    <glyph glyph-name="D" unicode="D" horiz-adv-x="658" 
d="M32 700h353q88 0 147 -40.5t85 -97.5v-424q-26 -57 -85 -97.5t-147 -40.5h-353v135h49v430h-49v135zM264 565v-430h83q68 0 87 45v340q-19 45 -87 45h-83z" />
    <glyph glyph-name="E" unicode="E" horiz-adv-x="606" 
d="M571 491h-141v74h-166v-141h202v-134h-202v-155h175v85h141v-220h-548v135h49v430h-49v135h539v-209z" />
    <glyph glyph-name="F" unicode="F" horiz-adv-x="591" 
d="M569 491h-142v74h-163v-146h214v-135h-214v-149h50v-135h-282v135h49v430h-49v135h537v-209z" />
    <glyph glyph-name="G" unicode="G" horiz-adv-x="614" 
d="M311 715q57 0 104 -14t78 -37t50 -44t31 -44v-119h-176v71q-21 49 -87 49q-63 0 -87 -49v-356q9 -21 33 -34.5t57 -13.5q67 0 90 43v99h-88v131h258v-272q-13 -24 -31.5 -45t-49.5 -44t-78 -37t-104 -14q-109 0 -176 46t-94 107v424q27 61 94 107t176 46z" />
    <glyph glyph-name="H" unicode="H" horiz-adv-x="721" 
d="M689 565h-49v-430h49v-135h-282v135h50v158h-193v-158h50v-135h-282v135h49v430h-49v135h282v-135h-50v-137h193v137h-50v135h282v-135z" />
    <glyph glyph-name="I" unicode="I" horiz-adv-x="345" 
d="M314 565h-50v-430h50v-135h-282v135h49v430h-49v135h282v-135z" />
    <glyph glyph-name="J" unicode="J" horiz-adv-x="415" 
d="M388 565h-49v-427q-69 -141 -257 -141q-32 0 -62 3v135h47q67 0 89 45v385h-58v135h290v-135z" />
    <glyph glyph-name="K" unicode="K" horiz-adv-x="689" 
d="M672 135v-135h-277v135h40l-104 164l-67 -60v-104h48v-135h-280v135h49v430h-49v135h280v-135h-48v-156h4l168 156h-45v135h278v-135h-41l-174 -156l175 -274h43z" />
    <glyph glyph-name="L" unicode="L" horiz-adv-x="558" 
d="M314 565h-50v-430h136v96h141v-231h-509v135h49v430h-49v135h282v-135z" />
    <glyph glyph-name="M" unicode="M" horiz-adv-x="855" 
d="M823 565h-49v-430h49v-135h-266v135h49v341h-4l-126 -345h-99l-125 345h-4v-341h49v-135h-265v135h49v430h-49v135h284l114 -317h4l112 317h277v-135z" />
    <glyph glyph-name="N" unicode="N" horiz-adv-x="722" 
d="M691 565h-50v-565h-196l-193 429h-4v-294h49v-135h-265v135h49v430h-49v135h245l194 -430h4v295h-50v135h266v-135z" />
    <glyph glyph-name="O" unicode="O" horiz-adv-x="622" 
d="M311 715q109 0 176 -46t94 -107v-424q-27 -61 -94 -107t-176 -46t-176 46t-94 107v424q27 61 94 107t176 46zM311 577q-64 0 -87 -49v-356q22 -48 87 -48q67 0 87 48v356q-21 49 -87 49z" />
    <glyph glyph-name="P" unicode="P" horiz-adv-x="628" 
d="M32 700h352q68 0 124.5 -31t89.5 -88v-203q-29 -52 -84 -86t-130 -34h-120v-123h57v-135h-289v135h49v430h-49v135zM264 565v-172h78q59 0 80 40v92q-21 40 -80 40h-78z" />
    <glyph glyph-name="Q" unicode="Q" horiz-adv-x="625" 
d="M583 -24v-123q-33 -4 -67 -4q-81 0 -134.5 37t-77.5 99q-106 2 -171 48t-92 105v424q27 61 94 107t176 46t176 -46t94 -107v-424q-38 -84 -126 -124q21 -38 80 -38h48zM224 528v-356q22 -48 87 -48q67 0 87 48v356q-21 49 -87 49q-64 0 -87 -49z" />
    <glyph glyph-name="R" unicode="R" horiz-adv-x="652" 
d="M635 135v-135h-173l-143 269h-55v-134h47v-135h-279v135h49v430h-49v135h357q68 0 124.5 -31t89.5 -88v-192q-37 -68 -108 -99l92 -155h48zM264 396h83q59 0 80 41v88q-21 40 -80 40h-83v-169z" />
    <glyph glyph-name="S" unicode="S" horiz-adv-x="589" 
d="M294 715q74 0 133 -25.5t85.5 -52.5t42.5 -56v-103h-176v55q-8 18 -30.5 31t-54.5 13q-31 0 -53 -13.5t-31 -30.5v-56q15 -29 71 -42l45 -10q179 -39 229 -129v-176q-13 -22 -31 -42.5t-48.5 -43t-77.5 -36t-104 -13.5t-104 14t-77.5 36.5t-49 42.5t-30.5 42v113h177v-66
q22 -43 84 -43q60 0 85 43v69q-16 30 -71 42l-45 10q-177 37 -230 127v166q12 21 30 41.5t49 43t78 36t104 13.5z" />
    <glyph glyph-name="T" unicode="T" horiz-adv-x="685" 
d="M659 469h-141v96h-84v-430h49v-135h-282v135h50v430h-84v-96h-141v231h633v-231z" />
    <glyph glyph-name="U" unicode="U" horiz-adv-x="698" 
d="M672 565h-50v-427q-27 -60 -95.5 -106.5t-177.5 -46.5t-177.5 46.5t-95.5 106.5v427h-50v135h278v-135h-45v-389q9 -21 33 -35t57 -14q65 0 90 49v389h-44v135h277v-135z" />
    <glyph glyph-name="V" unicode="V" horiz-adv-x="679" 
d="M665 565h-46l-158 -565h-242l-159 565h-47v135h286v-135h-48l94 -398h4l98 398h-46v135h264v-135z" />
    <glyph glyph-name="W" unicode="W" horiz-adv-x="984" 
d="M965 565h-45l-122 -565h-217l-92 390h-4l-93 -390h-206l-122 565h-45v135h275v-135h-49l64 -345h4l114 480h138l111 -480h4l66 345h-43v135h262v-135z" />
    <glyph glyph-name="X" unicode="X" horiz-adv-x="644" 
d="M623 565h-43l-144 -213l144 -217h43v-135h-268v135h34l-72 126h-4l-72 -126h37v-135h-257v135h40l143 217l-143 213h-40v135h268v-135h-37l73 -123h4l75 123h-39v135h258v-135z" />
    <glyph glyph-name="Y" unicode="Y" horiz-adv-x="648" 
d="M634 565h-46l-178 -297v-133h50v-135h-282v135h49v151l-168 279h-45v135h274v-135h-45l87 -151h4l87 151h-46v135h259v-135z" />
    <glyph glyph-name="Z" unicode="Z" horiz-adv-x="583" 
d="M559 585l-316 -446v-4h175v85h141v-220h-535v115l314 446v4h-165v-74h-141v209h527v-115z" />
    <glyph glyph-name="bracketleft" unicode="[" horiz-adv-x="368" 
d="M335 579h-102v-626h102v-121h-285v868h285v-121z" />
    <glyph glyph-name="backslash" unicode="\" horiz-adv-x="429" 
d="M185 731l230 -841h-160l-230 841h160z" />
    <glyph glyph-name="bracketright" unicode="]" horiz-adv-x="368" 
d="M318 700v-868h-285v121h102v626h-102v121h285z" />
    <glyph glyph-name="asciicircum" unicode="^" horiz-adv-x="501" 
d="M490 342h-139l-99 208h-4l-97 -208h-140l162 358h153z" />
    <glyph glyph-name="underscore" unicode="_" horiz-adv-x="518" 
d="M523 -154h-528v106h528v-106z" />
    <glyph glyph-name="grave" unicode="`" 
d="M239 765l76 -163h-139l-112 163h175z" />
    <glyph glyph-name="a" unicode="a" horiz-adv-x="586" 
d="M277 559q98 0 158.5 -41.5t84.5 -95.5v-299h45v-123h-206v36q-56 -51 -144 -51q-72 0 -117.5 27.5t-59.5 55.5v163q15 32 60 62.5t117 30.5q81 0 136 -41v108q-20 40 -75 40q-51 0 -70 -31v-37h-154v90q9 14 23 28t40 34t68.5 32t93.5 12zM272 215q-51 0 -70 -27v-65
q26 -29 70 -29q53 0 79 30v60q-26 31 -79 31z" />
    <glyph glyph-name="b" unicode="b" horiz-adv-x="588" 
d="M236 720v-214q54 49 135 49q71 0 116.5 -39t62.5 -87v-314q-17 -48 -62.5 -87t-116.5 -39q-87 0 -141 54v-43h-208v123h45v474h-45v123h214zM309 427q-46 0 -73 -27v-256q27 -27 74 -27q27 0 45.5 11t24.5 23v242q-17 34 -71 34z" />
    <glyph glyph-name="c" unicode="c" horiz-adv-x="550" 
d="M282 559q51 0 94 -12.5t70 -32.5t43 -37t25 -33v-118h-156v65q-7 17 -28 28.5t-48 11.5q-56 0 -75 -40v-238q19 -40 75 -40q27 0 48 11.5t28 28.5v64h156v-117q-12 -22 -35 -45t-77 -46.5t-120 -23.5q-99 0 -160 42t-84 95v300q23 53 84 95t160 42z" />
    <glyph glyph-name="d" unicode="d" horiz-adv-x="586" 
d="M520 123h44v-123h-207v43q-54 -54 -140 -54q-71 0 -116.5 39t-62.5 87v314q17 48 62.5 87t116.5 39q80 0 133 -48v90h-45v123h215v-597zM277 427q-26 0 -44.5 -11t-25.5 -23v-242q6 -13 25 -23.5t46 -10.5q48 0 72 26v257q-27 27 -73 27z" />
    <glyph glyph-name="e" unicode="e" horiz-adv-x="551" 
d="M282 559q66 0 120 -23.5t77 -46.5t35 -45v-209h-307v-86q19 -40 75 -40q27 0 47.5 11.5t28.5 28.5v38h156v-87q-12 -22 -35 -45t-77 -46.5t-120 -23.5q-99 0 -160 42t-84 95v300q23 53 84 95t160 42zM282 435q-56 0 -75 -40v-66h151v66q-8 17 -28.5 28.5t-47.5 11.5z" />
    <glyph glyph-name="f" unicode="f" horiz-adv-x="374" 
d="M319 607q-57 0 -74 -26v-37h106v-123h-106v-298h51v-123h-265v123h45v298h-60v123h60v93q14 40 58 68t122 28q59 0 95 -13v-115q-15 2 -32 2z" />
    <glyph glyph-name="g" unicode="g" horiz-adv-x="585" 
d="M566 504h-30q-30 0 -54 -7q28 -23 45 -51v-143q-24 -41 -84 -76t-151 -35q-52 0 -91 12q-12 -7 -16 -12v-25q17 -19 90 -19h28q106 0 169 -24.5t83 -49.5v-171q-14 -18 -38.5 -35t-87 -35t-143.5 -18q-63 0 -114 10t-81.5 25.5t-47 28t-23.5 23.5v122q21 23 66 40
q-22 14 -40 32v101q13 26 61 52q-34 26 -50 54v143q24 41 83.5 76.5t151.5 35.5q57 0 105 -16q50 67 133 67q18 0 36 -3v-102zM369 339v71q-8 13 -28.5 23.5t-48.5 10.5t-48.5 -10.5t-28.5 -23.5v-71q8 -12 29 -22.5t48 -10.5t48 10.5t29 22.5zM303 18h-30q-41 0 -76 6
q-24 -11 -33 -21v-50q35 -29 122 -29q93 0 122 29v43q-24 22 -105 22z" />
    <glyph glyph-name="h" unicode="h" horiz-adv-x="617" 
d="M236 720v-213q53 48 135 48q72 0 117.5 -39t62.5 -87v-306h45v-123h-252v123h38v270q-21 34 -71 34q-48 0 -75 -27v-277h39v-123h-253v123h45v474h-45v123h214z" />
    <glyph glyph-name="i" unicode="i" horiz-adv-x="308" 
d="M232 603h-163v140h163v-140zM240 123h45v-123h-260v123h45v298h-45v123h215v-421z" />
    <glyph glyph-name="j" unicode="j" horiz-adv-x="283" 
d="M232 603h-164v140h164v-140zM240 544v-578q-22 -53 -83.5 -95t-160.5 -42v126q28 0 47.5 14t26.5 35v417h-45v123h215z" />
    <glyph glyph-name="k" unicode="k" horiz-adv-x="585" 
d="M564 123v-123h-229v123h18l-74 103l-43 -36v-67h41v-123h-255v123h45v474h-45v123h214v-394h4l110 95h-41v123h242v-123h-37l-125 -104l139 -194h36z" />
    <glyph glyph-name="l" unicode="l" horiz-adv-x="303" 
d="M236 123h45v-123h-259v123h45v474h-45v123h214v-597z" />
    <glyph glyph-name="m" unicode="m" horiz-adv-x="895" 
d="M874 123v-123h-250v123h36v274q-16 30 -62 30q-42 0 -64 -24v-280h36v-123h-241v123h36v274q-17 30 -60 30t-65 -24v-280h36v-123h-251v123h45v298h-45v123h203v-47q49 58 136 58t139 -67q60 67 149 67q75 0 118 -37.5t59 -86.5v-308h45z" />
    <glyph glyph-name="n" unicode="n" horiz-adv-x="620" 
d="M374 555q73 0 118.5 -39t62.5 -88v-305h45v-123h-252v123h37v270q-7 13 -25.5 23.5t-46.5 10.5q-48 0 -73 -27v-277h37v-123h-252v123h45v298h-45v123h203v-51q53 62 146 62z" />
    <glyph glyph-name="o" unicode="o" horiz-adv-x="565" 
d="M283 559q98 0 159 -41.5t85 -95.5v-300q-24 -54 -85 -95.5t-159 -41.5q-99 0 -160.5 42t-84.5 95v300q23 53 84.5 95t160.5 42zM282 431q-56 0 -75 -40v-238q19 -40 75 -40q28 0 48.5 11.5t27.5 28.5v238q-7 17 -27.5 28.5t-48.5 11.5z" />
    <glyph glyph-name="p" unicode="p" horiz-adv-x="591" 
d="M372 555q73 0 118.5 -39t62.5 -87v-314q-17 -48 -62.5 -87t-118.5 -39q-82 0 -133 48v-86h45v-122h-259v122h45v470h-45v123h208v-44q55 55 139 55zM312 427q-48 0 -73 -27v-256q25 -27 74 -27q27 0 45 11t25 23v242q-17 34 -71 34z" />
    <glyph glyph-name="q" unicode="q" horiz-adv-x="590" 
d="M218 555q86 0 139 -55v44h207v-123h-44v-470h44v-122h-259v122h45v86q-53 -48 -132 -48q-73 0 -118 38.5t-62 87.5v314q17 49 62 87.5t118 38.5zM277 427q-26 0 -44.5 -11t-25.5 -23v-242q6 -13 25 -23.5t46 -10.5q48 0 72 26v257q-25 27 -73 27z" />
    <glyph glyph-name="r" unicode="r" horiz-adv-x="419" 
d="M373 548q13 0 22 -1v-152q-13 1 -26 1q-91 0 -129 -36v-237h51v-123h-266v123h45v298h-45v123h203v-74q48 78 145 78z" />
    <glyph glyph-name="s" unicode="s" horiz-adv-x="529" 
d="M265 559q50 0 91.5 -12t68.5 -31t41.5 -33.5t24.5 -29.5v-82h-157v39q-18 32 -70 32q-50 0 -70 -32v-39q11 -18 60 -29l51 -11q147 -30 186 -90v-150q-10 -15 -25 -30t-42 -34t-69 -30.5t-91 -11.5t-91 12t-69 30.5t-42 34t-24 29.5v86h156v-43q20 -32 70 -32q52 0 70 32
v43q-9 20 -58 30l-53 10q-80 16 -126 42t-59 50v144q13 21 35 41.5t74.5 42.5t117.5 22z" />
    <glyph glyph-name="t" unicode="t" horiz-adv-x="376" 
d="M245 544h105v-123h-105v-283q19 -25 73 -25q20 0 32 1v-114q-44 -13 -96 -13q-77 0 -121 28t-58 68v338h-60v123h60v118h170v-118z" />
    <glyph glyph-name="u" unicode="u" horiz-adv-x="614" 
d="M548 123h44v-123h-201v49q-53 -60 -142 -60q-72 0 -116.5 38t-62.5 87v307h-45v123h215v-394q6 -12 23.5 -22.5t44.5 -10.5q46 0 70 26v278h-44v123h214v-421z" />
    <glyph glyph-name="v" unicode="v" horiz-adv-x="575" 
d="M560 421h-37l-133 -421h-204l-134 421h-36v123h242v-123h-31l67 -261h4l68 261h-29v123h223v-123z" />
    <glyph glyph-name="w" unicode="w" horiz-adv-x="842" 
d="M824 421h-36l-107 -421h-187l-68 285h-4l-68 -285h-191l-108 421h-37v123h241v-123h-34l49 -249h4l83 372h138l83 -372h4l49 249h-34v123h223v-123z" />
    <glyph glyph-name="x" unicode="x" horiz-adv-x="567" 
d="M550 421h-36l-115 -147l115 -151h36v-123h-235v123h29l-59 84h-4l-58 -84h30v-123h-236v123h37l115 151l-115 147h-37v123h236v-123h-30l58 -81h4l59 81h-29v123h235v-123z" />
    <glyph glyph-name="y" unicode="y" horiz-adv-x="555" 
d="M539 421h-33l-162 -512q-69 -79 -200 -79q-61 0 -92 11v116q24 -2 52 -2q61 0 90 28l9 29l-151 409h-36v123h235v-123h-32l64 -223h4l61 223h-31v123h222v-123z" />
    <glyph glyph-name="z" unicode="z" horiz-adv-x="516" 
d="M491 438l-271 -311v-4h142v75h129v-198h-465v113l264 304v4h-131v-64h-129v187h461v-106z" />
    <glyph glyph-name="braceleft" unicode="{" horiz-adv-x="379" 
d="M350 700v-121q-43 0 -62 -23.5t-25 -65.5v-140q-20 -57 -69 -90q50 -35 69 -89v-141q6 -41 25 -64.5t62 -23.5v-121q-111 0 -181 49.5t-95 118.5v160q-5 51 -47 51v121q42 0 47 51v159q25 70 95 119.5t181 49.5z" />
    <glyph glyph-name="bar" unicode="|" horiz-adv-x="318" 
d="M250 -130h-183v920h183v-920z" />
    <glyph glyph-name="braceright" unicode="}" horiz-adv-x="379" 
d="M28 579v121q112 0 182 -49.5t95 -119.5v-159q4 -51 47 -51v-121q-43 0 -47 -51v-160q-25 -69 -95 -118.5t-182 -49.5v121q44 0 63 23.5t25 64.5v141q19 54 69 89q-49 33 -69 90v140q-6 42 -25 65.5t-63 23.5z" />
    <glyph glyph-name="asciitilde" unicode="~" horiz-adv-x="586" 
d="M172 460q50 0 137.5 -25.5t130.5 -25.5q29 0 57 11t41 22l14 11v-145q-42 -34 -111 -34q-53 0 -139 25.5t-132 25.5q-35 0 -69 -12.5t-51 -25.5l-16 -13v140q6 5 17 12.5t47 20.5t74 13z" />
    <glyph glyph-name="uni00A0" unicode="&#xa0;" horiz-adv-x="202" 
 />
    <glyph glyph-name="exclamdown" unicode="&#xa1;" horiz-adv-x="294" 
d="M59 380v164h177v-164h-177zM52 -156v164l21 321h148l22 -321v-164h-191z" />
    <glyph glyph-name="cent" unicode="&#xa2;" horiz-adv-x="546" 
d="M353 635v-84q64 -13 103.5 -44t58.5 -63v-118h-156v65q-8 17 -28.5 28.5t-48.5 11.5q-55 0 -74 -40v-238q19 -40 74 -40q28 0 48.5 11.5t28.5 28.5v64h156v-117q-16 -30 -56.5 -62t-105.5 -45v-85h-138v84q-69 13 -113.5 50t-63.5 80v300q19 43 63.5 80t113.5 49v84h138z
" />
    <glyph glyph-name="sterling" unicode="&#xa3;" horiz-adv-x="608" 
d="M329 715q95 0 157 -37.5t85 -74.5v-106h-162v46q-8 17 -30 28.5t-50 11.5t-49.5 -12t-28.5 -28v-147h220v-99h-220v-106q-11 -26 -31 -51h214v65h137v-205h-533v115q28 5 37 33v149h-45v99h45v185q24 49 90 91.5t164 42.5z" />
    <glyph glyph-name="currency" unicode="&#xa4;" horiz-adv-x="591" 
d="M543 504l-23 -23q11 -15 20 -33v-231q-9 -19 -19 -32l22 -22v-81h-109l-23 22q-53 -24 -116 -24q-59 0 -116 23l-21 -21h-111v81l22 22q-12 14 -19 32v231q5 14 19 33l-22 23v81h111l22 -23q53 23 115 23q67 0 115 -24l24 24h109v-81zM295 458q-56 0 -75 -40v-170
q19 -40 75 -40q57 0 76 40v170q-19 40 -76 40z" />
    <glyph glyph-name="yen" unicode="&#xa5;" horiz-adv-x="619" 
d="M558 566l-80 -138h105v-83h-152l-35 -60v-6h187v-83h-187v-61h50v-135h-283v135h50v61h-179v83h179v6l-33 60h-146v83h100l-75 137h-48v135h263v-135h-28l69 -157h4l70 157h-32v135h251v-135z" />
    <glyph glyph-name="brokenbar" unicode="&#xa6;" horiz-adv-x="319" 
d="M250 385h-183v405h183v-405zM250 -130h-183v444h183v-444z" />
    <glyph glyph-name="section" unicode="&#xa7;" horiz-adv-x="528" 
d="M264 715q153 0 226 -106v-82h-156v41q-20 32 -71 32q-24 0 -43 -9.5t-26 -22.5v-41q8 -18 59 -29l51 -11q80 -16 126 -41.5t60 -49.5v-148q-16 -29 -53 -47q41 -22 53 -44v-142q-13 -21 -35 -41.5t-74.5 -42.5t-117.5 -22q-150 0 -226 106v82h157v-41q18 -32 70 -32
q50 0 70 32v41q-10 18 -59 29l-52 11q-147 30 -186 91v149q19 29 53 46q-38 19 -53 44v142q13 21 35 41.5t74.5 42.5t117.5 22zM276 365l-17 3q-49 -3 -65 -32v-46q9 -20 58 -30l16 -4q46 1 66 32v46q-11 21 -58 31z" />
    <glyph glyph-name="dieresis" unicode="&#xa8;" 
d="M207 608h-147v133h147v-133zM414 608h-147v133h147v-133z" />
    <glyph glyph-name="copyright" unicode="&#xa9;" horiz-adv-x="792" 
d="M396 715q152 0 260 -106.5t108 -258.5t-108 -258.5t-260 -106.5t-260 106.5t-108 258.5t108 258.5t260 106.5zM396 646q-123 0 -207 -86t-84 -210t84 -210t207 -86t207 86t84 210t-84 210t-207 86zM395 582q132 0 195 -91v-99h-129v56q-19 29 -63 29q-45 0 -63 -29v-194
q15 -29 63 -29q45 0 63 29v55h129v-99q-62 -90 -195 -90q-82 0 -132 34.5t-68 73.5v247q20 39 69 73t131 34z" />
    <glyph glyph-name="ordfeminine" unicode="&#xaa;" horiz-adv-x="417" 
d="M398 350h-129v24q-38 -32 -101 -32q-48 0 -80 17.5t-42 35.5v108q13 21 44 40t78 19q59 0 98 -29v61q-16 36 -62 36q-39 0 -56 -25v-19h-95v54q47 71 151 71q66 0 108 -28.5t56 -66.5v-193h30v-73zM266 437v29q-23 25 -66 25q-41 0 -54 -23v-33q10 -22 54 -22t66 24z" />
    <glyph glyph-name="guillemotleft" unicode="&#xab;" horiz-adv-x="644" 
d="M344 26h-145l-171 251v15l171 252h145l-173 -259zM616 26h-145l-171 251v15l171 252h145l-173 -259z" />
    <glyph glyph-name="logicalnot" unicode="&#xac;" horiz-adv-x="588" 
d="M556 71h-135v196h-389v133h524v-329z" />
    <glyph glyph-name="softhyphen" unicode="&#xad;" horiz-adv-x="368" 
d="M336 267h-306v135h306v-135z" />
    <glyph glyph-name="registered" unicode="&#xae;" horiz-adv-x="518" 
d="M259 824q98 0 169.5 -70.5t71.5 -168.5t-71.5 -168.5t-169.5 -70.5t-169.5 70.5t-71.5 168.5t71.5 168.5t169.5 70.5zM259 774q-78 0 -132 -55.5t-54 -133.5t54 -133.5t132 -55.5t132 55.5t54 133.5t-54 133.5t-132 55.5zM146 722h139q26 0 51 -14.5t36 -38.5v-64
q-13 -28 -44 -40l36 -54h16v-54h-69l-50 95h-25v-41h17v-54h-107v54h20v158h-20v53zM236 669v-66h36q24 0 29 16v34q-7 16 -29 16h-36z" />
    <glyph glyph-name="macron" unicode="&#xaf;" 
d="M411 612h-349v111h349v-111z" />
    <glyph glyph-name="degree" unicode="&#xb0;" horiz-adv-x="398" 
d="M199 807q68 0 111 -28t59 -63v-131q-17 -34 -59.5 -62.5t-110.5 -28.5t-111 28t-60 63v131q17 35 60 63t111 28zM198 711q-38 0 -53 -25v-71q15 -25 53 -25q39 0 54 25v71q-15 25 -54 25z" />
    <glyph glyph-name="plusminus" unicode="&#xb1;" horiz-adv-x="588" 
d="M364 492h192v-134h-192v-170h-141v170h-191v134h191v168h141v-168zM556 13h-524v134h524v-134z" />
    <glyph glyph-name="acute" unicode="&#xb4;" 
d="M267 602h-139l76 163h175z" />
    <glyph glyph-name="paragraph" unicode="&#xb6;" horiz-adv-x="690" 
d="M399 -100h-183v125h57v201h-26q-74 0 -129 34t-84 86v235q33 57 89.5 88t123.5 31h152v-800zM659 575h-50v-550h50v-125h-175v800h175v-125z" />
    <glyph glyph-name="periodcentered" unicode="&#xb7;" horiz-adv-x="238" 
d="M208 265h-178v172h178v-172z" />
    <glyph glyph-name="cedilla" unicode="&#xb8;" 
d="M258 -40h8q70 0 90 -51v-77q-13 -30 -48.5 -46.5t-83.5 -16.5q-68 0 -102 17l23 69q40 -9 70 -9q40 0 48 18v20q-7 15 -46 15h-60l35 105h83z" />
    <glyph glyph-name="ordmasculine" unicode="&#xba;" horiz-adv-x="421" 
d="M211 711q66 0 108 -28.5t56 -66.5v-179q-14 -39 -56 -67t-108 -28t-107.5 28t-57.5 67v179q16 39 58 67t107 28zM211 630q-46 0 -63 -36v-136q17 -34 63 -34q23 0 39.5 10t22.5 24v136q-6 15 -22.5 25.5t-39.5 10.5z" />
    <glyph glyph-name="guillemotright" unicode="&#xbb;" horiz-adv-x="642" 
d="M28 544h145l171 -252v-15l-171 -251h-145l173 259zM298 544h145l171 -252v-15l-171 -251h-145l173 259z" />
    <glyph glyph-name="onequarter" unicode="&#xbc;" horiz-adv-x="924" 
d="M231 360h65v-80h-253v80h67v236l-68 -26v78l87 52h102v-340zM261 0h-124l524 700h122zM836 167h48v-90h-48v-77h-116v77h-217v87l160 256h173v-253zM719 335l-104 -168h106v168h-2z" />
    <glyph glyph-name="onehalf" unicode="&#xbd;" horiz-adv-x="975" 
d="M233 360h64v-80h-253v80h68v236l-68 -26v78l87 52h102v-340zM261 0h-124l524 700h122zM753 430q67 0 111.5 -26.5t61.5 -58.5v-81q-19 -41 -96 -87l-54 -33q-57 -32 -67 -50v-14h123v50h96v-130h-340v106q23 48 99 93l66 37q43 26 52 46v37q-13 23 -52 23q-40 0 -53 -21
v-53h-111v95q53 67 164 67z" />
    <glyph glyph-name="threequarters" unicode="&#xbe;" horiz-adv-x="964" 
d="M206 710q66 0 111 -25.5t60 -54.5v-91q-16 -24 -63 -41q47 -18 67 -50v-96q-16 -30 -61.5 -55.5t-112.5 -25.5q-45 0 -83.5 14t-55 27t-25.5 24v77h111v-36q11 -19 53 -19q40 0 53 19v50q-11 23 -53 23h-64v87h63q35 0 51 20v48q-15 17 -51 17q-37 0 -52 -17v-34h-111v74
q10 12 25.5 24.5t54 26.5t83.5 14zM299 0h-123l523 700h122zM873 167h49v-90h-49v-77h-116v77h-217v87l160 256h173v-253zM756 335l-104 -168h106v168h-2z" />
    <glyph glyph-name="questiondown" unicode="&#xbf;" horiz-adv-x="544" 
d="M219 544h178v-164h-178v164zM280 -171q-177 0 -256 128v179q12 19 86 69l112 79v44h173v-111l-101 -66q-76 -50 -94 -72v-74q24 -38 80 -38q55 0 80 38v64h161v-133q-80 -107 -241 -107z" />
    <glyph glyph-name="Agrave" unicode="&#xc0;" horiz-adv-x="689" 
d="M274 747l-112 156h175l76 -156h-139zM674 135v-135h-281v135h49l-19 80h-173l-20 -80h46v-135h-261v135h46l120 430h-44v135h411v-135h-45l124 -430h47zM392 348l-52 217h-4l-53 -217h109z" />
    <glyph glyph-name="Aacute" unicode="&#xc1;" horiz-adv-x="689" 
d="M409 744h-139l76 159h175zM674 135v-135h-281v135h49l-19 80h-173l-20 -80h46v-135h-261v135h46l120 430h-44v135h411v-135h-45l124 -430h47zM392 348l-52 217h-4l-53 -217h109z" />
    <glyph glyph-name="Acircumflex" unicode="&#xc2;" horiz-adv-x="689" 
d="M283 744h-123l85 159h198l85 -159h-123l-61 93zM674 135v-135h-281v135h49l-19 80h-173l-20 -80h46v-135h-261v135h46l120 430h-44v135h411v-135h-45l124 -430h47zM392 348l-52 217h-4l-53 -217h109z" />
    <glyph glyph-name="Atilde" unicode="&#xc3;" horiz-adv-x="689" 
d="M252 745h-97v64q6 35 36.5 59t76.5 24q43 0 81 -24t53 -24q26 0 33 23v20h97v-64q-6 -34 -36.5 -58.5t-76.5 -24.5q-44 0 -81.5 24t-53.5 24q-24 0 -32 -23v-20zM674 135v-135h-281v135h49l-19 80h-173l-20 -80h46v-135h-261v135h46l120 430h-44v135h411v-135h-45
l124 -430h47zM392 348l-52 217h-4l-53 -217h109z" />
    <glyph glyph-name="Adieresis" unicode="&#xc4;" horiz-adv-x="689" 
d="M314 753h-147v133h147v-133zM520 753h-146v133h146v-133zM674 135v-135h-281v135h49l-19 80h-173l-20 -80h46v-135h-261v135h46l120 430h-44v135h411v-135h-45l124 -430h47zM392 348l-52 217h-4l-53 -217h109z" />
    <glyph glyph-name="Aring" unicode="&#xc5;" horiz-adv-x="689" 
d="M345 728q-45 0 -80.5 18t-51.5 48v93q16 30 51.5 48t80.5 18q46 0 81.5 -18t51.5 -48v-93q-16 -30 -51.5 -48t-81.5 -18zM289 865v-49q14 -24 56 -24q43 0 57 24v49q-14 24 -57 24q-42 0 -56 -24zM674 135v-135h-281v135h49l-19 80h-173l-20 -80h46v-135h-261v135h46
l120 430h-44v135h411v-135h-45l124 -430h47zM392 348l-52 217h-4l-53 -217h109z" />
    <glyph glyph-name="AE" unicode="&#xc6;" horiz-adv-x="935" 
d="M909 220v-220h-540v135h42v88h-140l-35 -88h45v-135h-266v135h46l184 430h-45v135h700v-209h-141v74h-165v-141h202v-134h-202v-155h174v85h141zM411 357v208h-4l-83 -208h87z" />
    <glyph glyph-name="Ccedilla" unicode="&#xc7;" horiz-adv-x="611" 
d="M398 422v106q-21 49 -87 49q-63 0 -87 -49v-356q9 -21 31.5 -34.5t55.5 -13.5q63 0 87 48v117h176v-164q-27 -50 -84 -91.5t-152 -47.5l-9 -26h8q68 0 90 -52v-81q-31 -63 -132 -63q-69 0 -103 18l24 70q38 -9 69 -9q41 0 49 18v21q-7 14 -46 14h-61l31 92
q-86 12 -139.5 55t-77.5 95v424q27 61 94 107t176 46q57 0 104 -14t78 -37t50 -44t31 -44v-154h-176z" />
    <glyph glyph-name="Egrave" unicode="&#xc8;" horiz-adv-x="606" 
d="M318 903l76 -156h-139l-112 156h175zM571 491h-141v74h-166v-141h202v-134h-202v-155h175v85h141v-220h-548v135h49v430h-49v135h539v-209z" />
    <glyph glyph-name="Eacute" unicode="&#xc9;" horiz-adv-x="606" 
d="M390 744h-139l76 159h175zM571 491h-141v74h-166v-141h202v-134h-202v-155h175v85h141v-220h-548v135h49v430h-49v135h539v-209z" />
    <glyph glyph-name="Ecircumflex" unicode="&#xca;" horiz-adv-x="606" 
d="M386 744l-61 93l-61 -93h-123l85 159h198l85 -159h-123zM571 491h-141v74h-166v-141h202v-134h-202v-155h175v85h141v-220h-548v135h49v430h-49v135h539v-209z" />
    <glyph glyph-name="Edieresis" unicode="&#xcb;" horiz-adv-x="606" 
d="M295 753h-147v133h147v-133zM501 753h-146v133h146v-133zM571 491h-141v74h-166v-141h202v-134h-202v-155h175v85h141v-220h-548v135h49v430h-49v135h539v-209z" />
    <glyph glyph-name="Igrave" unicode="&#xcc;" horiz-adv-x="345" 
d="M165 903l76 -156h-139l-112 156h175zM314 565h-50v-430h50v-135h-282v135h49v430h-49v135h282v-135z" />
    <glyph glyph-name="Iacute" unicode="&#xcd;" horiz-adv-x="345" 
d="M237 744h-139l76 159h175zM314 565h-50v-430h50v-135h-282v135h49v430h-49v135h282v-135z" />
    <glyph glyph-name="Icircumflex" unicode="&#xce;" horiz-adv-x="345" 
d="M234 744l-61 93l-61 -93h-123l85 159h198l85 -159h-123zM314 565h-50v-430h50v-135h-282v135h49v430h-49v135h282v-135z" />
    <glyph glyph-name="Idieresis" unicode="&#xcf;" horiz-adv-x="345" 
d="M142 753h-147v133h147v-133zM348 753h-146v133h146v-133zM314 565h-50v-430h50v-135h-282v135h49v430h-49v135h282v-135z" />
    <glyph glyph-name="Eth" unicode="&#xd0;" horiz-adv-x="660" 
d="M34 700h353q89 0 147.5 -40.5t84.5 -97.5v-424q-26 -57 -84.5 -97.5t-147.5 -40.5h-353v135h49v154h-51v133h51v143h-49v135zM436 180v340q-19 45 -87 45h-83v-143h93v-133h-93v-154h83q68 0 87 45z" />
    <glyph glyph-name="Ntilde" unicode="&#xd1;" horiz-adv-x="722" 
d="M285 892q43 0 81 -24t53 -24q26 0 33 23v20h97v-64q-6 -34 -36.5 -58.5t-76.5 -24.5q-44 0 -81.5 24t-53.5 24q-24 0 -32 -23v-20h-97v64q6 35 36.5 59t76.5 24zM691 565h-50v-565h-196l-193 429h-4v-294h49v-135h-265v135h49v430h-49v135h245l194 -430h4v295h-50v135
h266v-135z" />
    <glyph glyph-name="Ograve" unicode="&#xd2;" horiz-adv-x="622" 
d="M304 903l76 -156h-139l-112 156h175zM311 715q109 0 176 -46t94 -107v-424q-27 -61 -94 -107t-176 -46t-176 46t-94 107v424q27 61 94 107t176 46zM311 577q-64 0 -87 -49v-356q22 -48 87 -48q67 0 87 48v356q-21 49 -87 49z" />
    <glyph glyph-name="Oacute" unicode="&#xd3;" horiz-adv-x="622" 
d="M376 744h-139l76 159h175zM311 715q109 0 176 -46t94 -107v-424q-27 -61 -94 -107t-176 -46t-176 46t-94 107v424q27 61 94 107t176 46zM311 577q-64 0 -87 -49v-356q22 -48 87 -48q67 0 87 48v356q-21 49 -87 49z" />
    <glyph glyph-name="Ocircumflex" unicode="&#xd4;" horiz-adv-x="622" 
d="M372 744l-61 93l-61 -93h-123l85 159h198l85 -159h-123zM311 715q109 0 176 -46t94 -107v-424q-27 -61 -94 -107t-176 -46t-176 46t-94 107v424q27 61 94 107t176 46zM311 577q-64 0 -87 -49v-356q22 -48 87 -48q67 0 87 48v356q-21 49 -87 49z" />
    <glyph glyph-name="Otilde" unicode="&#xd5;" horiz-adv-x="622" 
d="M235 892q43 0 81 -24t53 -24q26 0 33 23v20h97v-64q-6 -34 -36.5 -58.5t-76.5 -24.5q-44 0 -81.5 24t-53.5 24q-24 0 -32 -23v-20h-97v64q6 35 36.5 59t76.5 24zM311 715q109 0 176 -46t94 -107v-424q-27 -61 -94 -107t-176 -46t-176 46t-94 107v424q27 61 94 107t176 46
zM311 577q-64 0 -87 -49v-356q22 -48 87 -48q67 0 87 48v356q-21 49 -87 49z" />
    <glyph glyph-name="Odieresis" unicode="&#xd6;" horiz-adv-x="622" 
d="M281 753h-147v133h147v-133zM487 753h-146v133h146v-133zM311 715q109 0 176 -46t94 -107v-424q-27 -61 -94 -107t-176 -46t-176 46t-94 107v424q27 61 94 107t176 46zM311 577q-64 0 -87 -49v-356q22 -48 87 -48q67 0 87 48v356q-21 49 -87 49z" />
    <glyph glyph-name="multiply" unicode="&#xd7;" horiz-adv-x="588" 
d="M551 496l-161 -162l161 -163l-101 -89l-156 155l-155 -155l-103 89l162 163l-162 162l103 89l155 -156l156 156z" />
    <glyph glyph-name="Oslash" unicode="&#xd8;" horiz-adv-x="622" 
d="M591 656l-36 -50q17 -23 26 -44v-424q-27 -61 -94 -107t-176 -46q-102 0 -175 46l-29 -40l-76 53l36 50q-17 23 -26 44v424q27 61 94 107t176 46q102 0 175 -46l29 40zM224 309l168 231q-26 37 -81 37q-64 0 -87 -49v-219zM398 391l-167 -230q26 -37 80 -37q67 0 87 48
v219z" />
    <glyph glyph-name="Ugrave" unicode="&#xd9;" horiz-adv-x="698" 
d="M342 903l76 -156h-139l-112 156h175zM672 565h-50v-427q-27 -60 -95.5 -106.5t-177.5 -46.5t-177.5 46.5t-95.5 106.5v427h-50v135h278v-135h-45v-389q9 -21 33 -35t57 -14q65 0 90 49v389h-44v135h277v-135z" />
    <glyph glyph-name="Uacute" unicode="&#xda;" horiz-adv-x="698" 
d="M414 744h-139l76 159h175zM672 565h-50v-427q-27 -60 -95.5 -106.5t-177.5 -46.5t-177.5 46.5t-95.5 106.5v427h-50v135h278v-135h-45v-389q9 -21 33 -35t57 -14q65 0 90 49v389h-44v135h277v-135z" />
    <glyph glyph-name="Ucircumflex" unicode="&#xdb;" horiz-adv-x="698" 
d="M410 744l-61 93l-61 -93h-123l85 159h198l85 -159h-123zM672 565h-50v-427q-27 -60 -95.5 -106.5t-177.5 -46.5t-177.5 46.5t-95.5 106.5v427h-50v135h278v-135h-45v-389q9 -21 33 -35t57 -14q65 0 90 49v389h-44v135h277v-135z" />
    <glyph glyph-name="Udieresis" unicode="&#xdc;" horiz-adv-x="698" 
d="M318 753h-147v133h147v-133zM524 753h-146v133h146v-133zM672 565h-50v-427q-27 -60 -95.5 -106.5t-177.5 -46.5t-177.5 46.5t-95.5 106.5v427h-50v135h278v-135h-45v-389q9 -21 33 -35t57 -14q65 0 90 49v389h-44v135h277v-135z" />
    <glyph glyph-name="Yacute" unicode="&#xdd;" horiz-adv-x="648" 
d="M389 744h-139l76 159h175zM634 565h-46l-178 -297v-133h50v-135h-282v135h49v151l-168 279h-45v135h274v-135h-45l87 -151h4l87 151h-46v135h259v-135z" />
    <glyph glyph-name="Thorn" unicode="&#xde;" horiz-adv-x="627" 
d="M264 588h120q68 0 124.5 -31t89.5 -88v-171q-29 -52 -84 -86t-130 -34h-120v-50h57v-128h-289v128h49v437h-49v135h232v-112zM264 460v-153h78q59 0 80 40v72q-22 41 -80 41h-78z" />
    <glyph glyph-name="germandbls" unicode="&#xdf;" horiz-adv-x="590" 
d="M307 715q92 0 150.5 -36t80.5 -74v-179q-20 -34 -63 -58q58 -37 81 -90v-156q-28 -61 -88.5 -91.5t-169.5 -30.5v128q37 0 56 6.5t33 29.5v91q-19 40 -78 40v127q53 0 73 35v95q-21 36 -75 36q-49 0 -71 -36v-552h-214v123h45v461q25 50 85.5 90.5t154.5 40.5z" />
    <glyph glyph-name="agrave" unicode="&#xe0;" horiz-adv-x="586" 
d="M295 765l76 -163h-139l-112 163h175zM277 559q98 0 158.5 -41.5t84.5 -95.5v-299h45v-123h-206v36q-56 -51 -144 -51q-72 0 -117.5 27.5t-59.5 55.5v163q15 32 60 62.5t117 30.5q81 0 136 -41v108q-20 40 -75 40q-51 0 -70 -31v-37h-154v90q9 14 23 28t40 34t68.5 32
t93.5 12zM272 215q-51 0 -70 -27v-65q26 -29 70 -29q53 0 79 30v60q-26 31 -79 31z" />
    <glyph glyph-name="aacute" unicode="&#xe1;" horiz-adv-x="586" 
d="M350 602h-139l76 163h175zM277 559q98 0 158.5 -41.5t84.5 -95.5v-299h45v-123h-206v36q-56 -51 -144 -51q-72 0 -117.5 27.5t-59.5 55.5v163q15 32 60 62.5t117 30.5q81 0 136 -41v108q-20 40 -75 40q-51 0 -70 -31v-37h-154v90q9 14 23 28t40 34t68.5 32t93.5 12z
M272 215q-51 0 -70 -27v-65q26 -29 70 -29q53 0 79 30v60q-26 31 -79 31z" />
    <glyph glyph-name="acircumflex" unicode="&#xe2;" horiz-adv-x="586" 
d="M391 764l84 -162h-122l-61 97l-61 -97h-123l85 162h198zM277 559q98 0 158.5 -41.5t84.5 -95.5v-299h45v-123h-206v36q-56 -51 -144 -51q-72 0 -117.5 27.5t-59.5 55.5v163q15 32 60 62.5t117 30.5q81 0 136 -41v108q-20 40 -75 40q-51 0 -70 -31v-37h-154v90q9 14 23 28
t40 34t68.5 32t93.5 12zM272 215q-51 0 -70 -27v-65q26 -29 70 -29q53 0 79 30v60q-26 31 -79 31z" />
    <glyph glyph-name="atilde" unicode="&#xe3;" horiz-adv-x="586" 
d="M216 747q43 0 81 -24t53 -24q26 0 33 23v20h97v-64q-6 -35 -36.5 -59.5t-76.5 -24.5q-44 0 -81.5 24.5t-53.5 24.5q-24 0 -32 -23v-21h-97v65q6 35 36.5 59t76.5 24zM277 559q98 0 158.5 -41.5t84.5 -95.5v-299h45v-123h-206v36q-56 -51 -144 -51q-72 0 -117.5 27.5
t-59.5 55.5v163q15 32 60 62.5t117 30.5q81 0 136 -41v108q-20 40 -75 40q-51 0 -70 -31v-37h-154v90q9 14 23 28t40 34t68.5 32t93.5 12zM272 215q-51 0 -70 -27v-65q26 -29 70 -29q53 0 79 30v60q-26 31 -79 31z" />
    <glyph glyph-name="adieresis" unicode="&#xe4;" horiz-adv-x="586" 
d="M262 608h-147v133h147v-133zM469 608h-147v133h147v-133zM277 559q98 0 158.5 -41.5t84.5 -95.5v-299h45v-123h-206v36q-56 -51 -144 -51q-72 0 -117.5 27.5t-59.5 55.5v163q15 32 60 62.5t117 30.5q81 0 136 -41v108q-20 40 -75 40q-51 0 -70 -31v-37h-154v90
q9 14 23 28t40 34t68.5 32t93.5 12zM272 215q-51 0 -70 -27v-65q26 -29 70 -29q53 0 79 30v60q-26 31 -79 31z" />
    <glyph glyph-name="aring" unicode="&#xe5;" horiz-adv-x="586" 
d="M292 819q46 0 81.5 -17.5t51.5 -47.5v-99q-16 -30 -51.5 -47.5t-81.5 -17.5q-45 0 -80.5 17.5t-51.5 47.5v99q16 30 51.5 47.5t80.5 17.5zM292 755q-41 0 -56 -23v-55q15 -23 56 -23q42 0 57 23v55q-15 23 -57 23zM277 559q98 0 158.5 -41.5t84.5 -95.5v-299h45v-123
h-206v36q-56 -51 -144 -51q-72 0 -117.5 27.5t-59.5 55.5v163q15 32 60 62.5t117 30.5q81 0 136 -41v108q-20 40 -75 40q-51 0 -70 -31v-37h-154v90q9 14 23 28t40 34t68.5 32t93.5 12zM272 215q-51 0 -70 -27v-65q26 -29 70 -29q53 0 79 30v60q-26 31 -79 31z" />
    <glyph glyph-name="ae" unicode="&#xe6;" horiz-adv-x="862" 
d="M595 559q51 0 94 -12.5t70.5 -33t43 -37t24.5 -32.5v-214h-307v-81q21 -40 75 -40q28 0 48 11.5t27 28.5v38h157v-87q-9 -16 -24.5 -32.5t-43 -37t-70.5 -33t-94 -12.5q-115 0 -186 62q-71 -62 -173 -62q-82 0 -130 26.5t-68 56.5v165q15 32 59.5 62.5t117.5 30.5
q78 0 136 -43v108q-20 40 -75 40q-51 0 -70 -31v-37h-157v90q10 14 23.5 28t40.5 33.5t69.5 32t93.5 12.5q94 0 159 -46q67 46 160 46zM595 435q-55 0 -75 -40v-70h150v70q-7 17 -27 28.5t-48 11.5zM273 217q-51 0 -70 -27v-66q22 -30 70 -30q52 0 78 30v62q-25 31 -78 31z
" />
    <glyph glyph-name="ccedilla" unicode="&#xe7;" horiz-adv-x="550" 
d="M358 326v65q-7 17 -28 28.5t-48 11.5q-56 0 -75 -40v-238q19 -40 75 -40q27 0 48 11.5t28 28.5v64h156v-117q-20 -35 -69 -70.5t-129 -42.5l-10 -27h8q70 0 90 -51v-77q-30 -63 -132 -63q-68 0 -102 17l23 69q40 -9 69 -9q41 0 49 18v20q-7 15 -46 15h-60l30 89
q-78 10 -127.5 49t-69.5 85v300q23 53 84 95t160 42q51 0 94 -12.5t70 -32.5t43 -37t25 -33v-118h-156z" />
    <glyph glyph-name="egrave" unicode="&#xe8;" horiz-adv-x="551" 
d="M288 765l76 -163h-139l-112 163h175zM282 559q66 0 120 -23.5t77 -46.5t35 -45v-209h-307v-86q19 -40 75 -40q27 0 47.5 11.5t28.5 28.5v38h156v-87q-12 -22 -35 -45t-77 -46.5t-120 -23.5q-99 0 -160 42t-84 95v300q23 53 84 95t160 42zM282 435q-56 0 -75 -40v-66h151
v66q-8 17 -28.5 28.5t-47.5 11.5z" />
    <glyph glyph-name="eacute" unicode="&#xe9;" horiz-adv-x="551" 
d="M343 602h-139l76 163h175zM282 559q66 0 120 -23.5t77 -46.5t35 -45v-209h-307v-86q19 -40 75 -40q27 0 47.5 11.5t28.5 28.5v38h156v-87q-12 -22 -35 -45t-77 -46.5t-120 -23.5q-99 0 -160 42t-84 95v300q23 53 84 95t160 42zM282 435q-56 0 -75 -40v-66h151v66
q-8 17 -28.5 28.5t-47.5 11.5z" />
    <glyph glyph-name="ecircumflex" unicode="&#xea;" horiz-adv-x="551" 
d="M384 764l84 -162h-122l-61 97l-61 -97h-123l85 162h198zM282 559q66 0 120 -23.5t77 -46.5t35 -45v-209h-307v-86q19 -40 75 -40q27 0 47.5 11.5t28.5 28.5v38h156v-87q-12 -22 -35 -45t-77 -46.5t-120 -23.5q-99 0 -160 42t-84 95v300q23 53 84 95t160 42zM282 435
q-56 0 -75 -40v-66h151v66q-8 17 -28.5 28.5t-47.5 11.5z" />
    <glyph glyph-name="edieresis" unicode="&#xeb;" horiz-adv-x="551" 
d="M255 608h-147v133h147v-133zM462 608h-147v133h147v-133zM282 559q66 0 120 -23.5t77 -46.5t35 -45v-209h-307v-86q19 -40 75 -40q27 0 47.5 11.5t28.5 28.5v38h156v-87q-12 -22 -35 -45t-77 -46.5t-120 -23.5q-99 0 -160 42t-84 95v300q23 53 84 95t160 42zM282 435
q-56 0 -75 -40v-66h151v66q-8 17 -28.5 28.5t-47.5 11.5z" />
    <glyph glyph-name="igrave" unicode="&#xec;" horiz-adv-x="308" 
d="M153 765l76 -163h-139l-112 163h175zM240 123h45v-123h-260v123h45v298h-45v123h215v-421z" />
    <glyph glyph-name="iacute" unicode="&#xed;" horiz-adv-x="308" 
d="M208 602h-139l76 163h175zM240 123h45v-123h-260v123h45v298h-45v123h215v-421z" />
    <glyph glyph-name="icircumflex" unicode="&#xee;" horiz-adv-x="308" 
d="M249 764l84 -162h-122l-61 97l-61 -97h-123l85 162h198zM240 123h45v-123h-260v123h45v298h-45v123h215v-421z" />
    <glyph glyph-name="idieresis" unicode="&#xef;" horiz-adv-x="308" 
d="M120 608h-147v133h147v-133zM327 608h-147v133h147v-133zM240 123h45v-123h-260v123h45v298h-45v123h215v-421z" />
    <glyph glyph-name="eth" unicode="&#xf0;" horiz-adv-x="565" 
d="M527 596l-39 -13q27 -32 39 -60v-400q-24 -55 -85 -96.5t-159 -41.5q-99 0 -160 41.5t-85 95.5v212q15 51 66 92.5t126 41.5q72 0 128 -39v57q-8 21 -31 45l-147 -48v85l67 22q-51 29 -118 53l85 91q114 -29 202 -89l111 36v-85zM358 153v158q-24 30 -75 30
q-57 0 -76 -39v-149q19 -40 75 -40q28 0 48.5 11.5t27.5 28.5z" />
    <glyph glyph-name="ntilde" unicode="&#xf1;" horiz-adv-x="620" 
d="M238 747q43 0 81 -24t53 -24q26 0 33 23v20h97v-64q-6 -35 -36.5 -59.5t-76.5 -24.5q-44 0 -81.5 24.5t-53.5 24.5q-24 0 -32 -23v-21h-97v65q6 35 36.5 59t76.5 24zM374 555q73 0 118.5 -39t62.5 -88v-305h45v-123h-252v123h37v270q-7 13 -25.5 23.5t-46.5 10.5
q-48 0 -73 -27v-277h37v-123h-252v123h45v298h-45v123h203v-51q53 62 146 62z" />
    <glyph glyph-name="ograve" unicode="&#xf2;" horiz-adv-x="565" 
d="M285 765l76 -163h-139l-112 163h175zM283 559q98 0 159 -41.5t85 -95.5v-300q-24 -54 -85 -95.5t-159 -41.5q-99 0 -160.5 42t-84.5 95v300q23 53 84.5 95t160.5 42zM282 431q-56 0 -75 -40v-238q19 -40 75 -40q28 0 48.5 11.5t27.5 28.5v238q-7 17 -27.5 28.5
t-48.5 11.5z" />
    <glyph glyph-name="oacute" unicode="&#xf3;" horiz-adv-x="565" 
d="M340 602h-139l76 163h175zM283 559q98 0 159 -41.5t85 -95.5v-300q-24 -54 -85 -95.5t-159 -41.5q-99 0 -160.5 42t-84.5 95v300q23 53 84.5 95t160.5 42zM282 431q-56 0 -75 -40v-238q19 -40 75 -40q28 0 48.5 11.5t27.5 28.5v238q-7 17 -27.5 28.5t-48.5 11.5z" />
    <glyph glyph-name="ocircumflex" unicode="&#xf4;" horiz-adv-x="565" 
d="M381 764l84 -162h-122l-61 97l-61 -97h-123l85 162h198zM283 559q98 0 159 -41.5t85 -95.5v-300q-24 -54 -85 -95.5t-159 -41.5q-99 0 -160.5 42t-84.5 95v300q23 53 84.5 95t160.5 42zM282 431q-56 0 -75 -40v-238q19 -40 75 -40q28 0 48.5 11.5t27.5 28.5v238
q-7 17 -27.5 28.5t-48.5 11.5z" />
    <glyph glyph-name="otilde" unicode="&#xf5;" horiz-adv-x="565" 
d="M206 747q43 0 81 -24t53 -24q26 0 33 23v20h97v-64q-6 -35 -36.5 -59.5t-76.5 -24.5q-44 0 -81.5 24.5t-53.5 24.5q-24 0 -32 -23v-21h-97v65q6 35 36.5 59t76.5 24zM283 559q98 0 159 -41.5t85 -95.5v-300q-24 -54 -85 -95.5t-159 -41.5q-99 0 -160.5 42t-84.5 95v300
q23 53 84.5 95t160.5 42zM282 431q-56 0 -75 -40v-238q19 -40 75 -40q28 0 48.5 11.5t27.5 28.5v238q-7 17 -27.5 28.5t-48.5 11.5z" />
    <glyph glyph-name="odieresis" unicode="&#xf6;" horiz-adv-x="565" 
d="M252 608h-147v133h147v-133zM459 608h-147v133h147v-133zM283 559q98 0 159 -41.5t85 -95.5v-300q-24 -54 -85 -95.5t-159 -41.5q-99 0 -160.5 42t-84.5 95v300q23 53 84.5 95t160.5 42zM282 431q-56 0 -75 -40v-238q19 -40 75 -40q28 0 48.5 11.5t27.5 28.5v238
q-7 17 -27.5 28.5t-48.5 11.5z" />
    <glyph glyph-name="divide" unicode="&#xf7;" horiz-adv-x="588" 
d="M383 456h-178v172h178v-172zM556 267h-524v133h524v-133zM383 40h-178v172h178v-172z" />
    <glyph glyph-name="oslash" unicode="&#xf8;" horiz-adv-x="565" 
d="M526 496l-26 -31q18 -23 27 -43v-300q-24 -54 -85 -95.5t-159 -41.5q-88 0 -154 38l-24 -28l-65 54l25 29q-18 22 -27 44v300q23 53 84.5 95t160.5 42q90 0 154 -39l25 29zM207 247l137 163q-24 21 -62 21q-56 0 -75 -40v-144zM282 113q28 0 48.5 11.5t27.5 28.5v143
l-136 -162q24 -21 60 -21z" />
    <glyph glyph-name="ugrave" unicode="&#xf9;" horiz-adv-x="614" 
d="M311 765l76 -163h-139l-112 163h175zM548 123h44v-123h-201v49q-53 -60 -142 -60q-72 0 -116.5 38t-62.5 87v307h-45v123h215v-394q6 -12 23.5 -22.5t44.5 -10.5q46 0 70 26v278h-44v123h214v-421z" />
    <glyph glyph-name="uacute" unicode="&#xfa;" horiz-adv-x="614" 
d="M366 602h-139l76 163h175zM548 123h44v-123h-201v49q-53 -60 -142 -60q-72 0 -116.5 38t-62.5 87v307h-45v123h215v-394q6 -12 23.5 -22.5t44.5 -10.5q46 0 70 26v278h-44v123h214v-421z" />
    <glyph glyph-name="ucircumflex" unicode="&#xfb;" horiz-adv-x="614" 
d="M407 764l84 -162h-122l-61 97l-61 -97h-123l85 162h198zM548 123h44v-123h-201v49q-53 -60 -142 -60q-72 0 -116.5 38t-62.5 87v307h-45v123h215v-394q6 -12 23.5 -22.5t44.5 -10.5q46 0 70 26v278h-44v123h214v-421z" />
    <glyph glyph-name="udieresis" unicode="&#xfc;" horiz-adv-x="614" 
d="M278 608h-147v133h147v-133zM485 608h-147v133h147v-133zM548 123h44v-123h-201v49q-53 -60 -142 -60q-72 0 -116.5 38t-62.5 87v307h-45v123h215v-394q6 -12 23.5 -22.5t44.5 -10.5q46 0 70 26v278h-44v123h214v-421z" />
    <glyph glyph-name="yacute" unicode="&#xfd;" horiz-adv-x="555" 
d="M335 602h-139l76 163h175zM539 421h-33l-162 -512q-69 -79 -200 -79q-61 0 -92 11v116q24 -2 52 -2q61 0 90 28l9 29l-151 409h-36v123h235v-123h-32l64 -223h4l61 223h-31v123h222v-123z" />
    <glyph glyph-name="thorn" unicode="&#xfe;" horiz-adv-x="587" 
d="M236 720v-214q52 49 133 49q73 0 118 -38.5t62 -87.5v-314q-17 -49 -62 -87.5t-118 -38.5q-82 0 -133 49v-87h44v-122h-258v122h44v646h-44v123h214zM309 427q-48 0 -73 -27v-256q25 -27 74 -27q26 0 44.5 11t25.5 23v242q-19 34 -71 34z" />
    <glyph glyph-name="ydieresis" unicode="&#xff;" horiz-adv-x="555" 
d="M246 608h-147v133h147v-133zM453 608h-147v133h147v-133zM539 421h-33l-162 -512q-69 -79 -200 -79q-61 0 -92 11v116q24 -2 52 -2q61 0 90 28l9 29l-151 409h-36v123h235v-123h-32l64 -223h4l61 223h-31v123h222v-123z" />
    <glyph glyph-name="Amacron" unicode="&#x100;" horiz-adv-x="689" 
d="M519 756h-349v111h349v-111zM674 135v-135h-281v135h49l-19 80h-173l-20 -80h46v-135h-261v135h46l120 430h-44v135h411v-135h-45l124 -430h47zM392 348l-52 217h-4l-53 -217h109z" />
    <glyph glyph-name="amacron" unicode="&#x101;" horiz-adv-x="586" 
d="M467 612h-349v111h349v-111zM277 559q98 0 158.5 -41.5t84.5 -95.5v-299h45v-123h-206v36q-56 -51 -144 -51q-72 0 -117.5 27.5t-59.5 55.5v163q15 32 60 62.5t117 30.5q81 0 136 -41v108q-20 40 -75 40q-51 0 -70 -31v-37h-154v90q9 14 23 28t40 34t68.5 32t93.5 12z
M272 215q-51 0 -70 -27v-65q26 -29 70 -29q53 0 79 30v60q-26 31 -79 31z" />
    <glyph glyph-name="Abreve" unicode="&#x102;" horiz-adv-x="689" 
d="M344 739q-68 0 -115 26t-68 69v52h122v-29q5 -11 20.5 -21t40.5 -10q46 0 60 31v29h122v-52q-47 -95 -182 -95zM674 135v-135h-281v135h49l-19 80h-173l-20 -80h46v-135h-261v135h46l120 430h-44v135h411v-135h-45l124 -430h47zM392 348l-52 217h-4l-53 -217h109z" />
    <glyph glyph-name="abreve" unicode="&#x103;" horiz-adv-x="586" 
d="M231 740v-29q5 -11 20.5 -21t40.5 -10q46 0 60 31v29h122v-52q-46 -95 -182 -95q-68 0 -115 25.5t-68 69.5v52h122zM277 559q98 0 158.5 -41.5t84.5 -95.5v-299h45v-123h-206v36q-56 -51 -144 -51q-72 0 -117.5 27.5t-59.5 55.5v163q15 32 60 62.5t117 30.5q81 0 136 -41
v108q-20 40 -75 40q-51 0 -70 -31v-37h-154v90q9 14 23 28t40 34t68.5 32t93.5 12zM272 215q-51 0 -70 -27v-65q26 -29 70 -29q53 0 79 30v60q-26 31 -79 31z" />
    <glyph glyph-name="Aogonek" unicode="&#x104;" horiz-adv-x="689" 
d="M674 0h-62q-58 -58 -73 -98v-21q9 -15 41 -15q21 0 43 6v-88q-28 -13 -78 -13q-101 0 -127 54v80q23 50 81 95h-106v135h49l-19 80h-173l-20 -80h46v-135h-261v135h46l120 430h-44v135h411v-135h-45l124 -430h47v-135zM392 348l-52 217h-4l-53 -217h109z" />
    <glyph glyph-name="aogonek" unicode="&#x105;" horiz-adv-x="586" 
d="M565 0h-43q-55 -55 -74 -98v-21q9 -15 41 -15q22 0 44 6v-88q-28 -13 -78 -13q-101 0 -127 54v80q23 50 81 95h-50v36q-56 -51 -144 -51q-72 0 -117.5 27.5t-59.5 55.5v163q15 32 60 62.5t117 30.5q81 0 136 -41v108q-20 40 -75 40q-51 0 -70 -31v-37h-154v90q9 14 23 28
t40 34t68.5 32t93.5 12q98 0 158.5 -41.5t84.5 -95.5v-299h45v-123zM351 124v60q-26 31 -79 31q-51 0 -70 -27v-65q26 -29 70 -29q53 0 79 30z" />
    <glyph glyph-name="Cacute" unicode="&#x106;" horiz-adv-x="611" 
d="M379 744h-139l76 159h175zM311 715q57 0 104 -14t78 -37t50 -44t31 -44v-154h-176v106q-21 49 -87 49q-63 0 -87 -49v-356q9 -21 31.5 -34.5t55.5 -13.5q63 0 87 48v117h176v-164q-13 -24 -31.5 -45t-49.5 -44t-78 -37t-104 -14q-109 0 -176 46t-94 107v424q27 61 94 107
t176 46z" />
    <glyph glyph-name="cacute" unicode="&#x107;" horiz-adv-x="550" 
d="M341 602h-139l76 163h175zM282 559q51 0 94 -12.5t70 -32.5t43 -37t25 -33v-118h-156v65q-7 17 -28 28.5t-48 11.5q-56 0 -75 -40v-238q19 -40 75 -40q27 0 48 11.5t28 28.5v64h156v-117q-12 -22 -35 -45t-77 -46.5t-120 -23.5q-99 0 -160 42t-84 95v300q23 53 84 95
t160 42z" />
    <glyph glyph-name="Cdotaccent" unicode="&#x10a;" horiz-adv-x="611" 
d="M395 753h-161v139h161v-139zM311 715q57 0 104 -14t78 -37t50 -44t31 -44v-154h-176v106q-21 49 -87 49q-63 0 -87 -49v-356q9 -21 31.5 -34.5t55.5 -13.5q63 0 87 48v117h176v-164q-13 -24 -31.5 -45t-49.5 -44t-78 -37t-104 -14q-109 0 -176 46t-94 107v424
q27 61 94 107t176 46z" />
    <glyph glyph-name="cdotaccent" unicode="&#x10b;" horiz-adv-x="550" 
d="M364 603h-163v140h163v-140zM282 559q51 0 94 -12.5t70 -32.5t43 -37t25 -33v-118h-156v65q-7 17 -28 28.5t-48 11.5q-56 0 -75 -40v-238q19 -40 75 -40q27 0 48 11.5t28 28.5v64h156v-117q-12 -22 -35 -45t-77 -46.5t-120 -23.5q-99 0 -160 42t-84 95v300q23 53 84 95
t160 42z" />
    <glyph glyph-name="Ccaron" unicode="&#x10c;" horiz-adv-x="611" 
d="M413 744h-198l-85 159h123l61 -93l61 93h123zM311 715q57 0 104 -14t78 -37t50 -44t31 -44v-154h-176v106q-21 49 -87 49q-63 0 -87 -49v-356q9 -21 31.5 -34.5t55.5 -13.5q63 0 87 48v117h176v-164q-13 -24 -31.5 -45t-49.5 -44t-78 -37t-104 -14q-109 0 -176 46
t-94 107v424q27 61 94 107t176 46z" />
    <glyph glyph-name="ccaron" unicode="&#x10d;" horiz-adv-x="550" 
d="M382 602h-199l-84 162h123l61 -97l61 97h122zM282 559q51 0 94 -12.5t70 -32.5t43 -37t25 -33v-118h-156v65q-7 17 -28 28.5t-48 11.5q-56 0 -75 -40v-238q19 -40 75 -40q27 0 48 11.5t28 28.5v64h156v-117q-12 -22 -35 -45t-77 -46.5t-120 -23.5q-99 0 -160 42t-84 95
v300q23 53 84 95t160 42z" />
    <glyph glyph-name="Dcaron" unicode="&#x10e;" horiz-adv-x="658" 
d="M432 744h-198l-85 159h123l61 -93l61 93h123zM32 700h353q88 0 147 -40.5t85 -97.5v-424q-26 -57 -85 -97.5t-147 -40.5h-353v135h49v430h-49v135zM264 565v-430h83q68 0 87 45v340q-19 45 -87 45h-83z" />
    <glyph glyph-name="dcaron" unicode="&#x10f;" horiz-adv-x="733" 
d="M520 123h44v-123h-207v43q-54 -54 -140 -54q-71 0 -116.5 39t-62.5 87v314q17 48 62.5 87t116.5 39q80 0 133 -48v90h-45v123h215v-597zM664 497h-98l22 223h132zM277 427q-26 0 -44.5 -11t-25.5 -23v-242q6 -13 25 -23.5t46 -10.5q48 0 72 26v257q-27 27 -73 27z" />
    <glyph glyph-name="Dcroat" unicode="&#x110;" horiz-adv-x="660" 
d="M34 700h353q89 0 147.5 -40.5t84.5 -97.5v-424q-26 -57 -84.5 -97.5t-147.5 -40.5h-353v135h49v154h-51v133h51v143h-49v135zM436 180v340q-19 45 -87 45h-83v-143h93v-133h-93v-154h83q68 0 87 45z" />
    <glyph glyph-name="dcroat" unicode="&#x111;" horiz-adv-x="596" 
d="M520 650h54v-97h-54v-430h44v-123h-207v43q-54 -54 -140 -54q-71 0 -116.5 39t-62.5 87v276q17 49 62 88t117 39q80 0 133 -48v83h-137v97h137v70h170v-70zM277 389q-26 0 -44.5 -10.5t-25.5 -22.5v-205q6 -13 25 -23.5t46 -10.5q48 0 72 26v219q-25 27 -73 27z" />
    <glyph glyph-name="Emacron" unicode="&#x112;" horiz-adv-x="606" 
d="M500 756h-349v111h349v-111zM571 491h-141v74h-166v-141h202v-134h-202v-155h175v85h141v-220h-548v135h49v430h-49v135h539v-209z" />
    <glyph glyph-name="emacron" unicode="&#x113;" horiz-adv-x="551" 
d="M460 612h-349v111h349v-111zM282 559q66 0 120 -23.5t77 -46.5t35 -45v-209h-307v-86q19 -40 75 -40q27 0 47.5 11.5t28.5 28.5v38h156v-87q-12 -22 -35 -45t-77 -46.5t-120 -23.5q-99 0 -160 42t-84 95v300q23 53 84 95t160 42zM282 435q-56 0 -75 -40v-66h151v66
q-8 17 -28.5 28.5t-47.5 11.5z" />
    <glyph glyph-name="Edotaccent" unicode="&#x116;" horiz-adv-x="606" 
d="M406 753h-161v139h161v-139zM571 491h-141v74h-166v-141h202v-134h-202v-155h175v85h141v-220h-548v135h49v430h-49v135h539v-209z" />
    <glyph glyph-name="edotaccent" unicode="&#x117;" horiz-adv-x="551" 
d="M367 603h-163v140h163v-140zM282 559q66 0 120 -23.5t77 -46.5t35 -45v-209h-307v-86q19 -40 75 -40q27 0 47.5 11.5t28.5 28.5v38h156v-87q-12 -22 -35 -45t-77 -46.5t-120 -23.5q-99 0 -160 42t-84 95v300q23 53 84 95t160 42zM282 435q-56 0 -75 -40v-66h151v66
q-8 17 -28.5 28.5t-47.5 11.5z" />
    <glyph glyph-name="Eogonek" unicode="&#x118;" horiz-adv-x="606" 
d="M580 0h-50q-55 -55 -74 -98v-21q9 -15 41 -15q22 0 44 6v-88q-30 -13 -78 -13q-101 0 -127 54v80q24 52 81 95h-385v135h49v430h-49v135h539v-209h-141v74h-166v-141h202v-134h-202v-155h175v85h141v-220z" />
    <glyph glyph-name="eogonek" unicode="&#x119;" horiz-adv-x="550" 
d="M207 236v-87q19 -40 75 -40q27 0 47.5 11.5t28.5 28.5v38h156v-87q-19 -34 -21 -38q-69 -116 -75 -154v-26q9 -15 41 -15q17 0 44 6v-87q-26 -14 -78 -14q-101 0 -127 54v81q13 36 62 88q-38 -10 -78 -10q-99 0 -160 42t-84 95v300q23 53 84 95t160 42q66 0 120 -23.5
t77 -46.5t35 -45v-208h-307zM358 329v66q-8 17 -28.5 28.5t-47.5 11.5q-56 0 -75 -40v-66h151z" />
    <glyph glyph-name="Ecaron" unicode="&#x11a;" horiz-adv-x="606" 
d="M424 744h-198l-85 159h123l61 -93l61 93h123zM571 491h-141v74h-166v-141h202v-134h-202v-155h175v85h141v-220h-548v135h49v430h-49v135h539v-209z" />
    <glyph glyph-name="ecaron" unicode="&#x11b;" horiz-adv-x="551" 
d="M384 602h-199l-84 162h123l61 -97l61 97h122zM282 559q66 0 120 -23.5t77 -46.5t35 -45v-209h-307v-86q19 -40 75 -40q27 0 47.5 11.5t28.5 28.5v38h156v-87q-12 -22 -35 -45t-77 -46.5t-120 -23.5q-99 0 -160 42t-84 95v300q23 53 84 95t160 42zM282 435q-56 0 -75 -40
v-66h151v66q-8 17 -28.5 28.5t-47.5 11.5z" />
    <glyph glyph-name="Gbreve" unicode="&#x11e;" horiz-adv-x="614" 
d="M250 886v-29q5 -11 20.5 -21t40.5 -10q46 0 60 31v29h122v-52q-47 -95 -182 -95q-68 0 -115 26t-68 69v52h122zM311 715q57 0 104 -14t78 -37t50 -44t31 -44v-119h-176v71q-21 49 -87 49q-63 0 -87 -49v-356q9 -21 33 -34.5t57 -13.5q67 0 90 43v99h-88v131h258v-272
q-13 -24 -31.5 -45t-49.5 -44t-78 -37t-104 -14q-109 0 -176 46t-94 107v424q27 61 94 107t176 46z" />
    <glyph glyph-name="gbreve" unicode="&#x11f;" horiz-adv-x="585" 
d="M293 593q-68 0 -115 25.5t-68 69.5v52h122v-29q5 -11 20.5 -21t40.5 -10q46 0 60 31v29h122v-52q-46 -95 -182 -95zM566 504h-30q-30 0 -54 -7q28 -23 45 -51v-143q-24 -41 -84 -76t-151 -35q-52 0 -91 12q-12 -7 -16 -12v-25q17 -19 90 -19h28q106 0 169 -24.5t83 -49.5
v-171q-14 -18 -38.5 -35t-87 -35t-143.5 -18q-63 0 -114 10t-81.5 25.5t-47 28t-23.5 23.5v122q21 23 66 40q-22 14 -40 32v101q13 26 61 52q-34 26 -50 54v143q24 41 83.5 76.5t151.5 35.5q57 0 105 -16q50 67 133 67q18 0 36 -3v-102zM369 339v71q-8 13 -28.5 23.5
t-48.5 10.5t-48.5 -10.5t-28.5 -23.5v-71q8 -12 29 -22.5t48 -10.5t48 10.5t29 22.5zM303 18h-30q-41 0 -76 6q-24 -11 -33 -21v-50q35 -29 122 -29q93 0 122 29v43q-24 22 -105 22z" />
    <glyph glyph-name="Gdotaccent" unicode="&#x120;" horiz-adv-x="614" 
d="M392 753h-161v139h161v-139zM311 715q57 0 104 -14t78 -37t50 -44t31 -44v-119h-176v71q-21 49 -87 49q-63 0 -87 -49v-356q9 -21 33 -34.5t57 -13.5q67 0 90 43v99h-88v131h258v-272q-13 -24 -31.5 -45t-49.5 -44t-78 -37t-104 -14q-109 0 -176 46t-94 107v424
q27 61 94 107t176 46z" />
    <glyph glyph-name="gdotaccent" unicode="&#x121;" horiz-adv-x="585" 
d="M374 603h-163v140h163v-140zM566 504h-30q-30 0 -54 -7q28 -23 45 -51v-143q-24 -41 -84 -76t-151 -35q-52 0 -91 12q-12 -7 -16 -12v-25q17 -19 90 -19h28q106 0 169 -24.5t83 -49.5v-171q-14 -18 -38.5 -35t-87 -35t-143.5 -18q-63 0 -114 10t-81.5 25.5t-47 28
t-23.5 23.5v122q21 23 66 40q-22 14 -40 32v101q13 26 61 52q-34 26 -50 54v143q24 41 83.5 76.5t151.5 35.5q57 0 105 -16q50 67 133 67q18 0 36 -3v-102zM369 339v71q-8 13 -28.5 23.5t-48.5 10.5t-48.5 -10.5t-28.5 -23.5v-71q8 -12 29 -22.5t48 -10.5t48 10.5t29 22.5z
M303 18h-30q-41 0 -76 6q-24 -11 -33 -21v-50q35 -29 122 -29q93 0 122 29v43q-24 22 -105 22z" />
    <glyph glyph-name="Gcommaaccent" unicode="&#x122;" horiz-adv-x="614" 
d="M311 715q57 0 104 -14t78 -37t50 -44t31 -44v-119h-176v71q-21 49 -87 49q-63 0 -87 -49v-356q9 -21 33 -34.5t57 -13.5q67 0 90 43v99h-88v131h258v-272q-13 -24 -31.5 -45t-49.5 -44t-78 -37t-104 -14q-109 0 -176 46t-94 107v424q27 61 94 107t176 46zM396 -42v-123
q-22 -64 -108 -64h-55v53h39q36 0 43 16v18h-88v100h169z" />
    <glyph glyph-name="gcommaaccent" unicode="&#x123;" horiz-adv-x="585" 
d="M380 609h-169v128q21 64 108 64h56v-53h-40q-35 0 -43 -16v-17h88v-106zM566 504h-30q-30 0 -54 -7q28 -23 45 -51v-143q-24 -41 -84 -76t-151 -35q-52 0 -91 12q-12 -7 -16 -12v-25q17 -19 90 -19h28q106 0 169 -24.5t83 -49.5v-171q-14 -18 -38.5 -35t-87 -35
t-143.5 -18q-63 0 -114 10t-81.5 25.5t-47 28t-23.5 23.5v122q21 23 66 40q-22 14 -40 32v101q13 26 61 52q-34 26 -50 54v143q24 41 83.5 76.5t151.5 35.5q57 0 105 -16q50 67 133 67q18 0 36 -3v-102zM369 339v71q-8 13 -28.5 23.5t-48.5 10.5t-48.5 -10.5t-28.5 -23.5
v-71q8 -12 29 -22.5t48 -10.5t48 10.5t29 22.5zM303 18h-30q-41 0 -76 6q-24 -11 -33 -21v-50q35 -29 122 -29q93 0 122 29v43q-24 22 -105 22z" />
    <glyph glyph-name="Hcircumflex" unicode="&#x124;" horiz-adv-x="721" 
d="M421 744l-61 93l-61 -93h-123l85 159h198l85 -159h-123zM689 565h-49v-430h49v-135h-282v135h50v158h-193v-158h50v-135h-282v135h49v430h-49v135h282v-135h-50v-137h193v137h-50v135h282v-135z" />
    <glyph glyph-name="Hbar" unicode="&#x126;" horiz-adv-x="721" 
d="M640 565v-46h49v-73h-49v-311h49v-135h-282v135h50v140h-193v-140h50v-135h-282v135h49v311h-49v73h49v46h-49v135h282v-135h-50v-46h193v46h-50v135h282v-135h-49zM457 446h-193v-49h193v49z" />
    <glyph glyph-name="hbar" unicode="&#x127;" horiz-adv-x="621" 
d="M240 650h137v-97h-137v-84q54 49 135 49q72 0 117.5 -39t62.5 -88v-268h45v-123h-253v123h39v233q-20 33 -72 33q-47 0 -74 -27v-239h38v-123h-252v123h45v430h-49v97h49v70h169v-70z" />
    <glyph glyph-name="Itilde" unicode="&#x128;" horiz-adv-x="345" 
d="M97 892q43 0 81 -24t53 -24q26 0 33 23v20h97v-64q-6 -34 -36.5 -58.5t-76.5 -24.5q-44 0 -81.5 24t-53.5 24q-24 0 -32 -23v-20h-97v64q6 35 36.5 59t76.5 24zM314 565h-50v-430h50v-135h-282v135h49v430h-49v135h282v-135z" />
    <glyph glyph-name="Imacron" unicode="&#x12a;" horiz-adv-x="345" 
d="M347 756h-349v111h349v-111zM314 565h-50v-430h50v-135h-282v135h49v430h-49v135h282v-135z" />
    <glyph glyph-name="imacron" unicode="&#x12b;" horiz-adv-x="308" 
d="M325 612h-349v111h349v-111zM240 123h45v-123h-260v123h45v298h-45v123h215v-421z" />
    <glyph glyph-name="Ibreve" unicode="&#x12c;" horiz-adv-x="345" 
d="M112 886v-29q5 -11 20.5 -21t40.5 -10q46 0 60 31v29h122v-52q-47 -95 -182 -95q-68 0 -115 26t-68 69v52h122zM314 565h-50v-430h50v-135h-282v135h49v430h-49v135h282v-135z" />
    <glyph glyph-name="Iogonek" unicode="&#x12e;" horiz-adv-x="345" 
d="M264 565v-430h50v-135h-82q-41 -44 -63 -98v-21q9 -15 41 -15q21 0 43 6v-88q-28 -13 -77 -13q-102 0 -128 54v80q25 53 71 95h-87v135h49v430h-49v135h282v-135h-50z" />
    <glyph glyph-name="iogonek" unicode="&#x12f;" horiz-adv-x="307" 
d="M232 603h-164v140h164v-140zM285 0h-62q-54 -54 -73 -98v-21q9 -15 41 -15q23 0 43 6v-88q-28 -13 -77 -13q-101 0 -128 54v80q23 51 82 95h-86v123h45v298h-45v123h215v-421h45v-123z" />
    <glyph glyph-name="Idotaccent" unicode="&#x130;" horiz-adv-x="345" 
d="M253 753h-161v139h161v-139zM314 565h-50v-430h50v-135h-282v135h49v430h-49v135h282v-135z" />
    <glyph glyph-name="dotlessi" unicode="&#x131;" horiz-adv-x="308" 
d="M240 123h45v-123h-260v123h45v298h-45v123h215v-421z" />
    <glyph glyph-name="IJ" unicode="&#x132;" horiz-adv-x="760" 
d="M314 565h-50v-430h50v-135h-282v135h49v430h-49v135h282v-135zM733 565h-49v-427q-69 -141 -257 -141q-32 0 -62 3v135h47q66 0 89 45v385h-58v135h290v-135z" />
    <glyph glyph-name="ij" unicode="&#x133;" horiz-adv-x="591" 
d="M232 603h-163v140h163v-140zM540 603h-164v140h164v-140zM240 123h45v-123h-260v123h45v298h-45v123h215v-421zM548 544v-578q-22 -53 -83.5 -95t-160.5 -42v126q28 0 47.5 14t26.5 35v417h-45v123h215z" />
    <glyph glyph-name="Jcircumflex" unicode="&#x134;" horiz-adv-x="415" 
d="M308 744l-61 93l-61 -93h-123l85 159h198l85 -159h-123zM388 565h-49v-427q-69 -141 -257 -141q-32 0 -62 3v135h47q67 0 89 45v385h-58v135h290v-135z" />
    <glyph glyph-name="Kcommaaccent" unicode="&#x136;" horiz-adv-x="689" 
d="M672 135v-135h-277v135h40l-104 164l-67 -60v-104h48v-135h-280v135h49v430h-49v135h280v-135h-48v-156h4l168 156h-45v135h278v-135h-41l-174 -156l175 -274h43zM262 -42h169v-123q-22 -64 -108 -64h-55v53h39q36 0 43 16v18h-88v100z" />
    <glyph glyph-name="kcommaaccent" unicode="&#x137;" horiz-adv-x="585" 
d="M564 123v-123h-229v123h18l-74 103l-43 -36v-67h41v-123h-255v123h45v474h-45v123h214v-394h4l110 95h-41v123h242v-123h-37l-125 -104l139 -194h36zM206 -42h169v-123q-22 -64 -108 -64h-55v53h39q36 0 43 16v18h-88v100z" />
    <glyph glyph-name="kgreenlandic" unicode="&#x138;" horiz-adv-x="586" 
d="M564 123v-123h-229v123h20l-73 102l-42 -36v-66h41v-123h-256v123h45v298h-45v123h215v-216h4l104 93h-39v123h244v-123h-37l-125 -105l139 -193h34z" />
    <glyph glyph-name="Lacute" unicode="&#x139;" horiz-adv-x="558" 
d="M246 744h-139l76 159h175zM314 565h-50v-430h136v96h141v-231h-509v135h49v430h-49v135h282v-135z" />
    <glyph glyph-name="lacute" unicode="&#x13a;" horiz-adv-x="303" 
d="M215 764h-139l76 159h175zM236 123h45v-123h-259v123h45v474h-45v123h214v-597z" />
    <glyph glyph-name="Lcommaaccent" unicode="&#x13b;" horiz-adv-x="558" 
d="M314 565h-50v-430h136v96h141v-231h-509v135h49v430h-49v135h282v-135zM368 -42v-123q-22 -64 -108 -64h-55v53h39q36 0 43 16v18h-88v100h169z" />
    <glyph glyph-name="lcommaaccent" unicode="&#x13c;" horiz-adv-x="303" 
d="M236 123h45v-123h-259v123h45v474h-45v123h214v-597zM236 -42v-123q-22 -64 -108 -64h-55v53h39q36 0 43 16v18h-88v100h169z" />
    <glyph glyph-name="Lcaron" unicode="&#x13d;" horiz-adv-x="558" 
d="M314 565h-50v-430h136v96h141v-231h-509v135h49v430h-49v135h282v-135zM444 477h-99l23 223h131z" />
    <glyph glyph-name="lcaron" unicode="&#x13e;" horiz-adv-x="450" 
d="M236 123h45v-123h-259v123h45v474h-45v123h214v-597zM381 497h-98l22 223h131z" />
    <glyph glyph-name="Ldot" unicode="&#x13f;" horiz-adv-x="558" 
d="M314 565h-50v-430h136v96h141v-231h-509v135h49v430h-49v135h282v-135zM496 309h-164v159h164v-159z" />
    <glyph glyph-name="ldot" unicode="&#x140;" horiz-adv-x="513" 
d="M236 123h45v-123h-259v123h45v474h-45v123h214v-597zM480 265h-178v172h178v-172z" />
    <glyph glyph-name="Lslash" unicode="&#x141;" horiz-adv-x="565" 
d="M548 231v-231h-510v135h50v90l-65 -28v132l65 27v209h-50v135h283v-135h-50v-138l118 50v-132l-118 -50v-160h136v96h141z" />
    <glyph glyph-name="lslash" unicode="&#x142;" horiz-adv-x="344" 
d="M257 348v-225h45v-123h-259v123h45v128l-66 -37v135l66 38v210h-45v123h214v-237l66 38v-136z" />
    <glyph glyph-name="Nacute" unicode="&#x143;" horiz-adv-x="722" 
d="M425 744h-139l76 159h175zM691 565h-50v-565h-196l-193 429h-4v-294h49v-135h-265v135h49v430h-49v135h245l194 -430h4v295h-50v135h266v-135z" />
    <glyph glyph-name="nacute" unicode="&#x144;" horiz-adv-x="620" 
d="M372 602h-139l76 163h175zM374 555q73 0 118.5 -39t62.5 -88v-305h45v-123h-252v123h37v270q-7 13 -25.5 23.5t-46.5 10.5q-48 0 -73 -27v-277h37v-123h-252v123h45v298h-45v123h203v-51q53 62 146 62z" />
    <glyph glyph-name="Ncommaaccent" unicode="&#x145;" horiz-adv-x="722" 
d="M691 565h-50v-565h-196l-193 429h-4v-294h49v-135h-265v135h49v430h-49v135h245l194 -430h4v295h-50v135h266v-135zM445 -42v-123q-22 -64 -108 -64h-55v53h39q36 0 43 16v18h-88v100h169z" />
    <glyph glyph-name="ncommaaccent" unicode="&#x146;" horiz-adv-x="620" 
d="M374 555q73 0 118.5 -39t62.5 -88v-305h45v-123h-252v123h37v270q-7 13 -25.5 23.5t-46.5 10.5q-48 0 -73 -27v-277h37v-123h-252v123h45v298h-45v123h203v-51q53 62 146 62zM396 -42v-123q-22 -64 -108 -64h-55v53h39q36 0 43 16v18h-88v100h169z" />
    <glyph glyph-name="Ncaron" unicode="&#x147;" horiz-adv-x="722" 
d="M460 744h-198l-85 159h123l61 -93l61 93h123zM691 565h-50v-565h-196l-193 429h-4v-294h49v-135h-265v135h49v430h-49v135h245l194 -430h4v295h-50v135h266v-135z" />
    <glyph glyph-name="ncaron" unicode="&#x148;" horiz-adv-x="620" 
d="M413 602h-199l-84 162h123l61 -97l61 97h122zM374 555q73 0 118.5 -39t62.5 -88v-305h45v-123h-252v123h37v270q-7 13 -25.5 23.5t-46.5 10.5q-48 0 -73 -27v-277h37v-123h-252v123h45v298h-45v123h203v-51q53 62 146 62z" />
    <glyph glyph-name="Eng" unicode="&#x14a;" horiz-adv-x="722" 
d="M691 565h-50v-601q-67 -141 -257 -141q-37 0 -55 2v135h40q55 0 81 32l-198 437h-4v-294h49v-135h-265v135h49v430h-49v135h245l194 -430h4v295h-50v135h266v-135z" />
    <glyph glyph-name="eng" unicode="&#x14b;" horiz-adv-x="597" 
d="M372 555q73 0 118.5 -39t62.5 -88v-459q-22 -53 -83.5 -95.5t-160.5 -42.5v126q28 0 48 14.5t27 35.5v386q-7 12 -25.5 23t-46.5 11q-47 0 -72 -27v-277h38v-123h-253v123h45v298h-45v123h203v-51q53 62 144 62z" />
    <glyph glyph-name="Omacron" unicode="&#x14c;" horiz-adv-x="622" 
d="M486 756h-349v111h349v-111zM311 715q109 0 176 -46t94 -107v-424q-27 -61 -94 -107t-176 -46t-176 46t-94 107v424q27 61 94 107t176 46zM311 577q-64 0 -87 -49v-356q22 -48 87 -48q67 0 87 48v356q-21 49 -87 49z" />
    <glyph glyph-name="omacron" unicode="&#x14d;" horiz-adv-x="565" 
d="M457 612h-349v111h349v-111zM283 559q98 0 159 -41.5t85 -95.5v-300q-24 -54 -85 -95.5t-159 -41.5q-99 0 -160.5 42t-84.5 95v300q23 53 84.5 95t160.5 42zM282 431q-56 0 -75 -40v-238q19 -40 75 -40q28 0 48.5 11.5t27.5 28.5v238q-7 17 -27.5 28.5t-48.5 11.5z" />
    <glyph glyph-name="Ohungarumlaut" unicode="&#x150;" horiz-adv-x="622" 
d="M270 742h-115l57 158h142zM466 742h-115l57 158h141zM311 715q109 0 176 -46t94 -107v-424q-27 -61 -94 -107t-176 -46t-176 46t-94 107v424q27 61 94 107t176 46zM311 577q-64 0 -87 -49v-356q22 -48 87 -48q67 0 87 48v356q-21 49 -87 49z" />
    <glyph glyph-name="ohungarumlaut" unicode="&#x151;" horiz-adv-x="565" 
d="M242 602h-115l57 163h141zM436 602h-115l57 163h141zM283 559q98 0 159 -41.5t85 -95.5v-300q-24 -54 -85 -95.5t-159 -41.5q-99 0 -160.5 42t-84.5 95v300q23 53 84.5 95t160.5 42zM282 431q-56 0 -75 -40v-238q19 -40 75 -40q28 0 48.5 11.5t27.5 28.5v238
q-7 17 -27.5 28.5t-48.5 11.5z" />
    <glyph glyph-name="OE" unicode="&#x152;" horiz-adv-x="923" 
d="M897 220v-220l-480 1q-48 -16 -106 -16q-109 0 -176 46t-94 107v424q27 61 94 107t176 46q56 0 106 -15h471v-209h-141v74h-166v-141h202v-134h-202v-155h175v85h141zM398 172v356q-21 49 -87 49q-64 0 -87 -49v-356q22 -48 87 -48q67 0 87 48z" />
    <glyph glyph-name="oe" unicode="&#x153;" horiz-adv-x="870" 
d="M602 559q95 0 153 -38t79 -77v-214h-307v-80q20 -41 75 -41q28 0 48.5 11.5t27.5 28.5v38h156v-87q-21 -39 -79 -77t-153 -38q-92 0 -160 44q-70 -44 -159 -44q-99 0 -160.5 42t-84.5 95v300q23 53 84.5 95t160.5 42q88 0 159 -45q68 45 160 45zM602 435q-56 0 -75 -40
v-70h151v70q-7 17 -27.5 28.5t-48.5 11.5zM282 431q-56 0 -75 -40v-238q19 -40 75 -40q28 0 48.5 11.5t27.5 28.5v238q-7 17 -27.5 28.5t-48.5 11.5z" />
    <glyph glyph-name="Racute" unicode="&#x154;" horiz-adv-x="652" 
d="M393 744h-139l76 159h175zM635 135v-135h-173l-143 269h-55v-134h47v-135h-279v135h49v430h-49v135h357q68 0 124.5 -31t89.5 -88v-192q-37 -68 -108 -99l92 -155h48zM264 396h83q59 0 80 41v88q-21 40 -80 40h-83v-169z" />
    <glyph glyph-name="racute" unicode="&#x155;" horiz-adv-x="419" 
d="M279 602h-139l76 163h175zM373 548q13 0 22 -1v-152q-13 1 -26 1q-91 0 -129 -36v-237h51v-123h-266v123h45v298h-45v123h203v-74q48 78 145 78z" />
    <glyph glyph-name="Rcommaaccent" unicode="&#x156;" horiz-adv-x="652" 
d="M635 135v-135h-173l-143 269h-55v-134h47v-135h-279v135h49v430h-49v135h357q68 0 124.5 -31t89.5 -88v-192q-37 -68 -108 -99l92 -155h48zM264 396h83q59 0 80 41v88q-21 40 -80 40h-83v-169zM243 -42h169v-123q-22 -64 -108 -64h-55v53h39q36 0 43 16v18h-88v100z" />
    <glyph glyph-name="rcommaaccent" unicode="&#x157;" horiz-adv-x="419" 
d="M373 548q13 0 22 -1v-152q-13 1 -26 1q-91 0 -129 -36v-237h51v-123h-266v123h45v298h-45v123h203v-74q48 78 145 78zM239 -42v-123q-22 -64 -108 -64h-55v53h39q36 0 43 16v18h-88v100h169z" />
    <glyph glyph-name="Rcaron" unicode="&#x158;" horiz-adv-x="652" 
d="M229 744l-85 159h123l61 -93l61 93h123l-85 -159h-198zM635 135v-135h-173l-143 269h-55v-134h47v-135h-279v135h49v430h-49v135h357q68 0 124.5 -31t89.5 -88v-192q-37 -68 -108 -99l92 -155h48zM264 396h83q59 0 80 41v88q-21 40 -80 40h-83v-169z" />
    <glyph glyph-name="rcaron" unicode="&#x159;" horiz-adv-x="419" 
d="M320 602h-199l-84 162h123l61 -97l61 97h122zM373 548q13 0 22 -1v-152q-13 1 -26 1q-91 0 -129 -36v-237h51v-123h-266v123h45v298h-45v123h203v-74q48 78 145 78z" />
    <glyph glyph-name="Sacute" unicode="&#x15a;" horiz-adv-x="589" 
d="M359 744h-139l76 159h175zM294 715q74 0 133 -25.5t85.5 -52.5t42.5 -56v-103h-176v55q-8 18 -30.5 31t-54.5 13q-31 0 -53 -13.5t-31 -30.5v-56q15 -29 71 -42l45 -10q179 -39 229 -129v-176q-13 -22 -31 -42.5t-48.5 -43t-77.5 -36t-104 -13.5t-104 14t-77.5 36.5
t-49 42.5t-30.5 42v113h177v-66q22 -43 84 -43q60 0 85 43v69q-16 30 -71 42l-45 10q-177 37 -230 127v166q12 21 30 41.5t49 43t78 36t104 13.5z" />
    <glyph glyph-name="sacute" unicode="&#x15b;" horiz-adv-x="529" 
d="M323 602h-139l76 163h175zM265 559q50 0 91.5 -12t68.5 -31t41.5 -33.5t24.5 -29.5v-82h-157v39q-18 32 -70 32q-50 0 -70 -32v-39q11 -18 60 -29l51 -11q147 -30 186 -90v-150q-10 -15 -25 -30t-42 -34t-69 -30.5t-91 -11.5t-91 12t-69 30.5t-42 34t-24 29.5v86h156v-43
q20 -32 70 -32q52 0 70 32v43q-9 20 -58 30l-53 10q-80 16 -126 42t-59 50v144q13 21 35 41.5t74.5 42.5t117.5 22z" />
    <glyph glyph-name="Scedilla" unicode="&#x15e;" horiz-adv-x="589" 
d="M379 478v55q-8 18 -30.5 31t-54.5 13q-31 0 -53 -13.5t-31 -30.5v-56q15 -29 71 -42l45 -10q179 -39 229 -129v-176q-70 -120 -226 -134l-10 -26h7q70 0 90 -50v-79q-14 -29 -48.5 -46t-82.5 -17q-72 0 -104 18l25 69q40 -9 69 -9q40 0 48 18v20q-7 15 -46 15h-60l30 89
q-148 17 -214 132v113h177v-66q22 -43 84 -43q60 0 85 43v69q-16 30 -71 42l-45 10q-177 37 -230 127v166q12 21 30 41.5t49 43t78 36t104 13.5q74 0 133 -25.5t85.5 -52.5t42.5 -56v-103h-176z" />
    <glyph glyph-name="scedilla" unicode="&#x15f;" horiz-adv-x="529" 
d="M334 371v39q-18 32 -70 32q-50 0 -70 -32v-39q11 -18 60 -29l51 -11q147 -30 186 -91v-149q-12 -19 -31.5 -38t-63.5 -40.5t-98 -26.5l-10 -26h8q70 0 90 -51v-77q-30 -63 -132 -63q-70 0 -102 17l23 69q38 -9 69 -9q41 0 49 18v20q-7 15 -46 15h-61l31 89
q-71 10 -116 41.5t-63 61.5v85h156v-42q20 -32 70 -32q52 0 70 32v43q-9 20 -58 30l-53 10q-80 16 -126 42t-59 50v144q13 21 35 41.5t74.5 42.5t117.5 22q50 0 91.5 -12t68.5 -31t41.5 -33.5t24.5 -29.5v-82h-157z" />
    <glyph glyph-name="Scaron" unicode="&#x160;" horiz-adv-x="589" 
d="M393 744h-198l-85 159h123l61 -93l61 93h123zM294 715q74 0 133 -25.5t85.5 -52.5t42.5 -56v-103h-176v55q-8 18 -30.5 31t-54.5 13q-31 0 -53 -13.5t-31 -30.5v-56q15 -29 71 -42l45 -10q179 -39 229 -129v-176q-13 -22 -31 -42.5t-48.5 -43t-77.5 -36t-104 -13.5
t-104 14t-77.5 36.5t-49 42.5t-30.5 42v113h177v-66q22 -43 84 -43q60 0 85 43v69q-16 30 -71 42l-45 10q-177 37 -230 127v166q12 21 30 41.5t49 43t78 36t104 13.5z" />
    <glyph glyph-name="scaron" unicode="&#x161;" horiz-adv-x="529" 
d="M364 602h-199l-84 162h123l61 -97l61 97h122zM265 559q50 0 91.5 -12t68.5 -31t41.5 -33.5t24.5 -29.5v-82h-157v39q-18 32 -70 32q-50 0 -70 -32v-39q11 -18 60 -29l51 -11q147 -30 186 -90v-150q-10 -15 -25 -30t-42 -34t-69 -30.5t-91 -11.5t-91 12t-69 30.5t-42 34
t-24 29.5v86h156v-43q20 -32 70 -32q52 0 70 32v43q-9 20 -58 30l-53 10q-80 16 -126 42t-59 50v144q13 21 35 41.5t74.5 42.5t117.5 22z" />
    <glyph glyph-name="Tcedilla" unicode="&#x162;" horiz-adv-x="685" 
d="M659 700v-231h-141v96h-84v-430h49v-135h-102l-15 -40h8q70 0 90 -51v-78q-31 -63 -132 -63q-70 0 -102 18l23 69q40 -9 69 -9q41 0 49 18v20q-7 15 -46 15h-60l34 101h-98v135h50v430h-84v-96h-141v231h633z" />
    <glyph glyph-name="tcedilla" unicode="&#x163;" horiz-adv-x="374" 
d="M243 421v-283q19 -25 73 -25q20 0 32 1v-114q-44 -13 -96 -13h-9l-10 -27h8q70 0 90 -51v-77q-28 -63 -132 -63q-68 0 -102 17l23 69q40 -9 70 -9q40 0 48 18v20q-8 15 -46 15h-60l34 101q-72 23 -93 83v338h-58v123h58v118h170v-118h105v-123h-105z" />
    <glyph glyph-name="Tcaron" unicode="&#x164;" horiz-adv-x="685" 
d="M441 744h-198l-85 159h123l61 -93l61 93h123zM659 469h-141v96h-84v-430h49v-135h-282v135h50v430h-84v-96h-141v231h633v-231z" />
    <glyph glyph-name="tcaron" unicode="&#x165;" horiz-adv-x="453" 
d="M389 589h-99l23 223h131zM245 544h105v-123h-105v-283q19 -25 73 -25q20 0 32 1v-114q-44 -13 -96 -13q-77 0 -121 28t-58 68v338h-60v123h60v118h170v-118z" />
    <glyph glyph-name="Tbar" unicode="&#x166;" horiz-adv-x="685" 
d="M518 469v96h-84v-177h93v-111h-93v-142h49v-135h-282v135h50v142h-93v111h93v177h-84v-96h-141v231h633v-231h-141z" />
    <glyph glyph-name="tbar" unicode="&#x167;" horiz-adv-x="374" 
d="M243 421v-84h105v-122h-105v-77q19 -25 73 -25q20 0 32 1v-114q-44 -13 -96 -13q-77 0 -121 28t-58 68v132h-58v122h58v84h-58v123h58v118h170v-118h105v-123h-105z" />
    <glyph glyph-name="Umacron" unicode="&#x16a;" horiz-adv-x="698" 
d="M523 756h-349v111h349v-111zM672 565h-50v-427q-27 -60 -95.5 -106.5t-177.5 -46.5t-177.5 46.5t-95.5 106.5v427h-50v135h278v-135h-45v-389q9 -21 33 -35t57 -14q65 0 90 49v389h-44v135h277v-135z" />
    <glyph glyph-name="umacron" unicode="&#x16b;" horiz-adv-x="614" 
d="M483 612h-349v111h349v-111zM548 123h44v-123h-201v49q-53 -60 -142 -60q-72 0 -116.5 38t-62.5 87v307h-45v123h215v-394q6 -12 23.5 -22.5t44.5 -10.5q46 0 70 26v278h-44v123h214v-421z" />
    <glyph glyph-name="Uring" unicode="&#x16e;" horiz-adv-x="698" 
d="M350 953q46 0 81.5 -18t51.5 -48v-93q-16 -30 -51.5 -48t-81.5 -18q-45 0 -80.5 18t-51.5 48v93q16 30 51.5 48t80.5 18zM350 889q-42 0 -56 -24v-49q14 -24 56 -24q43 0 57 24v49q-14 24 -57 24zM672 565h-50v-427q-27 -60 -95.5 -106.5t-177.5 -46.5t-177.5 46.5
t-95.5 106.5v427h-50v135h278v-135h-45v-389q9 -21 33 -35t57 -14q65 0 90 49v389h-44v135h277v-135z" />
    <glyph glyph-name="uring" unicode="&#x16f;" horiz-adv-x="614" 
d="M308 819q46 0 81.5 -17.5t51.5 -47.5v-99q-16 -30 -51.5 -47.5t-81.5 -17.5q-45 0 -80.5 17.5t-51.5 47.5v99q16 30 51.5 47.5t80.5 17.5zM308 755q-41 0 -56 -23v-55q15 -23 56 -23q42 0 57 23v55q-15 23 -57 23zM548 123h44v-123h-201v49q-53 -60 -142 -60
q-72 0 -116.5 38t-62.5 87v307h-45v123h215v-394q6 -12 23.5 -22.5t44.5 -10.5q46 0 70 26v278h-44v123h214v-421z" />
    <glyph glyph-name="Uhungarumlaut" unicode="&#x170;" horiz-adv-x="698" 
d="M308 742h-115l57 158h142zM504 742h-115l57 158h141zM672 565h-50v-427q-27 -60 -95.5 -106.5t-177.5 -46.5t-177.5 46.5t-95.5 106.5v427h-50v135h278v-135h-45v-389q9 -21 33 -35t57 -14q65 0 90 49v389h-44v135h277v-135z" />
    <glyph glyph-name="uhungarumlaut" unicode="&#x171;" horiz-adv-x="614" 
d="M268 602h-115l57 163h141zM462 602h-115l57 163h141zM548 123h44v-123h-201v49q-53 -60 -142 -60q-72 0 -116.5 38t-62.5 87v307h-45v123h215v-394q6 -12 23.5 -22.5t44.5 -10.5q46 0 70 26v278h-44v123h214v-421z" />
    <glyph glyph-name="Uogonek" unicode="&#x172;" horiz-adv-x="698" 
d="M672 700v-135h-50v-427q-13 -30 -52 -72q-104 -117 -123 -171v-21q9 -15 44 -15q25 0 48 6v-88q-32 -13 -80 -13q-107 0 -134 54v81q13 35 71 89q-22 -3 -47 -3q-109 0 -177.5 46.5t-95.5 106.5v427h-50v135h278v-135h-45v-393q9 -21 33 -34.5t57 -13.5q66 0 90 48v393
h-44v135h277z" />
    <glyph glyph-name="uogonek" unicode="&#x173;" horiz-adv-x="614" 
d="M592 0h-36q-54 -54 -73 -98v-21q9 -15 41 -15q23 0 43 6v-88q-28 -13 -77 -13q-101 0 -128 54v80q23 50 81 95h-52v49q-53 -60 -142 -60q-72 0 -116.5 38t-62.5 87v307h-45v123h215v-394q6 -12 23.5 -22.5t44.5 -10.5q46 0 70 26v278h-44v123h214v-421h44v-123z" />
    <glyph glyph-name="Wcircumflex" unicode="&#x174;" horiz-adv-x="984" 
d="M553 744l-61 93l-61 -93h-123l85 159h198l85 -159h-123zM965 565h-45l-122 -565h-217l-92 390h-4l-93 -390h-206l-122 565h-45v135h275v-135h-49l64 -345h4l114 480h138l111 -480h4l66 345h-43v135h262v-135z" />
    <glyph glyph-name="wcircumflex" unicode="&#x175;" horiz-adv-x="842" 
d="M531 764l84 -162h-122l-61 97l-61 -97h-123l85 162h198zM824 421h-36l-107 -421h-187l-68 285h-4l-68 -285h-191l-108 421h-37v123h241v-123h-34l49 -249h4l83 372h138l83 -372h4l49 249h-34v123h223v-123z" />
    <glyph glyph-name="Ycircumflex" unicode="&#x176;" horiz-adv-x="648" 
d="M385 744l-61 93l-61 -93h-123l85 159h198l85 -159h-123zM634 565h-46l-178 -297v-133h50v-135h-282v135h49v151l-168 279h-45v135h274v-135h-45l87 -151h4l87 151h-46v135h259v-135z" />
    <glyph glyph-name="ycircumflex" unicode="&#x177;" horiz-adv-x="555" 
d="M376 764l84 -162h-122l-61 97l-61 -97h-123l85 162h198zM539 421h-33l-162 -512q-69 -79 -200 -79q-61 0 -92 11v116q24 -2 52 -2q61 0 90 28l9 29l-151 409h-36v123h235v-123h-32l64 -223h4l61 223h-31v123h222v-123z" />
    <glyph glyph-name="Ydieresis" unicode="&#x178;" horiz-adv-x="648" 
d="M294 753h-147v133h147v-133zM500 753h-146v133h146v-133zM634 565h-46l-178 -297v-133h50v-135h-282v135h49v151l-168 279h-45v135h274v-135h-45l87 -151h4l87 151h-46v135h259v-135z" />
    <glyph glyph-name="Zacute" unicode="&#x179;" horiz-adv-x="583" 
d="M350 744h-139l76 159h175zM559 585l-316 -446v-4h175v85h141v-220h-535v115l314 446v4h-165v-74h-141v209h527v-115z" />
    <glyph glyph-name="zacute" unicode="&#x17a;" horiz-adv-x="516" 
d="M316 602h-139l76 163h175zM491 438l-271 -311v-4h142v75h129v-198h-465v113l264 304v4h-131v-64h-129v187h461v-106z" />
    <glyph glyph-name="Zdotaccent" unicode="&#x17b;" horiz-adv-x="583" 
d="M366 753h-161v139h161v-139zM559 585l-316 -446v-4h175v85h141v-220h-535v115l314 446v4h-165v-74h-141v209h527v-115z" />
    <glyph glyph-name="zdotaccent" unicode="&#x17c;" horiz-adv-x="516" 
d="M340 603h-163v140h163v-140zM491 438l-271 -311v-4h142v75h129v-198h-465v113l264 304v4h-131v-64h-129v187h461v-106z" />
    <glyph glyph-name="Zcaron" unicode="&#x17d;" horiz-adv-x="583" 
d="M384 744h-198l-85 159h123l61 -93l61 93h123zM559 585l-316 -446v-4h175v85h141v-220h-535v115l314 446v4h-165v-74h-141v209h527v-115z" />
    <glyph glyph-name="zcaron" unicode="&#x17e;" horiz-adv-x="516" 
d="M357 602h-199l-84 162h123l61 -97l61 97h122zM491 438l-271 -311v-4h142v75h129v-198h-465v113l264 304v4h-131v-64h-129v187h461v-106z" />
    <glyph glyph-name="longs" unicode="&#x17f;" horiz-adv-x="341" 
d="M246 733q61 0 95 -13v-115q-8 2 -31 2q-53 0 -74 -26v-458h51v-123h-265v123h45v514q14 40 58 68t121 28z" />
    <glyph glyph-name="Schwa" unicode="&#x18f;" horiz-adv-x="615" 
d="M304 715q109 0 176 -46t94 -107v-424q-27 -61 -94 -107t-176 -46q-57 0 -104 14t-78 37t-49.5 44t-31.5 45v264h350v139q-25 49 -87 49q-66 0 -87 -49v-71h-176v119q17 32 44.5 60t86 53.5t132.5 25.5zM211 269v-102q23 -43 90 -43q33 0 57 13.5t33 34.5v97h-180z" />
    <glyph glyph-name="florin" unicode="&#x192;" horiz-adv-x="417" 
d="M285 714q60 0 102 -13v-113h-42q-48 0 -63 -28v-44h105v-122h-105v-477q-14 -40 -56.5 -69t-115.5 -29q-60 0 -102 13v113h42q46 0 63 28v421h-49v122h49v101q14 40 56.5 68.5t115.5 28.5z" />
    <glyph glyph-name="Scommaaccent" unicode="&#x218;" horiz-adv-x="589" 
d="M294 715q74 0 133 -25.5t85.5 -52.5t42.5 -56v-103h-176v55q-8 18 -30.5 31t-54.5 13q-31 0 -53 -13.5t-31 -30.5v-56q15 -29 71 -42l45 -10q179 -39 229 -129v-176q-13 -22 -31 -42.5t-48.5 -43t-77.5 -36t-104 -13.5t-104 14t-77.5 36.5t-49 42.5t-30.5 42v113h177v-66
q22 -43 84 -43q60 0 85 43v69q-16 30 -71 42l-45 10q-177 37 -230 127v166q12 21 30 41.5t49 43t78 36t104 13.5zM378 -42v-123q-22 -64 -108 -64h-55v53h39q36 0 43 16v18h-88v100h169z" />
    <glyph glyph-name="scommaaccent" unicode="&#x219;" horiz-adv-x="529" 
d="M265 559q50 0 91.5 -12t68.5 -31t41.5 -33.5t24.5 -29.5v-82h-157v39q-18 32 -70 32q-50 0 -70 -32v-39q11 -18 60 -29l51 -11q147 -30 186 -90v-150q-10 -15 -25 -30t-42 -34t-69 -30.5t-91 -11.5t-91 12t-69 30.5t-42 34t-24 29.5v86h156v-43q20 -32 70 -32q52 0 70 32
v43q-9 20 -58 30l-53 10q-80 16 -126 42t-59 50v144q13 21 35 41.5t74.5 42.5t117.5 22zM349 -42v-123q-22 -64 -108 -64h-55v53h39q36 0 43 16v18h-88v100h169z" />
    <glyph glyph-name="uni021A" unicode="&#x21a;" horiz-adv-x="685" 
d="M659 469h-141v96h-84v-430h49v-135h-282v135h50v430h-84v-96h-141v231h633v-231zM426 -42v-123q-22 -64 -108 -64h-55v53h39q36 0 43 16v18h-88v100h169z" />
    <glyph glyph-name="uni021B" unicode="&#x21b;" horiz-adv-x="376" 
d="M245 544h105v-123h-105v-283q19 -25 73 -25q20 0 32 1v-114q-44 -13 -96 -13q-77 0 -121 28t-58 68v338h-60v123h60v118h170v-118zM294 -42v-123q-22 -64 -108 -64h-55v53h39q36 0 43 16v18h-88v100h169z" />
    <glyph glyph-name="schwa" unicode="&#x259;" horiz-adv-x="550" 
d="M268 559q99 0 160 -42t84 -95v-300q-23 -53 -84 -95t-160 -42q-67 0 -120.5 23.5t-76.5 46t-36 45.5v214h307v81q-17 40 -74 40q-28 0 -48.5 -11.5t-27.5 -28.5v-38h-157v87q13 23 36 45.5t76.5 46t120.5 23.5zM192 219v-70q7 -17 27.5 -28.5t48.5 -11.5q56 0 75 40v70
h-151z" />
    <glyph glyph-name="circumflex" unicode="&#x2c6;" 
d="M335 764l84 -162h-122l-61 97l-61 -97h-123l85 162h198z" />
    <glyph glyph-name="caron" unicode="&#x2c7;" 
d="M335 602h-199l-84 162h123l61 -97l61 97h122z" />
    <glyph glyph-name="breve" unicode="&#x2d8;" 
d="M175 740v-29q5 -11 20.5 -21t40.5 -10q46 0 60 31v29h122v-52q-46 -95 -182 -95q-68 0 -115 25.5t-68 69.5v52h122z" />
    <glyph glyph-name="dotaccent" unicode="&#x2d9;" 
d="M318 603h-163v140h163v-140z" />
    <glyph glyph-name="ring" unicode="&#x2da;" 
d="M235 819q46 0 81.5 -17.5t51.5 -47.5v-99q-16 -30 -51.5 -47.5t-81.5 -17.5q-45 0 -80.5 17.5t-51.5 47.5v99q16 30 51.5 47.5t80.5 17.5zM235 755q-41 0 -56 -23v-55q15 -23 56 -23q42 0 57 23v55q-15 23 -57 23z" />
    <glyph glyph-name="ogonek" unicode="&#x2db;" 
d="M146 -175v80q11 25 42 59t73 59l79 -23q-58 -58 -73 -98v-21q9 -15 41 -15q21 0 43 6v-88q-28 -13 -78 -13q-101 0 -127 54z" />
    <glyph glyph-name="tilde" unicode="&#x2dc;" 
d="M160 747q43 0 81 -24t53 -24q26 0 33 23v20h97v-64q-6 -35 -36.5 -59.5t-76.5 -24.5q-44 0 -81.5 24.5t-53.5 24.5q-24 0 -32 -23v-21h-97v65q6 35 36.5 59t76.5 24z" />
    <glyph glyph-name="hungarumlaut" unicode="&#x2dd;" 
d="M168 602h-115l57 163h141zM362 602h-115l57 163h141z" />
    <glyph glyph-name="uni0326" unicode="&#x326;" horiz-adv-x="0" 
d="M320 -42v-123q-22 -64 -108 -64h-55v53h39q36 0 43 16v18h-88v100h169z" />
    <glyph glyph-name="Delta" unicode="&#x394;" horiz-adv-x="640" 
d="M631 0h-622l185 700h251zM210 135h203l-100 426z" />
    <glyph glyph-name="Omega" unicode="&#x3a9;" horiz-adv-x="631" 
d="M593 139v-139h-255v235q49 8 64 48v245q-9 21 -32 35t-55 14t-55 -14t-32 -35v-245q17 -40 65 -48v-235h-255v139h118q-79 39 -111 108v315q27 61 94 107t176 46t176 -46t94 -107v-315q-29 -67 -111 -108h119z" />
    <glyph glyph-name="mu" unicode="&#x3bc;" horiz-adv-x="609" 
d="M545 123h44v-123h-201v52q-34 -51 -101 -51q-29 0 -51 12v-62h45v-122h-258v122h44v470h-45v123h214v-394q19 -32 69 -32q43 0 70 25v278h-45v123h215v-421z" />
    <glyph glyph-name="pi" unicode="&#x3c0;" horiz-adv-x="694" 
d="M660 422h-101v-284q22 -25 74 -25q19 0 31 1v-114q-42 -13 -95 -13q-78 0 -121.5 28t-57.5 68v339h-123v-299h45v-123h-260v123h45v299h-67v122h630v-122z" />
    <glyph glyph-name="Wgrave" unicode="&#x1e80;" horiz-adv-x="984" 
d="M485 903l76 -156h-139l-112 156h175zM965 565h-45l-122 -565h-217l-92 390h-4l-93 -390h-206l-122 565h-45v135h275v-135h-49l64 -345h4l114 480h138l111 -480h4l66 345h-43v135h262v-135z" />
    <glyph glyph-name="wgrave" unicode="&#x1e81;" horiz-adv-x="842" 
d="M435 765l76 -163h-139l-112 163h175zM824 421h-36l-107 -421h-187l-68 285h-4l-68 -285h-191l-108 421h-37v123h241v-123h-34l49 -249h4l83 372h138l83 -372h4l49 249h-34v123h223v-123z" />
    <glyph glyph-name="Wacute" unicode="&#x1e82;" horiz-adv-x="984" 
d="M557 744h-139l76 159h175zM965 565h-45l-122 -565h-217l-92 390h-4l-93 -390h-206l-122 565h-45v135h275v-135h-49l64 -345h4l114 480h138l111 -480h4l66 345h-43v135h262v-135z" />
    <glyph glyph-name="wacute" unicode="&#x1e83;" horiz-adv-x="842" 
d="M490 602h-139l76 163h175zM824 421h-36l-107 -421h-187l-68 285h-4l-68 -285h-191l-108 421h-37v123h241v-123h-34l49 -249h4l83 372h138l83 -372h4l49 249h-34v123h223v-123z" />
    <glyph glyph-name="Wdieresis" unicode="&#x1e84;" horiz-adv-x="984" 
d="M462 753h-147v133h147v-133zM668 753h-146v133h146v-133zM965 565h-45l-122 -565h-217l-92 390h-4l-93 -390h-206l-122 565h-45v135h275v-135h-49l64 -345h4l114 480h138l111 -480h4l66 345h-43v135h262v-135z" />
    <glyph glyph-name="wdieresis" unicode="&#x1e85;" horiz-adv-x="842" 
d="M402 608h-147v133h147v-133zM609 608h-147v133h147v-133zM824 421h-36l-107 -421h-187l-68 285h-4l-68 -285h-191l-108 421h-37v123h241v-123h-34l49 -249h4l83 372h138l83 -372h4l49 249h-34v123h223v-123z" />
    <glyph glyph-name="Ygrave" unicode="&#x1ef2;" horiz-adv-x="648" 
d="M317 903l76 -156h-139l-112 156h175zM634 565h-46l-178 -297v-133h50v-135h-282v135h49v151l-168 279h-45v135h274v-135h-45l87 -151h4l87 151h-46v135h259v-135z" />
    <glyph glyph-name="ygrave" unicode="&#x1ef3;" horiz-adv-x="555" 
d="M280 765l76 -163h-139l-112 163h175zM539 421h-33l-162 -512q-69 -79 -200 -79q-61 0 -92 11v116q24 -2 52 -2q61 0 90 28l9 29l-151 409h-36v123h235v-123h-32l64 -223h4l61 223h-31v123h222v-123z" />
    <glyph glyph-name="endash" unicode="&#x2013;" horiz-adv-x="576" 
d="M546 267h-516v135h516v-135z" />
    <glyph glyph-name="emdash" unicode="&#x2014;" horiz-adv-x="886" 
d="M856 267h-826v135h826v-135z" />
    <glyph glyph-name="quoteleft" unicode="&#x2018;" horiz-adv-x="233" 
d="M28 390v229q8 26 40.5 53.5t78.5 27.5h42v-71h-33q-11 0 -23 -7.5t-16 -17.5v-42h88v-172h-177z" />
    <glyph glyph-name="quoteright" unicode="&#x2019;" horiz-adv-x="233" 
d="M205 700v-229q-8 -26 -40.5 -53.5t-78.5 -27.5h-42v71h33q11 0 22.5 7.5t16.5 18.5v41h-88v172h177z" />
    <glyph glyph-name="quotesinglbase" unicode="&#x201a;" horiz-adv-x="233" 
d="M205 172v-229q-8 -26 -40.5 -53.5t-78.5 -27.5h-42v71h33q11 0 22.5 7.5t16.5 17.5v42h-88v172h177z" />
    <glyph glyph-name="quotedblleft" unicode="&#x201c;" horiz-adv-x="458" 
d="M28 390v229q8 26 40.5 53.5t78.5 27.5h42v-71h-33q-11 0 -23 -7.5t-16 -17.5v-42h88v-172h-177zM253 390v229q8 26 40.5 53.5t78.5 27.5h42v-71h-33q-10 0 -22 -7.5t-17 -17.5v-42h88v-172h-177z" />
    <glyph glyph-name="quotedblright" unicode="&#x201d;" horiz-adv-x="458" 
d="M205 700v-229q-8 -26 -40.5 -53.5t-78.5 -27.5h-42v71h33q11 0 22.5 7.5t16.5 18.5v41h-88v172h177zM430 700v-229q-8 -26 -40.5 -53.5t-78.5 -27.5h-42v71h34q10 0 22 8t16 18v41h-88v172h177z" />
    <glyph glyph-name="quotedblbase" unicode="&#x201e;" horiz-adv-x="458" 
d="M205 172v-229q-8 -26 -40.5 -53.5t-78.5 -27.5h-42v71h33q11 0 22.5 7.5t16.5 17.5v42h-88v172h177zM430 172v-229q-8 -26 -40.5 -53.5t-78.5 -27.5h-42v71h33q11 0 23 7.5t16 17.5v42h-88v172h177z" />
    <glyph glyph-name="dagger" unicode="&#x2020;" horiz-adv-x="675" 
d="M38 317v157l208 -13l-1 239h184l-1 -239l209 13v-157l-213 13l-16 -501h-143l-16 501z" />
    <glyph glyph-name="daggerdbl" unicode="&#x2021;" horiz-adv-x="675" 
d="M252 265l-3 137l-211 -13v157l208 -14l-1 168h184l-1 -167l209 13v-157l-213 13l-3 -137l216 14v-157l-220 14l-9 -307h-143l-9 307l-218 -14v157z" />
    <glyph glyph-name="bullet" unicode="&#x2022;" horiz-adv-x="359" 
d="M179 482q45 0 81.5 -18.5t55.5 -46.5v-150q-19 -30 -55 -48.5t-82 -18.5t-82.5 19t-54.5 49v149q19 28 55 46.5t82 18.5z" />
    <glyph glyph-name="ellipsis" unicode="&#x2026;" horiz-adv-x="716" 
d="M208 0h-178v172h178v-172zM447 0h-178v172h178v-172zM686 0h-177v172h177v-172z" />
    <glyph glyph-name="perthousand" unicode="&#x2030;" horiz-adv-x="1309" 
d="M215 710q69 0 113.5 -28t59.5 -67v-178q-14 -38 -59 -66t-114 -28t-113.5 28t-59.5 66v178q15 39 59.5 67t113.5 28zM261 0h-128l523 700h128zM216 622q-40 0 -53 -25v-142q13 -24 53 -24t51 24v142q-12 25 -51 25zM700 357q69 0 114 -28t59 -66v-178q-14 -38 -59 -66
t-114 -28t-113.5 28t-59.5 66v178q15 38 59.5 66t113.5 28zM1093 357q69 0 114 -28t59 -66v-178q-14 -38 -59 -66t-114 -28t-113.5 28t-59.5 66v178q15 38 59.5 66t113.5 28zM701 270q-40 0 -53 -25v-142q13 -24 53 -24t51 24v142q-12 25 -51 25zM1094 270q-40 0 -53 -25
v-142q13 -24 53 -24t51 24v142q-12 25 -51 25z" />
    <glyph glyph-name="guilsinglleft" unicode="&#x2039;" horiz-adv-x="372" 
d="M344 26h-145l-171 251v15l171 252h145l-173 -259z" />
    <glyph glyph-name="guilsinglright" unicode="&#x203a;" horiz-adv-x="372" 
d="M28 544h145l171 -252v-15l-171 -251h-145l173 259z" />
    <glyph glyph-name="fraction" unicode="&#x2044;" horiz-adv-x="196" 
d="M-101 0h-124l523 700h123z" />
    <glyph glyph-name="uni20A8" unicode="&#x20a8;" horiz-adv-x="512" 
d="M494 617h-100q23 -16 33 -40v-66h67v-83h-67v-51q-25 -51 -71 -81t-99 -37l131 -138h54v-121h-173l-226 253v107h131q25 0 46.5 11.5t30.5 32.5v24h-208v83h208v26q-9 20 -31 32t-46 12h-131v119h451v-83z" />
    <glyph glyph-name="Euro" unicode="&#x20ac;" horiz-adv-x="601" 
d="M326 715q67 0 123 -23t80.5 -45.5t38.5 -43.5v-98h-162v38q-7 16 -29.5 28t-50.5 12q-27 0 -49 -11.5t-30 -28.5v-82h209v-83h-209v-49h209v-83h-209v-89q8 -17 30 -28.5t49 -11.5q28 0 50.5 12t29.5 28v38h162v-97q-23 -37 -85 -75t-157 -38q-99 0 -165 42t-89 92v127
h-45v83h45v49h-45v83h45v120q23 50 89 92t165 42z" />
    <glyph glyph-name="uni20BA" unicode="&#x20ba;" horiz-adv-x="596" 
d="M320 605h-49v-78l166 82v-95l-166 -82v-62l166 81v-95l-166 -81v-143h54q28 0 50 11.5t29 28.5v82h162v-141q-21 -37 -83.5 -75t-157.5 -38h-280v114h50v91l-60 -30v95l60 30v62l-60 -29v95l60 29v116h-50v127h275v-95z" />
    <glyph glyph-name="uni20BD" unicode="&#x20bd;" horiz-adv-x="622" 
d="M26 700h352q68 0 124.5 -31t89.5 -88v-157q-29 -52 -84 -85.5t-130 -33.5h-120v-45h215v-83h-215v-56h57v-121h-289v121h49v56h-46v83h46v45h-46v111h46v157h-49v127zM258 573v-157h79q58 0 79 40v77q-21 40 -79 40h-79z" />
    <glyph glyph-name="uni2116" unicode="&#x2116;" horiz-adv-x="1085" 
d="M866 708q77 0 124.5 -32.5t67.5 -74.5v-157q-20 -42 -67.5 -74.5t-124.5 -32.5t-124.5 32.5t-66.5 74.5v157q19 42 66.5 74.5t124.5 32.5zM633 565h-43v-565h-186l-168 439h-4v-304h41v-135h-241v135h43v430h-43v135h229l168 -441h4v306h-41v135h241v-135zM867 607
q-48 0 -64 -34v-101q17 -34 64 -34q46 0 63 34v101q-16 34 -63 34zM1058 196h-383v104h383v-104z" />
    <glyph glyph-name="uni2117" unicode="&#x2117;" horiz-adv-x="792" 
d="M396 715q152 0 260 -106.5t108 -258.5t-108 -258.5t-260 -106.5t-260 106.5t-108 258.5t108 258.5t260 106.5zM396 646q-123 0 -207 -86t-84 -210t84 -210t207 -86t207 86t84 210t-84 210t-207 86zM233 562h217q45 0 83.5 -24t55.5 -63v-104q-17 -39 -56 -63t-83 -24h-79
v-63h37v-83h-175v83h34v259h-34v82zM371 480v-113h61q33 0 46 29v55q-13 29 -46 29h-61z" />
    <glyph glyph-name="trademark" unicode="&#x2122;" horiz-adv-x="882" 
d="M361 556h-83v56h-35v-229h26v-73h-164v73h26v229h-34v-56h-83v144h347v-144zM868 634h-26v-251h26v-73h-154v73h24v164h-4l-78 -237h-56l-79 237h-4v-164h24v-73h-154v73h26v244h-26v73h177l65 -206h4l66 206h169v-66z" />
    <glyph glyph-name="uni2154" unicode="&#x2154;" horiz-adv-x="1057" 
d="M205 710q67 0 111.5 -26.5t61.5 -58.5v-81q-17 -40 -96 -87l-54 -33q-57 -32 -67 -50v-14h123v50h97v-130h-341v106q23 48 99 93l66 37q42 26 53 46v37q-15 23 -53 23q-41 0 -52 -21v-53h-111v95q10 13 26 26.5t53.5 27t83.5 13.5zM341 0h-123l523 700h122zM831 430
q66 0 111 -25.5t60 -54.5v-91q-14 -23 -62 -41q45 -17 66 -50v-96q-16 -30 -61 -55.5t-113 -25.5q-44 0 -82.5 14t-55 26.5t-26.5 24.5v77h111v-36q13 -19 53 -19q39 0 54 19v50q-12 23 -54 23h-64v87h63q36 0 52 20v48q-15 17 -52 17t-52 -17v-34h-111v74q57 65 163 65z
" />
    <glyph glyph-name="oneeighth" unicode="&#x215b;" horiz-adv-x="982" 
d="M229 360h64v-80h-253v80h68v236l-68 -26v78l87 52h102v-340zM268 0h-123l523 700h123zM768 430q106 0 163 -65v-112q-16 -21 -47 -36q42 -23 58 -52v-93q-16 -30 -61 -55.5t-113 -25.5q-67 0 -112 25.5t-61 55.5v93q16 30 57 51q-32 16 -46 37v112q57 65 162 65zM769 341
q-35 0 -52 -17v-53q16 -16 52 -16q37 0 51 16v53q-15 17 -51 17zM769 177q-39 0 -54 -19v-60q13 -19 54 -19q40 0 53 19v60q-15 19 -53 19z" />
    <glyph glyph-name="threeeighths" unicode="&#x215c;" horiz-adv-x="1012" 
d="M203 710q66 0 110 -25.5t61 -54.5v-91q-16 -24 -63 -41q47 -18 67 -50v-96q-16 -30 -61.5 -55.5t-112.5 -25.5q-45 0 -83.5 14t-55 26.5t-26.5 24.5v77h111v-36q13 -19 54 -19q40 0 53 19v50q-12 23 -53 23h-64v87h63q35 0 51 20v48q-15 17 -51 17t-53 -17v-34h-111v74
q57 65 164 65zM306 0h-123l523 700h123zM801 430q106 0 163 -65v-112q-20 -23 -47 -36q39 -21 58 -52v-93q-17 -30 -62 -55.5t-112 -25.5t-112 25.5t-62 55.5v93q19 31 58 51q-29 14 -47 37v112q57 65 163 65zM801 341q-34 0 -51 -17v-53q16 -16 51 -16q36 0 52 16v53
q-17 17 -52 17zM801 177q-38 0 -53 -19v-60q13 -19 53 -19q42 0 53 19v60q-13 19 -53 19z" />
    <glyph glyph-name="fiveeighths" unicode="&#x215d;" horiz-adv-x="1020" 
d="M365 572h-105v31h-107v-82q34 27 88 27q46 0 79.5 -17.5t45.5 -42.5v-152q-10 -13 -26 -25.5t-54 -26t-83 -13.5q-110 0 -165 65v72h111v-30q13 -19 54 -19q40 0 53 19v68q-15 19 -53 19q-31 0 -50 -19h-112v254h324v-128zM310 0h-123l523 700h123zM811 430
q106 0 163 -65v-112q-20 -23 -47 -36q39 -21 58 -52v-93q-17 -30 -62 -55.5t-112 -25.5t-112 25.5t-62 55.5v93q19 31 58 51q-29 14 -47 37v112q57 65 163 65zM811 341q-34 0 -51 -17v-53q16 -16 51 -16q36 0 52 16v53q-17 17 -52 17zM811 177q-38 0 -53 -19v-60
q13 -19 53 -19q42 0 53 19v60q-13 19 -53 19z" />
    <glyph glyph-name="seveneighths" unicode="&#x215e;" horiz-adv-x="951" 
d="M364 619l-158 -339h-127l161 321v2h-99v-40h-105v137h328v-81zM233 0h-123l523 700h122zM745 430q106 0 163 -65v-112q-16 -21 -47 -36q39 -21 58 -52v-93q-16 -30 -61.5 -55.5t-112.5 -25.5t-112 25.5t-61 55.5v93q16 31 57 51q-30 15 -47 37v112q57 65 163 65zM746 341
q-35 0 -52 -17v-53q16 -16 52 -16q37 0 51 16v53q-15 17 -51 17zM746 177q-39 0 -54 -19v-60q13 -19 54 -19t52 19v60q-13 19 -52 19z" />
    <glyph glyph-name="arrowleft" unicode="&#x2190;" horiz-adv-x="760" 
d="M421 596l-191 -178h530v-137h-529l190 -177l-110 -104l-311 308v84l311 308z" />
    <glyph glyph-name="arrowup" unicode="&#x2191;" horiz-adv-x="768" 
d="M754 432l-99 -100l-192 195v-527h-157v527l-193 -195l-99 100l328 328h84z" />
    <glyph glyph-name="arrowright" unicode="&#x2192;" horiz-adv-x="760" 
d="M760 392v-84l-311 -308l-110 104l190 177h-529v137h530l-191 178l110 104z" />
    <glyph glyph-name="arrowdown" unicode="&#x2193;" horiz-adv-x="768" 
d="M463 173l192 195l99 -100l-328 -328h-84l-328 328l99 100l193 -195v527h157v-527z" />
    <glyph glyph-name="partialdiff" unicode="&#x2202;" horiz-adv-x="566" 
d="M179 643l107 87q80 -28 151 -95t91 -116v-396q-24 -55 -85 -96.5t-160 -41.5q-98 0 -159 41.5t-86 95.5v218q16 53 63 93.5t121 40.5q76 0 137 -56v68q-18 38 -70.5 82t-109.5 75zM283 349q-55 0 -75 -41v-155q19 -40 75 -40q57 0 76 40v155q-20 41 -76 41z" />
    <glyph glyph-name="product" unicode="&#x220f;" horiz-adv-x="714" 
d="M682 565h-49v-530h49v-135h-282v135h50v530h-186v-530h50v-135h-282v135h49v530h-49v135h650v-135z" />
    <glyph glyph-name="summation" unicode="&#x2211;" horiz-adv-x="563" 
d="M531 491h-143v75h-150l148 -231v-69l-148 -232h150v75h142v-209h-498v113l174 287l-174 287v113h499v-209z" />
    <glyph glyph-name="minus" unicode="&#x2212;" horiz-adv-x="588" 
d="M556 267h-524v133h524v-133z" />
    <glyph glyph-name="radical" unicode="&#x221a;" horiz-adv-x="601" 
d="M405 0h-212l-122 417h-49v127h177l97 -369h4l127 525h170z" />
    <glyph glyph-name="infinity" unicode="&#x221e;" horiz-adv-x="792" 
d="M538 529q69 0 114 -28t60 -66v-165q-15 -38 -60 -66t-114 -28q-89 0 -140 58q-54 -58 -145 -58q-69 0 -113.5 28t-59.5 67v164q15 38 59.5 66t113.5 28q91 0 143 -61q50 61 142 61zM253 264q20 0 37.5 7.5t22.5 17.5l26 64l-26 64q-5 10 -22.5 17t-37.5 7q-39 0 -52 -24
v-128q13 -25 52 -25zM590 288v129q-11 24 -51 24q-41 0 -54 -24l-29 -72l23 -57q5 -9 23 -16.5t37 -7.5q39 0 51 24z" />
    <glyph glyph-name="integral" unicode="&#x222b;" horiz-adv-x="421" 
d="M297 714q59 0 103 -13v-113h-42q-50 0 -63 -28v-643q-15 -41 -57.5 -69.5t-115.5 -28.5q-58 0 -102 13v113h42q49 0 63 28v644q15 40 57.5 68.5t114.5 28.5z" />
    <glyph glyph-name="approxequal" unicode="&#x2248;" horiz-adv-x="588" 
d="M173 536q50 0 137.5 -25.5t130.5 -25.5q29 0 57 11t42 22l13 11v-145q-42 -34 -111 -34q-53 0 -139 25.5t-132 25.5q-35 0 -69 -12.5t-50 -25.5l-17 -13v140q6 5 17 12.5t47 20.5t74 13zM173 319q50 0 137.5 -25.5t130.5 -25.5q29 0 57 11t42 22l13 11v-145
q-42 -34 -111 -34q-53 0 -139 25.5t-132 25.5q-35 0 -69 -13t-50 -25l-17 -13v140q6 5 17 12.5t47 20.5t74 13z" />
    <glyph glyph-name="notequal" unicode="&#x2260;" horiz-adv-x="588" 
d="M427 509h129v-134h-179l-32 -82h211v-134h-261l-34 -88h-135l33 88h-127v134h178l32 82h-210v134h260l34 86h135z" />
    <glyph glyph-name="lessequal" unicode="&#x2264;" horiz-adv-x="588" 
d="M546 474l-332 -76l332 -75v-144l-505 159v121l505 159v-144zM546 13h-504v134h504v-134z" />
    <glyph glyph-name="greaterequal" unicode="&#x2265;" horiz-adv-x="588" 
d="M546 459v-121l-505 -159v144l333 75l-333 76v144zM545 13h-504v134h504v-134z" />
    <glyph glyph-name="lozenge" unicode="&#x25ca;" horiz-adv-x="607" 
d="M580 350l-182 -350h-184l-182 350l182 350h184zM216 350l90 -168l89 168l-89 168z" />
    <glyph glyph-name="uniE000" unicode="&#xe000;" horiz-adv-x="1047" 
d="M215 710q64 0 105.5 -22t58.5 -44v-71h-111v29q-13 19 -53 19t-53 -19v-84q37 30 93 30q45 0 77.5 -17.5t46.5 -42.5v-152q-10 -12 -26 -24.5t-54.5 -26.5t-83.5 -14q-67 0 -112 25.5t-62 55.5v277q17 30 62 55.5t112 25.5zM316 0h-124l524 700h122zM213 464
q-28 0 -51 -17v-69q13 -19 53 -19q42 0 53 19v67q-11 19 -55 19zM816 430q106 0 163 -65v-112q-20 -23 -47 -36q39 -21 58 -52v-93q-17 -30 -62 -55.5t-112 -25.5t-112 25.5t-62 55.5v93q19 31 58 51q-29 14 -47 37v112q57 65 163 65zM816 341q-33 0 -52 -17v-53
q18 -16 52 -16q37 0 51 16v53q-15 17 -51 17zM816 177q-40 0 -53 -19v-60q11 -19 53 -19t53 19v60q-13 19 -53 19z" />
    <glyph glyph-name="uniE001" unicode="&#xe001;" horiz-adv-x="1279" 
d="M226 360h64v-80h-253v80h68v236l-68 -26v78l87 52h102v-340zM249 0h-123l523 700h122zM1071 430q110 0 165 -66v-71h-112v29q-13 19 -53 19t-53 -19v-84q37 30 93 30q45 0 78 -17.5t47 -42.5v-152q-57 -65 -165 -65q-67 0 -112 25.5t-62 55.5v277q18 31 62.5 56t111.5 25
zM789 80h65v-80h-253v80h68v236l-69 -26v78l87 52h102v-340zM1070 184q-29 0 -52 -17v-69q13 -19 53 -19q42 0 53 19v67q-11 19 -54 19z" />
    <glyph glyph-name="g.ss01" horiz-adv-x="590" 
d="M218 555q84 0 139 -55v44h207v-123h-44v-464q-25 -54 -85 -93.5t-159 -39.5q-96 0 -152.5 36.5t-79.5 79.5v83h163v-42q7 -11 25 -21t44 -10q56 0 74 38v115q-52 -47 -132 -47q-73 0 -118 38.5t-62 87.5v247q17 49 62 87.5t118 38.5zM277 427q-26 0 -44.5 -11t-25.5 -23
v-176q7 -12 25.5 -22.5t45.5 -10.5q46 0 72 26v190q-25 27 -73 27z" />
    <glyph glyph-name="gbreve.ss01" horiz-adv-x="590" 
d="M229 740v-29q5 -11 20.5 -21t40.5 -10q46 0 60 31v29h122v-52q-46 -95 -182 -95q-68 0 -115 25.5t-68 69.5v52h122zM218 555q84 0 139 -55v44h207v-123h-44v-464q-25 -54 -85 -93.5t-159 -39.5q-96 0 -152.5 36.5t-79.5 79.5v83h163v-42q7 -11 25 -21t44 -10q56 0 74 38
v115q-52 -47 -132 -47q-73 0 -118 38.5t-62 87.5v247q17 49 62 87.5t118 38.5zM277 427q-26 0 -44.5 -11t-25.5 -23v-176q7 -12 25.5 -22.5t45.5 -10.5q46 0 72 26v190q-25 27 -73 27z" />
    <glyph glyph-name="gcommaaccent.ss01" horiz-adv-x="590" 
d="M211 603v128q21 64 108 64h56v-53h-40q-35 0 -43 -16v-17h88v-106h-169zM218 555q84 0 139 -55v44h207v-123h-44v-464q-25 -54 -85 -93.5t-159 -39.5q-96 0 -152.5 36.5t-79.5 79.5v83h163v-42q7 -11 25 -21t44 -10q56 0 74 38v115q-52 -47 -132 -47q-73 0 -118 38.5
t-62 87.5v247q17 49 62 87.5t118 38.5zM277 427q-26 0 -44.5 -11t-25.5 -23v-176q7 -12 25.5 -22.5t45.5 -10.5q46 0 72 26v190q-25 27 -73 27z" />
    <glyph glyph-name="gdotaccent.ss01" horiz-adv-x="590" 
d="M371 603h-163v140h163v-140zM218 555q84 0 139 -55v44h207v-123h-44v-464q-25 -54 -85 -93.5t-159 -39.5q-96 0 -152.5 36.5t-79.5 79.5v83h163v-42q7 -11 25 -21t44 -10q56 0 74 38v115q-52 -47 -132 -47q-73 0 -118 38.5t-62 87.5v247q17 49 62 87.5t118 38.5zM277 427
q-26 0 -44.5 -11t-25.5 -23v-176q7 -12 25.5 -22.5t45.5 -10.5q46 0 72 26v190q-25 27 -73 27z" />
    <glyph glyph-name="i.loclTRK" horiz-adv-x="308" 
d="M232 603h-163v140h163v-140zM240 123h45v-123h-260v123h45v298h-45v123h215v-421z" />
    <glyph glyph-name="zero.superior" horiz-adv-x="436" 
d="M218 710q66 0 110.5 -25.5t63.5 -55.5v-277q-18 -31 -62.5 -56t-111.5 -25t-112 25.5t-62 55.5v277q17 30 62 55.5t112 25.5zM218 620q-39 0 -53 -18v-224q14 -18 53 -18q41 0 53 18v224q-12 18 -53 18z" />
    <glyph glyph-name="one.superior" horiz-adv-x="321" 
d="M227 360h64v-80h-253v80h68v236l-68 -26v78l87 52h102v-340z" />
    <glyph glyph-name="two.superior" horiz-adv-x="420" 
d="M205 710q68 0 112 -26t61 -59v-81q-17 -40 -96 -87l-54 -33q-58 -34 -67 -50v-14h123v50h97v-130h-340v106q23 49 99 93l65 37q42 26 53 46v37q-15 23 -53 23q-41 0 -52 -21v-53h-111v95q10 13 26 26.5t53.5 27t83.5 13.5z" />
    <glyph glyph-name="three.superior" horiz-adv-x="421" 
d="M204 710q66 0 110 -25.5t61 -54.5v-91q-16 -24 -63 -41q47 -18 67 -50v-96q-16 -30 -61.5 -55.5t-112.5 -25.5q-45 0 -83.5 14t-55 26.5t-26.5 24.5v77h112v-36q11 -19 53 -19q40 0 53 19v50q-12 23 -53 23h-64v87h63q35 0 51 20v48q-15 17 -51 17q-37 0 -52 -17v-34
h-112v74q57 65 164 65z" />
    <glyph glyph-name="four.superior" horiz-adv-x="439" 
d="M364 447h49v-90h-49v-77h-116v77h-217v87l160 256h173v-253zM247 615l-104 -168h106v168h-2z" />
    <glyph glyph-name="five.superior" horiz-adv-x="412" 
d="M370 572h-105v31h-108v-82q35 27 89 27q46 0 79.5 -17.5t45.5 -42.5v-152q-10 -13 -26 -25.5t-54 -26t-83 -13.5q-110 0 -165 65v72h111v-30q13 -19 54 -19q40 0 53 19v68q-15 19 -53 19q-29 0 -51 -19h-111v254h324v-128z" />
    <glyph glyph-name="six.superior" horiz-adv-x="426" 
d="M218 710q64 0 105.5 -22t58.5 -44v-71h-111v29q-13 19 -53 19t-53 -19v-84q37 30 93 30q45 0 77.5 -17.5t46.5 -42.5v-152q-10 -12 -26 -24.5t-54.5 -26.5t-83.5 -14q-67 0 -112 25.5t-62 55.5v277q17 30 62 55.5t112 25.5zM216 464q-28 0 -51 -17v-69q13 -19 53 -19
q42 0 53 19v67q-11 19 -55 19z" />
    <glyph glyph-name="seven.superior" horiz-adv-x="379" 
d="M352 619l-158 -339h-127l161 321v2h-99v-40h-105v137h328v-81z" />
    <glyph glyph-name="eight.superior" horiz-adv-x="425" 
d="M212 710q106 0 163 -65v-112q-16 -21 -47 -36q39 -21 58 -52v-93q-16 -30 -61 -55.5t-113 -25.5q-67 0 -112 25.5t-61 55.5v93q16 31 57 51q-30 15 -47 37v112q57 65 163 65zM213 621q-35 0 -52 -17v-53q16 -16 52 -16q37 0 51 16v53q-15 17 -51 17zM213 457
q-39 0 -54 -19v-60q13 -19 54 -19t52 19v60q-13 19 -52 19z" />
    <glyph glyph-name="nine.superior" horiz-adv-x="423" 
d="M206 710q66 0 111.5 -25.5t62.5 -55.5v-277q-16 -31 -61.5 -56t-112.5 -25q-109 0 -164 65v67h111v-25q11 -19 53 -19q40 0 53 19v76q-35 -29 -91 -29q-47 0 -80 17.5t-46 42.5v159q14 20 57 43t107 23zM206 621q-40 0 -53 -19v-74q13 -19 55 -19q32 0 52 14v79
q-17 19 -54 19z" />
    <glyph glyph-name="zero.tf" horiz-adv-x="590" 
d="M295 715q98 0 164 -42t91 -92v-462q-25 -50 -91 -92t-164 -42t-164.5 42t-90.5 92v462q24 50 90.5 92t164.5 42zM295 583q-27 0 -49 -11.5t-30 -28.5v-386q8 -17 30 -28.5t49 -11.5q28 0 50 11.5t29 28.5v386q-7 17 -29 28.5t-50 11.5z" />
    <glyph glyph-name="one.tf" horiz-adv-x="590" 
d="M399 129h144v-129h-474v129h155v395l-156 -64v132l201 108h130v-571z" />
    <glyph glyph-name="two.tf" horiz-adv-x="590" 
d="M285 715q99 0 164.5 -42t90.5 -92v-163q-14 -34 -43 -63t-97 -69l-79 -45q-91 -55 -102 -81v-31h185v78h139v-207h-499v192q16 39 50.5 69.5t96.5 67.5l92 52q72 43 81 75v87q-8 17 -29 28.5t-50 11.5q-27 0 -48 -11t-29 -24v-92h-162v151q10 15 26.5 30t45 34.5
t72.5 31.5t95 12z" />
    <glyph glyph-name="three.tf" horiz-adv-x="590" 
d="M282 715q97 0 163 -41t90 -88v-149q-22 -39 -93 -72q71 -36 98 -88v-158q-24 -49 -90.5 -91.5t-164.5 -42.5q-96 0 -157.5 37.5t-83.5 75.5v117h161v-58q9 -17 30.5 -28.5t49.5 -11.5t49.5 11.5t29.5 28.5v90q-7 21 -29 35t-50 14h-93v125h90q27 0 48 12.5t29 28.5v86
q-7 14 -28 24.5t-49 10.5q-26 0 -47.5 -10.5t-29.5 -24.5v-57h-161v116q9 14 25.5 29.5t45 34.5t72.5 31.5t95 12.5z" />
    <glyph glyph-name="four.tf" horiz-adv-x="590" 
d="M501 123h46v-123h-268v123h54v63h-308v127l251 387h225v-383h71v-131h-71v-63zM329 546l-150 -229h154v229h-4z" />
    <glyph glyph-name="five.tf" horiz-adv-x="590" 
d="M353 443q63 0 113 -29.5t70 -74.5v-241q-25 -40 -85 -76.5t-156 -36.5q-51 0 -95 12t-72.5 31.5t-45.5 36t-28 33.5v117h162v-58q9 -17 30 -28.5t49 -11.5t49.5 11.5t29.5 28.5v124q-21 40 -78 40q-45 0 -76 -31h-161v410h475v-206h-139v65h-175v-157q52 41 133 41z" />
    <glyph glyph-name="six.tf" horiz-adv-x="590" 
d="M304 715q67 0 122 -22.5t79 -44.5t40 -45v-112h-161v52q-8 17 -30 28.5t-50 11.5q-27 0 -49 -11.5t-30 -28.5v-147q56 47 136 47q67 0 115.5 -30.5t68.5 -74.5v-240q-22 -38 -84 -75.5t-157 -37.5q-98 0 -164.5 42t-90.5 92v462q25 51 91 92.5t164 41.5zM302 321
q-45 0 -77 -28v-136q8 -17 30 -28.5t49 -11.5q28 0 50 11.5t30 28.5v126q-8 16 -30.5 27t-51.5 11z" />
    <glyph glyph-name="seven.tf" horiz-adv-x="590" 
d="M554 574l-261 -574h-183l259 555v4h-184v-73h-138v214h507v-126z" />
    <glyph glyph-name="eight.tf" horiz-adv-x="590" 
d="M295 715q51 0 95 -12t73 -32t44.5 -34.5t26.5 -29.5v-177q-28 -37 -75 -65q65 -38 91 -91v-155q-24 -50 -90 -92t-165 -42q-98 0 -164.5 42t-90.5 92v155q26 52 90 90q-43 24 -74 66v177q15 21 38.5 42t79 43.5t121.5 22.5zM295 583q-52 0 -77 -34v-95q25 -34 77 -34
q54 0 77 34v95q-23 34 -77 34zM295 307q-27 0 -49 -12t-30 -29v-109q8 -17 30 -28.5t49 -11.5q28 0 50 11.5t29 28.5v109q-7 17 -29 29t-50 12z" />
    <glyph glyph-name="nine.tf" horiz-adv-x="590" 
d="M286 715q99 0 165.5 -42t89.5 -92v-462q-25 -51 -90.5 -92.5t-164.5 -41.5q-96 0 -155 36.5t-86 76.5v104h162v-45q7 -17 29 -28.5t50 -11.5t49.5 11.5t29.5 28.5v136q-52 -46 -134 -46q-69 0 -117.5 30t-68.5 74v252q14 21 38.5 43.5t80 45.5t122.5 23zM286 583
q-28 0 -50 -11.5t-29 -28.5v-136q7 -16 29.5 -27t52.5 -11q43 0 76 27v147q-8 17 -29.5 28.5t-49.5 11.5z" />
    <glyph glyph-name="zero.zero" horiz-adv-x="590" 
d="M295 715q98 0 164 -42t91 -92v-462q-25 -50 -91 -92t-164 -42t-164.5 42t-90.5 92v462q24 50 90.5 92t164.5 42zM295 583q-27 0 -49 -11.5t-30 -28.5v-256l150 269q-25 27 -71 27zM295 117q28 0 50 11.5t29 28.5v259l-150 -271q26 -28 71 -28z" />
    <glyph glyph-name="registered.ss02" horiz-adv-x="792" 
d="M396 715q152 0 260 -106.5t108 -258.5t-108 -258.5t-260 -106.5t-260 106.5t-108 258.5t108 258.5t260 106.5zM396 54q123 0 207 86t84 210t-84 210t-207 86t-207 -86t-84 -210t84 -210t207 -86zM551 221h27v-83h-106l-82 168h-30v-85h29v-83h-166v83h33v259h-33v82h213
q44 0 82.5 -24t55.5 -63v-82q-22 -49 -76 -74zM360 384h57q34 0 47 29v38q-13 29 -47 29h-57v-96z" />
    <glyph glyph-name="ampersand.ss03" horiz-adv-x="662" 
d="M293 715q98 0 158.5 -41t85.5 -91v-72h-169v42q-21 35 -75 35q-55 0 -76 -36v-99q21 -32 76 -32h75v42h169v-42h105v-125h-105v-158q22 -25 74 -25q9 0 19.5 0.5t11.5 0.5v-114q-42 -13 -95 -13q-66 0 -118 31q-64 -33 -136 -33q-100 0 -162.5 41.5t-87.5 95.5v156
q29 54 87 85q-57 26 -82 67v153q22 49 84 90.5t161 41.5zM368 296h-75q-29 0 -50.5 -12t-30.5 -29v-102q22 -41 81 -41q48 0 75 32v152z" />
    <glyph glyph-name="caron.alt" 
d="M283 497h-99l23 223h131z" />
    <glyph glyph-name="acute.case" 
d="M265 744h-139l76 159h175z" />
    <glyph glyph-name="breve.case" 
d="M175 886v-29q5 -11 20.5 -21t40.5 -10q46 0 60 31v29h122v-52q-47 -95 -182 -95q-68 0 -115 26t-68 69v52h122z" />
    <glyph glyph-name="caron.case" 
d="M335 744h-198l-85 159h123l61 -93l61 93h123z" />
    <glyph glyph-name="circumflex.case" 
d="M297 744l-61 93l-61 -93h-123l85 159h198l85 -159h-123z" />
    <glyph glyph-name="dieresis.case" 
d="M207 753h-147v133h147v-133zM413 753h-146v133h146v-133z" />
    <glyph glyph-name="dotaccent.case" 
d="M317 753h-161v139h161v-139z" />
    <glyph glyph-name="grave.case" 
d="M271 903l76 -156h-139l-112 156h175z" />
    <glyph glyph-name="hungarumlaut.case" 
d="M188 742h-115l57 158h142zM384 742h-115l57 158h141z" />
    <glyph glyph-name="macron.case" 
d="M411 756h-349v111h349v-111z" />
    <glyph glyph-name="ring.case" 
d="M235 953q46 0 81.5 -18t51.5 -48v-93q-16 -30 -51.5 -48t-81.5 -18q-45 0 -80.5 18t-51.5 48v93q16 30 51.5 48t80.5 18zM235 889q-42 0 -56 -24v-49q14 -24 56 -24q43 0 57 24v49q-14 24 -57 24z" />
    <glyph glyph-name="tilde.case" 
d="M160 892q43 0 81 -24t53 -24q26 0 33 23v20h97v-64q-6 -34 -36.5 -58.5t-76.5 -24.5q-44 0 -81.5 24t-53.5 24q-24 0 -32 -23v-20h-97v64q6 35 36.5 59t76.5 24z" />
    <glyph glyph-name="uni0326.alt" horiz-adv-x="0" 
d="M151 603v128q21 64 108 64h56v-53h-40q-35 0 -43 -16v-17h88v-106h-169z" />
    </font>
</defs>
</svg>
